osu file format v9

[General]
AudioFilename: One Piece Ed 8 (Jap).mp3
AudioLeadIn: 2000
PreviewTime: 47912
Countdown: 0
SampleSet: Normal
StackLeniency: 0.7
Mode: 1
LetterboxInBreaks: 1

[Editor]
Bookmarks: 11868,24056,36056,48056,49931,60056
DistanceSpacing: 1
BeatDivisor: 4
GridSize: 32

[Metadata]
Title:Shining ray (TV Size)
Artist:Janne Da Arc
Creator:theMikeAG
Version:Shining Taiko
Source:ONE PIECE
Tags:Luffy Ruffy Zoro Zolo Nami Sanji Chopper Robin Franky Brook Ace Vivi Crocodile Alabasta Arc Ending Theme 8 Eight Manga Ocean Ray Pirate

[Difficulty]
HPDrainRate:5
CircleSize:5
OverallDifficulty:5
ApproachRate:5
SliderMultiplier:1.4
SliderTickRate:2

[Events]
//Background and Video events
0,0,"background.png"
Video,56,"One Piece Ending 8.avi"
//Break Periods
//Storyboard Layer 0 (Background)
//Storyboard Layer 1 (Fail)
//Storyboard Layer 2 (Pass)
//Storyboard Layer 3 (Foreground)
//Storyboard Sound Samples
//Background Colour Transformations
3,100,163,162,255

[TimingPoints]
70,375.234521575985,4,1,1,70,1,0
11889,-100,4,1,1,70,0,0
48100,-100,4,1,1,70,0,1
69676,-100,4,1,1,70,0,0

[Colours]
Combo1 : 192,192,192
Combo2 : 117,186,255
Combo3 : 117,255,186
Combo4 : 255,255,128

[HitObjects]
256,96,70,1,4
160,192,445,1,0
352,192,632,1,8
352,192,1008,1,8
160,192,1195,1,0
352,192,1383,1,8
352,192,1758,1,8
352,192,2133,1,8
352,192,2509,1,8
160,192,2696,1,0
352,192,2884,1,8
160,192,3259,5,0
352,192,3447,1,8
352,192,3634,1,8
352,192,4009,1,8
160,192,4197,1,0
160,192,4385,1,0
352,192,4760,1,8
160,192,5135,1,0
352,192,5510,1,8
160,192,5698,1,0
352,192,5886,1,8
160,192,6261,5,0
352,192,6448,1,8
160,192,6636,1,0
160,192,7011,1,0
352,192,7199,1,8
352,192,7387,1,8
160,192,7762,1,0
352,192,7949,1,8
160,192,8137,1,0
352,192,8512,1,8
160,192,8888,1,0
160,192,9263,5,0
352,192,9450,1,8
352,192,9638,1,8
160,192,10013,1,0
352,192,10201,1,8
160,192,10388,1,0
256,288,10764,1,12
256,96,11139,1,4
352,192,11702,5,8
160,192,11889,1,0
160,192,12077,1,0
352,192,12265,1,8
352,192,12452,1,8
160,192,12640,1,0
352,192,13015,1,8
160,192,13390,5,0
352,192,13578,1,8
160,192,13766,1,0
352,192,13953,1,8
352,192,14141,1,8
352,192,14516,1,8
160,192,14891,5,0
352,192,15079,1,8
352,192,15266,1,8
160,192,15454,1,0
352,192,15642,1,8
352,192,16017,1,8
160,192,16392,5,0
352,192,16580,1,8
352,192,16955,1,8
160,192,17143,1,0
160,192,17518,1,0
352,192,17706,1,8
352,192,18081,5,8
352,192,18268,1,8
160,192,18456,1,0
352,192,18644,1,8
352,192,19019,1,8
160,192,19394,5,0
352,192,19582,1,8
160,192,19769,1,0
160,192,19957,1,0
352,192,20145,1,8
352,192,20520,1,8
160,192,20895,5,0
352,192,21083,1,8
160,192,21270,1,0
160,192,21458,1,0
352,192,21645,1,8
352,192,22021,1,8
160,192,22396,5,8
352,192,22584,1,8
160,192,22771,1,0
352,192,22959,1,0
160,192,23146,1,0
352,192,23334,1,8
160,192,23428,1,0
160,192,23522,1,0
352,192,23709,1,8
352,192,24085,5,8
160,192,24272,1,0
160,192,24460,1,0
352,192,24647,1,8
352,192,25023,1,8
160,192,25398,5,0
352,192,25585,1,8
160,192,25773,1,0
352,192,25961,1,8
352,192,26148,1,8
352,192,26524,1,8
352,192,26899,5,8
352,192,27086,1,8
160,192,27274,1,0
160,192,27462,1,0
160,192,27649,1,8
352,192,28024,1,8
160,192,28400,5,0
352,192,28587,1,8
352,192,28963,1,8
160,192,29150,1,0
160,192,29525,1,0
352,192,29713,1,8
160,192,30088,5,0
352,192,30276,1,8
160,192,30463,1,0
352,192,30651,1,8
352,192,31026,1,8
352,192,31402,5,8
352,192,31589,1,8
352,192,31777,1,8
160,192,31964,1,0
352,192,32152,1,8
352,192,32527,1,8
160,192,32903,5,0
352,192,33090,1,8
352,192,33278,1,8
160,192,33465,1,0
352,192,33653,1,8
352,192,34028,1,8
160,192,34403,5,0
352,192,34591,1,8
160,192,34779,1,0
352,192,34966,1,8
160,192,35154,1,0
160,192,35529,1,0
352,192,35904,1,8
256,96,36092,5,4
160,192,36280,1,0
160,192,36467,1,0
352,192,36655,1,8
352,192,37030,1,8
160,192,37218,1,0
160,352,37405,2,0,B|384:352,1,210
160,192,38531,5,0
160,192,38719,1,0
352,192,38906,1,8
160,192,39094,1,0
160,192,39282,1,0
352,192,39469,1,8
352,192,39657,1,8
160,192,40032,1,0
352,192,40220,1,8
160,352,40407,2,0,B|384:352,1,210
352,192,41721,5,8
352,192,41908,1,8
352,192,42096,1,8
160,192,42283,1,0
352,192,42471,1,8
160,192,42659,1,0
160,192,43034,1,0
160,192,43221,1,0
352,192,43409,1,8
160,192,43784,1,0
352,192,43972,1,8
160,192,44160,1,0
160,192,44535,1,0
352,192,44722,1,8
160,192,44910,1,0
256,96,45098,5,4
256,288,45660,1,12
256,96,46223,1,4
256,288,46786,1,12
160,192,47349,1,0
352,192,47724,1,8
256,96,48100,5,4
160,192,48475,1,0
352,192,48662,1,8
160,192,49038,1,0
352,192,49225,1,8
160,192,49413,1,0
192,352,49600,2,0,B|352:352,1,140,8|0
352,192,50163,1,8
160,192,50351,1,0
352,192,50726,1,8
352,192,51101,5,8
160,192,51289,1,0
352,192,51477,1,8
160,192,51664,1,0
160,192,52039,1,0
352,192,52227,1,8
160,192,52415,1,0
352,192,52602,1,8
352,192,52978,1,8
160,192,53165,1,0
160,192,53540,1,0
352,192,53728,1,8
160,192,53916,1,0
160,192,54103,1,0
352,192,54479,1,8
160,192,55041,5,0
352,192,55229,1,8
160,192,55417,1,0
352,192,55604,1,8
352,192,55979,1,8
352,192,56355,1,8
352,192,56636,1,8
160,192,56918,1,0
352,192,57105,1,8
352,192,57480,1,8
160,192,57668,1,0
160,192,58043,1,0
352,192,58231,1,8
160,192,58418,1,0
352,192,58606,1,8
352,192,58981,1,8
256,288,59357,1,12
256,288,59732,1,12
256,96,60107,5,4
160,192,60482,1,0
352,192,60670,1,8
160,192,61045,1,0
352,192,61233,1,8
160,192,61420,1,0
192,352,61608,2,0,B|352:352,1,140,8|0
352,192,62171,1,8
160,192,62358,1,0
352,192,62734,1,8
160,192,63109,5,0
160,192,63297,1,0
160,192,63484,1,0
352,192,63672,1,8
352,192,64047,1,8
352,192,64235,1,8
160,192,64422,1,0
160,192,64610,1,0
160,192,64985,1,0
160,192,65173,1,8
352,192,65548,1,8
352,192,65736,1,8
256,96,66111,5,4
160,192,66392,1,0
160,192,66674,1,0
352,192,66861,1,8
160,192,67049,1,0
352,192,67236,1,8
160,192,67424,1,0
352,192,67612,1,8
352,192,67893,1,8
352,192,68175,1,8
96,352,68362,2,0,B|320:352,1,210
256,288,69113,5,12
256,288,69300,1,12
256,288,69488,1,12
