osu file format v9

[General]
AudioFilename: One Piece Ed 8 (Jap).mp3
AudioLeadIn: 0
PreviewTime: 47912
Countdown: 0
SampleSet: Normal
StackLeniency: 0.7
Mode: 0
LetterboxInBreaks: 1

[Editor]
Bookmarks: 12056,17681,18056,22556,24056,30056,31556,32118,32681,33090,33465,34028,34556,36056,37368,37931,38493,39243,48056,53681,60056
DistanceSpacing: 1
BeatDivisor: 2
GridSize: 4

[Metadata]
Title:Shining ray (TV Size)
Artist:Janne Da Arc
Creator:theMikeAG
Version:Normal
Source:ONE PIECE
Tags:Luffy Ruffy Zoro Zolo Nami Sanji Chopper Robin Franky Brook Ace Vivi Crocodile Alabasta Arc Ending Theme 8 Eight Manga Ocean Ray Pirate

[Difficulty]
HPDrainRate:3
CircleSize:3
OverallDifficulty:3
ApproachRate:4
SliderMultiplier:1.4
SliderTickRate:2

[Events]
//Background and Video events
0,0,"background.png"
Video,56,"One Piece Ending 8.avi"
//Break Periods
//Storyboard Layer 0 (Background)
//Storyboard Layer 1 (Fail)
//Storyboard Layer 2 (Pass)
//Storyboard Layer 3 (Foreground)
//Storyboard Sound Samples
//Background Colour Transformations
3,100,163,162,255

[TimingPoints]
70,375.234521575985,4,1,1,50,1,0
48100,-100,4,1,1,50,0,1
55041,-100,4,1,1,50,0,0
60107,-100,4,1,1,50,0,1
67987,-100,4,1,1,40,0,1
69113,-100,4,1,1,50,0,1
69676,-100,4,1,1,50,0,0

[Colours]
Combo1 : 192,192,192
Combo2 : 117,186,255
Combo3 : 117,255,186
Combo4 : 255,255,128

[HitObjects]
168,88,12077,2,0,B|256:192|344:88,1,210,4|0
343,88,13015,1,0
344,296,13578,2,0,B|256:192|168:296,1,210
168,295,14516,1,0
256,104,15079,6,0,B|256:312,1,210,0|0
256,314,16017,1,0
188,192,16392,1,0
188,192,16580,1,0
328,192,16955,1,8
328,192,17143,1,0
328,332,17518,2,0,B|400:312,1,70,0|8
468,192,18081,6,0,B|456:120|400:64|328:56,1,210,4|0
256,176,19019,1,0
44,192,19582,6,0,B|56:120|112:64|184:56,1,210,0|0
256,176,20520,1,0
168,368,21083,6,0,B|256:264|344:368,1,210
343,367,22021,1,0
256,176,22584,1,0
256,192,22959,12,4,24085
323,101,24647,6,0,B|312:180|232:192,1,140
48,292,25585,2,0,B|-12:192|48:92,1,210
47,93,26524,1,0
148,192,26899,2,0,B|216:192,1,70
364,192,27462,2,0,B|296:192,1,70
256,328,28024,1,0
464,292,28587,6,0,B|524:192|464:92,1,210
464,93,29525,1,0
180,188,30088,6,0,B|200:252|256:268|312:252|332:188,1,210,4|0
331,188,31026,1,0
176,48,31589,2,0,B|112:76|60:120|32:192,1,210
31,192,32527,1,0
188,332,33090,2,0,B|256:360|324:332,2,140
160,192,34216,1,0
160,192,34591,2,0,B|256:268|352:192,1,210
351,191,35529,1,0
480,140,35904,6,0,B|464:72,1,70,0|4
328,104,36467,2,0,B|312:40|256:16|200:40|184:104,1,210,8|0
216,240,37405,2,0,B|192:312|256:360|320:312|296:240,1,210,0|8
160,80,38531,6,0,B|352:164,2,210
80,192,40032,2,0,B|8:192,2,70,0|8|0
256,308,40970,5,8
256,28,41721,1,8
164,132,42096,2,0,B|256:224|348:132,1,210,0|0
388,268,43034,6,0,B|432:320,2,70,0|8|0
256,312,43784,2,0,B|256:384,2,70,0|8|0
124,268,44535,2,0,B|80:320,2,70,0|8|4
256,192,45098,12,0,47724
400,320,48100,6,0,B|280:312|256:192,1,210,4|0
156,96,49038,2,0,B|256:40|356:96,1,210
256,192,49976,2,0,B|256:332,1,140,8|0
136,260,50726,1,8
136,120,51101,5,0
256,52,51477,2,0,B|256:336,1,280,8|8
376,260,52602,1,0
376,120,52978,1,8
376,120,53165,2,0,B|368:16|256:-16|144:16|136:120,1,350,0|4
16,192,54479,6,0,B|36:260,1,70,8|0
152,340,55041,2,0,B|360:340,1,210
362,340,55979,1,8
452,232,56355,2,0,B|452:288|492:328,2,105
392,192,57105,5,0
448,64,57480,2,8,B|376:52,1,70,8|0
264,136,58043,2,0,B|196:88|120:116|96:192,1,210
148,320,58981,1,8
256,232,59357,2,0,B|256:372,2,140,0|8|4
256,20,60670,5,0
360,112,61045,2,0,B|416:156|416:252|360:296,1,210
256,204,61983,1,8
132,140,62358,2,0,B|84:204|132:268,1,140,0|8
256,336,63109,6,0,B|256:268,1,70
308,136,63672,2,0,B|320:68|256:24|192:68|204:136,1,210,0|8
192,276,64610,2,0,B|256:324|320:276,3,140,0|8|0|8
256,192,66111,12,0,67612
354,194,67987,5,8
256,292,68362,1,0
157,194,68737,1,8
256,92,69113,2,0,B|256:193,2,70,4|0|4
