osu file format v9

[General]
AudioFilename: One Piece Ed 8 (Jap).mp3
AudioLeadIn: 0
PreviewTime: 47912
Countdown: 0
SampleSet: Normal
StackLeniency: 0.7
Mode: 0
LetterboxInBreaks: 1

[Editor]
Bookmarks: 12056,14868,24056,36431,36993,37368,37931,40931,48056,60056
DistanceSpacing: 1
BeatDivisor: 2
GridSize: 4

[Metadata]
Title:Shining ray (TV Size)
Artist:Janne Da Arc
Creator:theMikeAG
Version:Insane
Source:ONE PIECE
Tags:Luffy Ruffy Zoro Zolo Nami Sanji Chopper Robin Franky Brook Ace Vivi Crocodile Alabasta Arc Ending Theme 8 Eight Manga Ocean Ray Pirate

[Difficulty]
HPDrainRate:8
CircleSize:4
OverallDifficulty:8
ApproachRate:8
SliderMultiplier:2
SliderTickRate:2

[Events]
//Background and Video events
0,0,"background.png"
Video,56,"One Piece Ending 8.avi"
//Break Periods
//Storyboard Layer 0 (Background)
//Storyboard Layer 1 (Fail)
//Storyboard Layer 2 (Pass)
//Storyboard Layer 3 (Foreground)
//Storyboard Sound Samples
//Background Colour Transformations
3,100,163,162,255

[TimingPoints]
70,375.234521575985,4,1,1,50,1,0
48100,-100,4,1,1,50,0,1
55041,-100,4,1,1,50,0,0
60107,-100,4,1,1,50,0,1
67987,-100,4,1,1,40,0,1
69113,-100,4,1,1,50,0,1
69676,-100,4,1,1,50,0,0

[Colours]
Combo1 : 192,192,192
Combo2 : 117,186,255
Combo3 : 117,255,186
Combo4 : 255,255,128

[HitObjects]
256,264,11889,1,0
324,192,12077,1,4
256,120,12265,1,0
188,192,12452,1,8
88,192,12640,2,0,B|100:80|208:48,1,200
308,48,13203,1,8
396,96,13390,5,0
424,192,13578,1,0
396,288,13766,1,0
308,336,13953,1,8
208,336,14141,2,0,B|100:304|88:192,1,200
188,192,14704,1,8
288,192,14891,5,0
372,244,15079,2,0,B|364:292|312:320,2,100,0|0|8
376,144,15642,2,0,B|480:200|440:312,1,200
372,244,16205,1,8
288,192,16392,5,0
188,192,16580,2,0,B|174:74|288:43,1,200,0|8
388,24,17143,1,0
288,192,17518,1,0
340,104,17706,1,8
440,104,17893,1,0
388,192,18081,6,0,B|488:192,1,100,4|0
456,288,18456,2,0,B|356:288,1,100,8|0
156,288,19019,2,0,B|56:288,2,100,0|8|0
256,292,19582,6,0,B|308:284|332:232,1,100
416,288,19957,2,0,B|447:245|427:191,1,100,8|0
256,92,20520,2,0,B|255:38|207:7,2,100,0|8|0
208,180,21083,5,0
304,180,21270,1,0
256,268,21458,1,8
176,328,21645,2,0,B|196:376|256:396|316:376|336:328,1,200
416,268,22208,1,8
480,192,22396,6,0,B|512:232|508:288,2,100
424,108,22959,2,0,B|388:48|292:48|256:108,1,200,8|0
256,160,23428,1,0
256,212,23522,1,0
256,312,23709,2,0,B|252:368|192:376,1,100,8|0
112,312,24085,5,4
32,252,24272,1,0
92,172,24460,1,8
172,232,24647,1,0
256,52,25023,1,0
296,144,25210,1,8
340,232,25398,1,0
340,232,25585,5,0
420,172,25773,1,0
480,252,25961,1,8
400,312,26148,1,0
256,172,26524,2,0,B|256:272,2,100,0|8|0
176,112,27086,5,0
256,52,27274,1,0
336,112,27462,1,8
256,172,27649,1,0
56,192,28024,2,0,B|108:192|140:240,1,100,0|8
172,336,28400,2,0,B|219:304|219:252,1,100
256,52,28963,1,8
176,112,29150,2,0,B|204:164|256:180|308:164|336:112,1,200
256,52,29713,1,8
335,112,29901,1,0
432,148,30088,6,0,B|464:192|432:240,1,100,4|0
344,192,30463,2,0,B|312:236|344:284,1,100,8|0
167,191,31026,6,0,B|200:236|167:284,1,100,0|8
80,240,31402,2,0,B|48:192|80:147,1,100
176,112,31777,1,0
256,52,31964,1,8
336,112,32152,1,0
256,296,32527,2,0,B|356:296,2,100,0|8|0
256,192,33090,6,0,B|156:192,2,100,0|0|8
324,268,33653,2,0,B|396:244|396:140|324:116,1,200
256,192,34216,1,8
256,192,34403,1,0
156,192,34591,2,0,B|56:192,2,100,0|0|8
256,192,35154,1,0
428,92,35529,1,0
428,192,35717,1,8
428,292,35904,1,0
328,296,36092,6,0,B|276:280|256:232,1,100,4|0
256,132,36467,1,8
164,100,36655,2,0,B|256:32|348:100,1,200
408,180,37218,1,8
308,192,37405,2,0,B|340:304|256:360|172:304|204:192,1,300,0|8
203,192,38156,1,0
408,192,38531,6,0,B|508:192,2,100,0|8|0
308,192,39094,1,0
256,104,39282,1,0
204,192,39469,1,8
104,192,39657,2,0,B|76:308|208:332,1,200
308,332,40220,1,8
392,276,40407,2,0,B|472:276|504:192|504:192|472:108|392:108,1,300,0|8
344,192,41158,1,0
44,192,41721,5,8
88,104,41908,1,0
192,104,42096,1,4
236,192,42283,1,0
192,280,42471,1,8
88,280,42659,1,0
288,292,43034,5,0
288,292,43221,1,8
288,292,43409,1,0
288,92,43784,1,0
288,92,43972,1,8
288,92,44160,1,0
460,192,44535,1,0
376,140,44722,1,8
376,240,44910,1,0
460,192,45098,5,4
200,340,45660,1,4
200,44,46223,1,4
256,192,46599,12,4,47724
208,244,48100,5,4
208,144,48287,1,0
308,144,48475,1,8
308,244,48662,1,0
112,208,49038,6,0,B|88:256|40:272,1,100,0|8
20,176,49413,2,0,B|44:128|92:112,1,100,0|0
256,228,49976,1,8
188,40,50351,1,0
256,112,50539,1,0
324,40,50726,1,8
456,192,51101,5,0
356,192,51289,1,0
404,280,51477,1,8
304,280,51664,2,0,B|256:256|256:196|256:196|256:256|208:280,1,200
156,192,52227,1,8
108,280,52415,1,0
56,192,52602,5,0
256,192,52978,1,8
312,108,53165,2,0,B|312:44|256:4|200:44|200:108,1,200
256,192,53728,1,8
156,364,54103,1,4
356,364,54479,1,8
256,364,54666,1,0
256,192,55041,5,0
356,192,55229,1,8
356,92,55417,1,0
456,92,55604,1,0
456,292,55979,1,8
456,92,56355,2,0,B|456:292,1,200,0|8
356,292,56918,1,0
256,296,57105,6,0,B|188:260|188:176|256:136,1,200,0|8
316,216,57668,2,0,B|384:180|384:96|316:56,1,200
256,136,58231,1,8
196,56,58418,1,0
140,136,58606,2,0,B|179:211|75:255|139:323,1,200,0|8
320,236,59357,2,0,B|341:191|401:191|401:191|341:191|317:143,2,200,0|8|4
232,192,60295,5,0
144,143,60482,1,8
144,243,60670,1,0
336,192,61045,2,0,B|408:120,1,100,0|8
476,192,61420,2,0,B|404:264,1,100
256,128,61983,1,8
256,328,62358,1,0
304,240,62546,1,0
204,240,62734,1,8
256,48,63109,6,0,B|312:56|336:104,1,100
376,192,63484,1,8
476,192,63672,2,0,B|440:300|316:272,1,200
376,192,64235,1,8
336,100,64422,1,0
256,48,64610,1,0
256,248,64985,6,0,B|268:296|256:348,1,100,8|0
136,192,65548,2,0,B|124:240|140:292,2,100,0|8|0
176,100,66111,1,4
256,192,66298,12,0,67612
168,216,67987,6,0,B|132:180,2,50,8|0|0
256,264,68362,2,0,B|256:312,2,50
344,216,68737,2,0,B|380:180,2,50,8|0|0
332,116,69113,5,4
256,52,69300,1,4
180,116,69488,1,4
