osu file format v9

[General]
AudioFilename: One Piece Ed 8 (Jap).mp3
AudioLeadIn: 0
PreviewTime: 47912
Countdown: 0
SampleSet: Normal
StackLeniency: 0.7
Mode: 0
LetterboxInBreaks: 1

[Editor]
Bookmarks: 12056,36431,36993,37368,37931,40931,48056
DistanceSpacing: 1
BeatDivisor: 2
GridSize: 4

[Metadata]
Title:Shining ray (TV Size)
Artist:Janne Da Arc
Creator:theMikeAG
Version:Hard
Source:ONE PIECE
Tags:Luffy Ruffy Zoro Zolo Nami Sanji Chopper Robin Franky Brook Ace Vivi Crocodile Alabasta Arc Ending Theme 8 Eight Manga Ocean Ray Pirate

[Difficulty]
HPDrainRate:6
CircleSize:4
OverallDifficulty:6
ApproachRate:7
SliderMultiplier:1.6
SliderTickRate:2

[Events]
//Background and Video events
0,0,"background.png"
Video,-64,"One Piece Ending 8.avi"
//Break Periods
//Storyboard Layer 0 (Background)
//Storyboard Layer 1 (Fail)
//Storyboard Layer 2 (Pass)
//Storyboard Layer 3 (Foreground)
//Storyboard Sound Samples
//Background Colour Transformations
3,100,163,162,255

[TimingPoints]
70,375.234521575985,4,1,1,50,1,0
48086,-100,4,1,1,50,0,1
55027,-100,4,1,1,50,0,0
60093,-100,4,1,1,50,0,1
67987,-100,4,1,1,40,0,1
69113,-100,4,1,1,50,0,1
69662,-100,4,1,1,50,0,0

[Colours]
Combo1 : 192,192,192
Combo2 : 117,186,255
Combo3 : 117,255,186
Combo4 : 255,255,128

[HitObjects]
88,60,11889,1,0
140,120,12077,1,4
88,180,12265,1,0
140,240,12452,1,8
88,300,12640,2,0,B|160:348|240:304,1,160
400,304,13390,5,0
348,244,13578,1,0
400,184,13766,1,0
348,124,13953,1,8
400,64,14141,2,0,B|328:16|244:56,1,160
256,216,14891,5,0
192,168,15079,2,0,B|148:164|120:192,2,80,0|0|8
176,248,15642,1,0
96,108,16017,1,0
256,100,16392,5,0
256,180,16580,2,0,B|312:236|404:192,1,160,0|8
404,191,17143,2,0,B|416:272|336:328,1,160
272,280,17706,1,8
96,336,18081,5,4
156,280,18268,1,0
216,336,18456,1,8
272,280,18644,2,0,B|288:208|244:124,1,160
96,188,19394,6,0,B|108:144|140:124,1,80
88,64,19769,2,0,B|127:41|164:49,1,80,0|8
244,56,20145,2,0,B|324:68|380:132,1,160
288,264,20895,5,0
260,340,21083,1,0
188,376,21270,1,0
116,340,21458,1,8
88,264,21645,1,0
188,140,22021,1,0
256,192,22396,12,8,23709
244,136,24085,5,4
312,180,24272,1,0
268,248,24460,1,8
200,204,24647,1,0
332,292,25023,1,0
404,148,25398,6,0,B|404:228,1,80
472,272,25773,2,0,B|472:192,1,80,0|8
472,112,26148,2,0,B|472:28|472:28|396:28,1,160
256,108,26899,6,0,B|256:28,2,80
256,108,27462,1,8
176,108,27649,2,0,B|176:192|256:236,1,160,0|0
104,192,28400,5,0
104,192,28587,1,0
136,36,28963,1,8
68,80,29150,2,0,B|12:140|44:232,1,160,0|0
96,292,29713,1,8
256,316,30088,6,0,B|252:272|208:260,1,80,4|0
256,196,30463,1,8
320,244,30651,2,0,B|376:192|352:96,1,160,0|0
204,28,31402,5,0
136,72,31589,2,0,B|156:108|200:112,1,80
276,80,31964,1,8
352,96,32152,2,0,B|428:128|440:224,1,160,0|0
396,376,32903,5,0
320,352,33090,2,0,B|336:312|376:300,2,80,0|0|8
244,376,33653,2,0,B|248:292|324:244,2,160,0|0|0
180,328,34591,6,0,B|172:284|132:268,1,80
64,308,34966,2,0,B|40:268|64:232,1,80,8|0
160,104,35529,2,4,B|196:24|316:24|352:104,1,240,0|4
256,232,36467,6,0,B|200:176,1,80,8|0
256,24,37030,2,0,B|312:80,1,80,0|8
372,132,37405,2,0,B|300:176|212:88|140:132,1,240,0|8
139,132,38156,1,0
184,284,38531,6,0,B|164:320|124:332,2,80,0|8|0
256,316,39094,2,0,B|256:272|240:236,1,80
184,180,39469,1,8
204,104,39657,2,0,B|212:36|300:36|308:104,1,160
328,180,40220,1,8
328,256,40407,2,0,B|256:256|256:180|256:180|256:256|184:256,1,240,0|8
496,192,41721,6,0,B|456:192|424:164,1,80,8|0
388,92,42096,2,0,B|356:116|344:156,1,80,4|0
348,236,42471,2,0,B|304:232|280:200,1,80,8|0
188,68,43034,5,0
188,68,43221,1,8
188,68,43409,1,0
88,192,43784,1,0
88,192,43972,1,8
88,192,44160,1,0
188,316,44535,1,0
188,316,44722,1,8
188,316,44910,1,4
256,192,45098,12,4,48100
200,136,48475,6,0,B|256:192,1,80,8|0
296,348,49038,1,0
364,304,49225,2,0,B|300:240,1,80,8|0
364,192,49600,6,0,B|352:104|256:44|160:104|148:192,1,320
120,348,50726,1,8
256,264,51101,5,0
296,332,51289,1,0
216,332,51477,1,8
256,264,51664,2,0,B|280:192|232:184|256:104,1,160
180,76,52227,1,8
124,136,52415,1,0
180,192,52602,6,0,B|252:216|260:168|340:192,1,160,0|8
388,128,53165,2,0,B|440:144|440:240|388:256,1,160
456,300,53728,2,0,B|420:348|352:348|312:296,1,160,8|4
156,300,54479,1,8
156,300,54666,1,0
36,192,55041,6,0,B|44:236|80:256,2,80,0|8|0
116,192,55604,2,0,B|200:192|232:100,1,160,0|8
364,192,56355,2,0,B|388:248|464:280,2,120,0|0|0
364,192,57105,1,0
204,192,57480,5,8
204,192,57668,2,0,B|288:176|244:128|332:104,1,160
412,104,58231,1,8
476,152,58418,1,0
484,232,58606,2,0,B|444:304|352:312,1,160,0|8
256,184,59357,1,0
256,344,59732,1,8
116,264,60107,6,0,B|56:192|116:120,1,160,4|8
116,119,60670,1,0
256,184,61045,5,0
328,152,61233,1,8
360,224,61420,1,0
432,192,61608,2,0,B|448:112|380:48,1,160,0|8
220,32,62358,2,0,B|144:60|104:136,1,160,0|8
244,212,63109,6,0,B|284:192|296:156,1,80
232,108,63484,1,8
172,160,63672,2,0,B|187:252|99:284,1,160
32,236,64235,1,8
32,156,64422,1,0
92,104,64610,6,0,B|160:44|240:88,1,160,0|8
264,164,65173,2,0,B|352:181|400:103,1,160
399,103,65736,1,8
256,192,66111,12,0,67612
172,228,67987,6,0,B|152:192|156:152,1,80,8|0
220,100,68362,2,0,B|256:80|296:84,1,80
340,156,68737,2,0,B|360:192|356:232,1,80,8|0
292,284,69113,6,0,B|256:304|216:300,2,80,4|0|4
