osu file format v5

[General]
AudioFilename: Gekkouka (opening).mp3
AudioLeadIn: 1500
PreviewTime: -1
Countdown: 0
SampleSet: Soft
StackLeniency: 0.7
Mode: 0
LetterboxInBreaks: 0
SkinPreference:Blackjack skin

[Metadata]
Title:Gekkouka -Black Jack Mix-
Artist:Janne Da Arc
Creator:An64fan
Version:Easy
Source:Black Jack 1st Opening
Tags:Black Jack Blackjack anime OP

[Difficulty]
HPDrainRate:3
CircleSize:2
OverallDifficulty:2
SliderMultiplier:1
SliderTickRate:1

[Events]
//Background and Video events
//Break Periods
2,56131,64372
//Storyboard Layer 0 (Background)
//Storyboard Layer 1 (Failing)
//Storyboard Layer 2 (Passing)
//Storyboard Layer 3 (Foreground)
//Storyboard Sound Samples
//Background Colour Transformations
3,100,0,251,169

[TimingPoints]
620,588.235294117647,4,2,0,100,1
37605,-100,4,1,0,85,0
81796,-100,4,2,0,100,0

[Colours]
Combo1 : 36,125,155
Combo2 : 125,201,225

[HitObjects]
80,88,619,2,0,B|296:88,1,200
371,128,2384,1,2
371,227,2972,2,2,B|379:315|347:323|227:315,1,200
125,150,5325,5,0
293,46,6502,1,0
433,188,7678,2,2,B|417:220|393:236|345:236,2,100
238,141,10031,6,0,B|174:149|126:173|126:237|134:285,1,200
332,284,12384,2,0,B|436:284,2,100
284,89,14737,6,0,B|212:113|212:113|180:161|180:161|108:193,1,200
200,246,16502,1,2
287,295,17090,2,2,B|375:303|431:287|463:215,1,200
460,123,18855,6,0,B|348:123,1,100
160,118,20620,2,0,B|160:230,2,100,0|0|2
101,294,23561,6,0,B|101:190,1,100
229,116,25031,2,0,B|309:116|285:132|285:164|253:196|341:196,1,150,0|0
471,195,26796,1,0
248,308,28267,6,0,B|204:292|189:252|190:212,1,100
353,115,30031,1,2
353,215,30620,1,2
353,314,31208,1,2
67,221,32972,6,0,B|83:245|115:261|179:261,1,100
355,259,34737,2,2,B|467:259,1,100
256,192,35914,12,4,38267
333,158,40031,6,0,B|333:118|293:102|253:102,2,100
162,263,42384,1,0
113,175,42972,6,0,B|81:119|153:87,1,100
277,239,44737,2,0,B|317:279|397:247,1,100
437,181,45914,2,2,B|453:117,2,50
364,111,47090,6,0,B|316:79|316:79|252:87,1,100
438,198,48855,1,0
374,275,49443,2,2,B|334:299|278:307|214:299|166:259,2,200
381,175,52384,6,0,B|349:135|277:135,1,100
192,134,53561,1,0
103,180,54149,2,0,B|31:228|15:300|39:316|151:340|231:316,1,300
125,214,65914,6,0,B|141:150|213:150,3,100
388,102,68855,1,8
388,301,70031,1,8
216,197,71208,6,0,B|184:181|184:181|144:237|144:237|104:269|64:197|104:125|104:125|72:69,1,300
180,62,73561,1,0
379,63,74737,1,0
381,162,75325,6,0,B|301:258,1,100
82,326,78267,6,2,B|394:326|418:294|394:270|106:270|90:246|106:222|298:222|314:206|298:182|184:176|160:144|178:94,1,600
270,85,82384,6,2,B|319:84|346:104|352:137,1,100
213,78,85325,6,0,B|205:126|221:182|325:238,1,200
252,309,87090,2,2,B|132:309,1,100
157,118,89737,6,0,B|200:200|200:200|264:216,1,150
109,238,92384,1,0
183,107,93267,1,0
331,85,94149,6,2,B|403:101|491:165|411:197|299:157|243:229|291:309|427:333,1,400
256,192,97090,12,2,100040
