osu file format v14

[General]
AudioFilename: digimon cut.mp3
AudioLeadIn: 0
PreviewTime: 51096
Countdown: 0
SampleSet: Soft
StackLeniency: 0.5
Mode: 0
LetterboxInBreaks: 0
WidescreenStoryboard: 1

[Editor]
Bookmarks: 7307,22538,37307,52077,66846,82538
DistanceSpacing: 1.2
BeatDivisor: 4
GridSize: 4
TimelineZoom: 1.2

[Metadata]
Title:Annyeong! Digimon
TitleUnicode:안녕! 디지몬
Artist:Jang Sukhui
ArtistUnicode:장숙희
Creator:Doyak
Version:Normal
Source:Digimon Adventure
Tags:Sonnyc 디지몬 어드벤처 엔딩 Korean Ending ED
BeatmapID:1132017
BeatmapSetID:523959

[Difficulty]
HPDrainRate:4
CircleSize:3.5
OverallDifficulty:4
ApproachRate:5
SliderMultiplier:1.3
SliderTickRate:1

[Events]
//Background and Video events
0,0,"digimon.jpg",0,0
//Break Periods
//Storyboard Layer 0 (Background)
//Storyboard Layer 1 (Fail)
//Storyboard Layer 2 (Pass)
//Storyboard Layer 3 (Foreground)
//Storyboard Sound Samples

[TimingPoints]
384,461.538461538462,4,2,1,50,1,0
5922,-100,4,3,1,60,0,0
7768,-100,4,2,1,60,0,0
20922,-100,4,3,1,60,0,0
22537,-100,4,2,1,60,0,0
52076,-100,4,2,1,70,0,1
65922,-100,4,2,1,70,0,0
66845,-100,4,2,1,70,0,1
81614,-100,4,2,1,70,0,0

[Colours]
Combo1 : 241,56,107
Combo2 : 6,223,207
Combo3 : 232,218,40
Combo4 : 113,231,41

[HitObjects]
109,69,384,6,0,L|173:63,1,65,2|2,0:0|0:0,0:0:0:0:
124,211,1077,2,0,L|188:205,1,65,2|2,0:0|0:0,0:0:0:0:
403,69,2230,6,0,L|338:63,1,65,2|2,0:0|0:0,0:0:0:0:
388,211,2923,2,0,L|323:205,1,65,2|2,0:0|0:0,0:0:0:0:
182,359,4076,6,0,L|188:294,1,65,2|2,0:0|0:0,0:0:0:0:
330,359,4768,2,0,L|324:294,1,65,2|2,0:0|0:0,0:0:0:0:
498,199,5923,6,0,P|524:141|499:83,1,130,0|2,0:0|0:0,0:0:0:0:
439,34,6615,2,0,L|281:19,1,130,0|2,0:0|0:0,0:0:0:0:
231,14,7307,1,0,0:0:0:0:
104,105,7769,6,0,L|89:263,1,130,4|8,0:0|0:0,0:0:0:0:
159,273,8461,1,0,0:0:0:0:
223,318,8692,2,0,L|229:387,2,65,0|0|8,0:0|0:0|0:0,0:0:0:0:
294,178,9615,6,0,P|352:154|409:180,1,130,0|8,0:0|0:0,0:0:0:0:
460,239,10307,1,0,0:0:0:0:
410,299,10538,2,0,P|352:324|294:300,1,130,0|8,0:0|0:0,0:0:0:0:
150,239,11461,6,0,L|144:170,1,65,0|0,0:0|0:0,0:0:0:0:
216,144,11923,2,0,L|222:75,1,65,8|0,0:0|0:0,0:0:0:0:
172,18,12384,2,0,L|107:18,2,65,0|0|8,0:0|0:0|0:0,0:0:0:0:
323,54,13307,6,0,L|308:212,1,130,0|8,0:0|0:0,0:0:0:0:
361,243,14000,2,0,L|430:249,1,65,0|2,0:0|0:0,0:0:0:0:
347,382,14692,1,10,0:0:0:0:
191,370,15153,6,0,L|122:364,1,65,0|0,0:0|0:0,0:0:0:0:
128,286,15615,2,0,L|59:280,1,65,8|0,0:0|0:0,0:0:0:0:
71,202,16077,2,0,L|135:207,2,65,0|0|8,0:0|0:0|0:0,0:0:0:0:
86,46,17000,6,0,L|244:61,1,130,0|8,0:0|0:0,0:0:0:0:
290,80,17692,1,0,0:0:0:0:
232,133,17923,2,0,P|290:159|348:134,1,130,0|8,0:0|0:0,0:0:0:0:
490,71,18846,5,0,0:0:0:0:
490,71,19077,2,0,L|475:229,1,130,0|0,0:0|0:0,0:0:0:0:
470,278,19769,1,0,0:0:0:0:
350,377,20230,1,8,0:0:0:0:
251,257,20692,6,0,L|182:263,1,65,0|0,0:0|0:0,0:0:0:0:
108,270,21153,2,0,L|117:393,2,97.5,8|0|0,0:2|0:0|0:0,0:0:0:0:
102,191,22077,1,8,0:2:0:0:
199,69,22538,6,0,L|268:63,1,65,4|0,0:0|0:0,0:0:0:0:
294,135,23000,2,0,L|363:141,1,65,8|0,0:0|0:0,0:0:0:0:
420,91,23461,2,0,L|420:26,2,65,0|0|8,0:0|0:0|0:0,0:0:0:0:
420,247,24384,6,0,L|485:242,2,65,0|0|8,0:0|0:0|0:0,0:0:0:0:
381,315,25077,1,0,0:0:0:0:
381,315,25307,2,0,L|223:300,1,130,0|8,0:0|0:0,0:0:0:0:
98,322,26230,6,0,L|92:257,1,65,0|0,0:0|0:0,0:0:0:0:
85,179,26692,2,0,L|149:173,1,65,8|0,0:0|0:0,0:0:0:0:
228,166,27153,2,0,L|233:230,1,65,0|0,0:0|0:0,0:0:0:0:
241,309,27615,2,0,L|176:314,1,65,8|0,0:0|0:0,0:0:0:0:
98,322,28077,6,0,L|83:164,1,130,0|8,0:0|0:0,0:0:0:0:
78,114,28769,2,0,L|14:120,1,65,0|2,0:0|0:0,0:0:0:0:
123,8,29461,1,10,0:0:0:0:
273,49,29923,6,0,L|337:43,1,65,0|0,0:0|0:0,0:0:0:0:
415,37,30384,1,8,0:0:0:0:
493,171,30846,2,0,L|499:235,2,65,0|0|8,0:0|0:0|0:0,0:0:0:0:
344,219,31769,6,0,P|319:276|343:334,1,130,0|8,0:0|0:0,0:0:0:0:
396,277,32461,1,0,0:0:0:0:
448,335,32692,2,0,P|472:276|446:219,1,130,0|8,0:0|0:0,0:0:0:0:
396,71,33615,6,0,L|402:7,2,65,0|0|8,0:0|0:0|0:0,0:0:0:0:
242,100,34538,1,0,0:0:0:0:
242,100,34769,2,0,P|184:125|126:101,1,130,0|0,0:0|0:0,0:0:0:0:
65,150,35461,6,0,L|71:214,2,65,0|4|8,0:0|0:3|0:0,0:0:0:0:
209,208,36384,2,0,L|215:272,1,65
293,271,36846,2,0,L|299:335,1,65,8|8,0:0|0:0,0:0:0:0:
364,379,37307,6,0,L|428:373,2,65,4|0|8,0:0|0:0|0:0,0:0:0:0:
387,224,38230,2,0,L|451:218,2,65,0|0|8,0:0|0:0|0:0,0:0:0:0:
262,130,39153,6,0,L|256:66,2,65,0|0|8,0:0|0:0|0:0,0:0:0:0:
184,139,39846,1,0,0:0:0:0:
184,139,40077,2,0,L|169:-19,1,130,0|8,0:0|0:0,0:0:0:0:
65,124,41000,6,0,L|1:118,2,65,0|0|8,0:0|0:0|0:0,0:0:0:0:
84,278,41923,2,0,L|20:272,2,65,0|0|8,0:0|0:0|0:0,0:0:0:0:
239,291,42846,6,0,L|233:355,2,65,0|0|8,0:0|0:0|0:0,0:0:0:0:
180,238,43538,1,0,0:0:0:0:
180,238,43769,2,0,P|238:213|296:237,1,130,2|10,0:0|0:0,0:0:0:0:
417,336,44692,5,0,0:0:0:0:
417,336,44923,2,0,L|423:272,1,65,0|8,0:0|0:0,0:0:0:0:
432,193,45384,1,0,0:0:0:0:
441,116,45615,2,0,L|505:122,2,65,0|0|8,0:0|0:0|0:0,0:0:0:0:
324,12,46538,5,0,0:0:0:0:
324,12,46769,2,0,P|265:36|207:11,1,130,0|0,0:0|0:0,0:0:0:0:
147,61,47461,2,0,L|83:67,2,65,0|0|8,0:0|0:0|0:0,0:0:0:0:
263,164,48384,5,0,0:0:0:0:
263,164,48615,2,0,L|257:228,1,65,0|8,0:0|0:0,0:0:0:0:
251,306,49077,1,0,0:0:0:0:
244,383,49307,1,0,0:0:0:0:
181,240,49769,1,8,0:0:0:0:
335,257,50230,5,4,0:3:0:0:
335,257,51153,2,0,P|360:198|335:140,1,130,2|2,0:3|0:3,0:0:0:0:
175,140,52077,6,0,P|150:198|176:256,1,130,4|8,0:0|0:0,0:0:0:0:
230,311,52769,1,0,0:0:0:0:
284,366,53000,2,0,L|442:351,1,130,0|8,0:0|0:0,0:0:0:0:
445,200,53923,6,0,L|509:206,2,65,0|0|8,0:0|0:0|0:0,0:0:0:0:
289,189,54846,1,0,0:0:0:0:
289,189,55077,2,0,L|295:125,1,65,0|8,0:0|0:0,0:0:0:0:
309,47,55538,6,0,P|251:22|193:48,1,130,0|0,0:0|0:0,0:0:0:0:
143,107,56230,2,0,L|79:101,1,65,8|0,0:0|0:0,0:0:0:0:
5,72,56692,1,0,0:0:0:0:
20,227,57153,1,8,0:0:0:0:
35,382,57615,6,0,L|193:367,1,130,0|8,0:0|0:0,0:0:0:0:
319,355,58538,1,2,0:0:0:0:
319,355,59000,1,10,0:0:0:0:
268,207,59461,6,0,P|242:149|267:91,1,130,4|8,0:0|0:0,0:0:0:0:
319,149,60153,1,0,0:0:0:0:
371,91,60384,2,0,P|395:149|370:206,1,130,0|8,0:0|0:0,0:0:0:0:
319,355,61307,6,0,L|383:361,2,65,0|0|8,0:0|0:0|0:0,0:0:0:0:
195,260,62230,2,0,L|131:266,1,65,0|0,0:0|0:0,0:0:0:0:
120,343,62692,2,0,L|56:337,1,65,8|0,0:0|0:0,0:0:0:0:
4,277,63153,6,0,L|19:119,1,130,0|8,0:0|0:0,0:0:0:0:
41,73,63846,1,0,0:0:0:0:
93,15,64077,2,0,P|117:73|92:130,1,130,0|8,0:0|0:0,0:0:0:0:
238,183,65000,6,0,L|302:177,1,65,0|4,0:0|0:3,0:0:0:0:
295,99,65461,2,0,L|359:93,1,65,8|4,0:0|0:3,0:0:0:0:
430,59,65923,2,0,L|442:188,1,130,2|10,0:0|0:0,0:0:0:0:
410,340,66846,6,0,P|352:364|295:339,1,130,4|8,0:0|0:0,0:0:0:0:
256,270,67538,1,0,0:0:0:0:
216,337,67769,2,0,P|158:363|99:339,1,130,0|8,0:0|0:0,0:0:0:0:
32,198,68692,5,0,0:0:0:0:
32,198,68923,2,0,L|44:68,1,130
122,73,69615,2,0,L|116:9,2,65,0|0|8,0:0|0:0|0:0,0:0:0:0:
263,138,70538,6,0,P|321:161|379:135,1,130,0|8,0:0|0:0,0:0:0:0:
449,101,71230,2,0,L|455:165,1,65,0|0,0:0|0:0,0:0:0:0:
472,321,71923,1,8,0:0:0:0:
329,258,72384,6,0,L|199:270,1,130,0|8,0:0|0:0,0:0:0:0:
44,286,73307,1,2,0:0:0:0:
44,286,73769,1,10,0:0:0:0:
95,138,74230,6,0,P|121:80|96:22,1,130,4|8,0:0|0:0,0:0:0:0:
44,80,74922,1,0,0:0:0:0:
19,154,75153,2,0,L|31:283,1,130,0|8,0:0|0:0,0:0:0:0:
156,376,76077,6,0,L|220:382,2,65,0|0|8,0:0|0:0|0:0,0:0:0:0:
176,221,77000,2,0,L|240:227,1,65,0|0,0:0|0:0,0:0:0:0:
295,283,77461,2,0,L|359:277,1,65,8|0,0:0|0:0,0:0:0:0:
391,205,77923,6,0,P|417:147|392:89,1,130,0|8,0:0|0:0,0:0:0:0:
340,147,78615,1,0,0:0:0:0:
288,89,78846,2,0,P|264:147|289:204,1,130,0|8,0:0|0:0,0:0:0:0:
180,316,79769,6,0,P|206:258|181:200,1,130,0|8,0:0|0:0,0:0:0:0:
129,258,80461,1,0,0:0:0:0:
77,200,80692,2,0,P|53:258|78:315,1,130,0|8,0:0|0:0,0:0:0:0:
234,330,81615,5,4,0:0:0:0:
249,174,82077,1,4,0:0:0:0:
264,18,82538,1,4,0:0:0:0:
