osu file format v14

[General]
AudioFilename: digimon cut.mp3
AudioLeadIn: 0
PreviewTime: 51096
Countdown: 0
SampleSet: Soft
StackLeniency: 0.6
Mode: 0
LetterboxInBreaks: 0
WidescreenStoryboard: 1

[Editor]
Bookmarks: 7307,22538,37307,52077,66846,82538
DistanceSpacing: 1.2
BeatDivisor: 4
GridSize: 4
TimelineZoom: 1.2

[Metadata]
Title:Annyeong! Digimon
TitleUnicode:안녕! 디지몬
Artist:Jang Sukhui
ArtistUnicode:장숙희
Creator:Doyak
Version:Easy
Source:Digimon Adventure
Tags:Sonnyc 디지몬 어드벤처 엔딩 Korean Ending ED
BeatmapID:1132202
BeatmapSetID:523959

[Difficulty]
HPDrainRate:2
CircleSize:3
OverallDifficulty:2
ApproachRate:2
SliderMultiplier:0.899999999999999
SliderTickRate:1

[Events]
//Background and Video events
0,0,"digimon.jpg",0,0
//Break Periods
//Storyboard Layer 0 (Background)
//Storyboard Layer 1 (Fail)
//Storyboard Layer 2 (Pass)
//Storyboard Layer 3 (Foreground)
//Storyboard Sound Samples

[TimingPoints]
384,461.538461538462,4,2,1,50,1,0
5922,-100,4,3,1,60,0,0
7768,-100,4,2,1,60,0,0
20922,-100,4,3,1,60,0,0
22537,-100,4,2,1,60,0,0
52076,-100,4,2,1,70,0,1
65922,-100,4,2,1,70,0,0
66845,-100,4,2,1,70,0,1
81614,-100,4,2,1,70,0,0

[Colours]
Combo1 : 241,56,107
Combo2 : 6,223,207
Combo3 : 232,218,40
Combo4 : 113,231,41

[HitObjects]
100,112,384,6,0,L|281:127,1,180,2|2,0:0|0:0,0:0:0:0:
413,246,2230,2,0,L|232:261,1,180,2|2,0:0|0:0,0:0:0:0:
180,88,4077,6,0,P|256:47|331:88,1,180,2|2,0:0|0:0,0:0:0:0:
256,252,5923,1,0,0:0:0:0:
180,302,6384,2,0,P|255:343|331:302,1,180,2|0,0:0|0:0,0:0:0:0:
335,210,7769,6,0,L|424:202,1,89.9999999999999,4|8,0:0|0:0,0:0:0:0:
415,113,8692,2,0,L|325:120,1,89.9999999999999,0|8,0:0|0:0,0:0:0:0:
252,174,9615,2,0,P|238:100|273:47,2,135,0|0|8,0:0|0:0|0:0,0:0:0:0:
335,210,11461,6,0,L|343:299,2,89.9999999999999,0|8|0,0:0|0:0|0:0,0:0:0:0:
325,120,12846,1,8,0:0:0:0:
252,174,13307,2,0,P|178:188|125:153,1,135,0|0,0:0|0:0,0:0:0:0:
91,182,14230,2,0,L|99:271,1,89.9999999999999,2|10,0:0|0:0,0:0:0:0:
167,328,15153,5,0,0:0:0:0:
225,259,15615,2,0,L|314:267,2,89.9999999999999,8|0|8,0:0|0:0|0:0,0:0:0:0:
233,169,17000,2,0,L|388:183,2,135,0|0|8,0:0|0:0|0:0,0:0:0:0:
151,208,18846,5,0,0:0:0:0:
159,118,19307,2,0,L|167:29,2,89.9999999999999,8|0|8,0:0|0:0|0:0,0:0:0:0:
151,208,20692,1,0,0:0:0:0:
233,171,21153,1,8,0:2:0:0:
307,224,21615,2,0,L|396:216,1,89.9999999999999,0|8,0:0|0:2,0:0:0:0:
407,305,22538,6,0,L|318:313,1,89.9999999999999,4|8,0:0|0:0,0:0:0:0:
234,279,23460,2,0,L|145:287,1,89.9999999999999,0|8,0:0|0:0,0:0:0:0:
86,218,24384,2,0,P|55:278|79:349,2,135,0|0|8,0:0|0:0|0:0,0:0:0:0:
131,139,26230,6,0,L|220:131,1,89.9999999999999,0|8,0:0|0:0,0:0:0:0:
292,76,27153,2,0,L|381:67,1,89.9999999999999,0|8,0:0|0:0,0:0:0:0:
451,125,28077,2,0,P|482:183|466:246,1,135,0|0,0:0|0:0,0:0:0:0:
437,281,29000,2,0,L|348:273,1,89.9999999999999,2|10,0:0|0:0,0:0:0:0:
257,265,29923,5,0,0:0:0:0:
308,191,30384,2,0,L|316:102,2,89.9999999999999,8|0|8,0:0|0:0|0:0,0:0:0:0:
257,265,31769,2,0,P|320:281|379:250,2,135,0|0|8,0:0|0:0|0:0,0:0:0:0:
218,183,33615,5,0,0:0:0:0:
178,102,34077,2,0,L|89:94,2,89.9999999999999,8|0|8,0:0|0:0|0:0,0:0:0:0:
267,110,35461,1,0,0:0:0:0:
218,183,35923,1,8,0:0:0:0:
307,191,36384,2,0,L|396:183,1,89.9999999999999,0|8,0:0|0:0,0:0:0:0:
486,176,37307,5,4,0:0:0:0:
446,256,37769,2,0,L|454:345,2,89.9999999999999,8|0|8,0:0|0:0|0:0,0:0:0:0:
396,182,39153,2,0,P|380:117|411:59,2,135,0|0|8,0:0|0:0|0:0,0:0:0:0:
356,263,41000,5,0,0:0:0:0:
306,188,41461,2,0,L|217:196,2,89.9999999999999,8|0|8,0:0|0:0|0:0,0:0:0:0:
299,98,42846,2,0,L|144:111,1,135,0|0,0:0|0:0,0:0:0:0:
119,112,43769,2,0,L|111:201,1,89.9999999999999,2|10,0:0|0:0,0:0:0:0:
103,291,44692,5,0,0:0:0:0:
184,254,45153,2,0,L|192:343,2,89.9999999999999,8|0|8,0:0|0:0|0:0,0:0:0:0:
264,216,46538,1,0,0:0:0:0:
345,178,47000,2,0,L|353:89,2,89.9999999999999,8|0|8,0:0|0:0|0:0,0:0:0:0:
338,267,48384,5,0,0:0:0:0:
264,216,48846,2,0,L|175:208,1,89.9999999999999,8|0,0:0|0:0,0:0:0:0:
85,200,49769,1,8,0:0:0:0:
135,126,50230,1,4,0:3:0:0:
214,288,51153,2,0,L|303:280,1,89.9999999999999,2|2,0:3|0:3,0:0:0:0:
377,227,52077,6,0,P|393:290|362:349,2,135,4|0|8,0:0|0:0|0:0,0:0:0:0:
294,190,53923,2,0,L|302:101,1,89.9999999999999,0|8,0:0|0:0,0:0:0:0:
212,93,54846,2,0,L|204:182,1,89.9999999999999,0|8,0:0|0:0,0:0:0:0:
244,263,55769,5,0,0:0:0:0:
334,270,56230,2,0,L|423:278,2,89.9999999999999,8|0|8,0:0|0:0|0:0,0:0:0:0:
244,263,57615,2,0,L|155:271,1,89.9999999999999,0|8,0:0|0:0,0:0:0:0:
64,281,58538,1,2,0:0:0:0:
101,198,59000,1,10,0:0:0:0:
48,125,59461,6,0,P|111:108|169:139,2,135,4|0|8,0:0|0:0|0:0,0:0:0:0:
101,198,61307,1,0,0:0:0:0:
155,271,61769,2,0,L|244:263,1,89.9999999999999,8|0,0:0|0:0,0:0:0:0:
334,255,62692,1,8,0:0:0:0:
282,181,63153,6,0,L|274:92,1,89.9999999999999,0|8,0:0|0:0,0:0:0:0:
364,85,64077,2,0,L|372:174,1,89.9999999999999,0|8,0:0|0:0,0:0:0:0:
334,255,65000,1,0,0:0:0:0:
259,307,65461,1,8,0:0:0:0:
208,232,65923,1,2,0:0:0:0:
282,181,66384,1,10,0:0:0:0:
334,255,66845,6,0,L|476:241,2,135,4|0|8,0:0|0:0|0:0,0:0:0:0:
259,307,68692,2,0,L|170:298,1,89.9999999999999,0|8,0:0|0:0,0:0:0:0:
177,209,69615,2,0,L|88:200,1,89.9999999999999,0|8,0:0|0:0,0:0:0:0:
29,130,70538,5,0,0:0:0:0:
97,72,71000,2,0,L|186:80,2,89.9999999999999,8|0|8,0:0|0:0|0:0,0:0:0:0:
29,130,72384,2,0,L|37:219,1,89.9999999999999,0|8,0:0|0:0,0:0:0:0:
51,308,73307,1,2,0:0:0:0:
121,253,73769,1,10,0:0:0:0:
191,197,74230,6,0,P|209:259|180:319,2,135,4|0|8,0:0|0:0|0:0,0:0:0:0:
135,127,76077,1,0,0:0:0:0:
205,71,76538,1,8,0:0:0:0:
261,141,77000,1,0,0:0:0:0:
191,197,77461,1,8,0:0:0:0:
247,267,77923,6,0,L|336:259,1,89.9999999999999,0|8,0:0|0:0,0:0:0:0:
425,251,78846,2,0,L|417:162,1,89.9999999999999,0|8,0:0|0:0,0:0:0:0:
409,72,79769,2,0,L|320:80,1,89.9999999999999,0|8,0:0|0:0,0:0:0:0:
230,88,80692,2,0,L|238:177,1,89.9999999999999,0|8,0:0|0:0,0:0:0:0:
183,247,81615,5,4,0:0:0:0:
253,303,82076,1,4,0:0:0:0:
309,233,82538,1,4,0:0:0:0:
