osu file format v9

[General]
AudioFilename: MP3.mp3
AudioLeadIn: 1500
PreviewTime: 23472
Countdown: 0
SampleSet: Soft
StackLeniency: 0.4
Mode: 0
LetterboxInBreaks: 0

[Editor]
DistanceSpacing: 0.9
BeatDivisor: 4
GridSize: 8

[Metadata]
Title:I Touch Myself (Nightcore Mix)
Artist:Jan Wayne and Scarlet
Creator:osuplayer111
Version:Insane
Source:
Tags:Tony Samah

[Difficulty]
HPDrainRate:8
CircleSize:4
OverallDifficulty:8
ApproachRate:8
SliderMultiplier:1.8
SliderTickRate:1

[Events]
//Background and Video events
0,0,"BG.jpg"
//Break Periods
2,46295,52388
//Storyboard Layer 0 (Background)
//Storyboard Layer 1 (Fail)
//Storyboard Layer 2 (Pass)
//Storyboard Layer 3 (Foreground)
//Storyboard Sound Samples
//Background Colour Transformations
3,100,128,128,64

[TimingPoints]
-383,352.112676056338,4,2,1,80,1,0
1025,-100,4,1,1,50,0,0
1201,-100,4,2,1,80,0,0
11940,-100,4,1,1,50,0,0
12293,-100,4,2,1,80,0,0
22328,-100,4,1,1,50,0,0
23560,-100,4,2,1,80,0,1
23736,-100,4,1,1,80,0,1
34476,-100,4,1,1,50,0,1
34740,-100,4,1,1,50,0,0
34828,-100,4,2,1,80,0,1
35004,-100,4,1,1,80,0,1
44687,-100,4,1,1,50,0,1
46095,-100,4,2,1,80,0,0
57187,-100,4,2,1,5,0,0
57363,-100,4,2,1,80,0,0
57715,-100,4,1,1,50,0,0
57891,-100,4,2,1,80,0,0
58419,-100,4,1,1,50,0,0
58595,-100,4,2,1,80,0,0
59124,-100,4,1,1,50,0,0
59300,-100,4,2,1,80,0,0
59828,-100,4,1,1,50,0,0
60180,-100,4,2,1,80,0,0
60532,-100,4,1,1,50,0,0
60708,-100,4,2,1,80,0,0
61236,-100,4,1,1,50,0,0
61412,-100,4,2,1,80,0,0
61940,-100,4,1,1,50,0,0
62116,-100,4,2,1,80,0,0
62645,-100,4,1,1,50,0,0
62821,-100,4,2,1,80,0,0
63349,-100,4,1,1,50,0,0
63525,-100,4,2,1,80,0,0
64053,-100,4,1,1,50,0,0
64229,-100,4,2,1,80,0,0
64757,-100,4,1,1,50,0,0
64933,-100,4,2,1,80,0,0
65462,-100,4,1,1,50,0,0
65638,-100,4,2,1,80,0,0
67222,-100,4,1,1,50,0,0
68631,-100,4,2,1,80,0,1
68807,-100,4,1,1,80,0,1
79106,-100,4,1,1,65,0,1
79370,-100,4,1,1,80,0,1
79546,-100,4,1,1,50,0,1
79810,-100,4,1,1,50,0,0
79898,-100,4,2,1,80,0,1
80074,-100,4,1,1,80,0,1
89757,-100,4,1,1,50,0,1
91166,-100,4,2,1,80,0,0

[Colours]
Combo1 : 255,94,255
Combo2 : 255,146,94
Combo3 : 255,94,94
Combo4 : 94,255,174
SliderBorder : 224,224,224

[HitObjects]
40,120,849,1,0
72,192,1025,1,0
104,264,1201,2,0,B|200:264|256:352,2,180,0|2|0
136,128,2257,1,0
184,64,2433,1,0
256,32,2609,1,0
328,64,2786,1,0
376,128,2962,1,2
256,192,3314,1,0
376,256,3666,5,0
328,320,3842,1,0
256,352,4018,1,0
184,320,4194,1,0
136,256,4370,1,2
208,40,5074,2,0,B|176:128,1,90
256,152,5426,1,0
304,40,5602,2,0,B|336:128,1,90,0|2
256,332,6131,6,0,B|256:140,1,180,0|0
256,152,6659,1,0
192,96,6835,2,0,B|208:40|256:24|304:40|320:96,1,180,0|2
112,244,7891,2,0,B|160:244|192:284,1,90
256,332,8243,1,0
400,244,8419,2,0,B|352:244|320:284,1,90,0|2
256,192,8947,6,0,B|256:96,1,90
184,64,9300,1,0
256,24,9476,1,0
328,64,9652,1,0
184,240,10004,6,0,B|256:293|256:293|328:240,1,180,2|0
256,192,10532,1,0
328,144,10708,2,0,B|256:91|256:91|184:144,1,180
184,144,11236,1,0
104,128,11412,2,0,B|48:144|32:192|48:240|104:256,1,180,2|0
184,240,11940,1,0
184,240,12028,1,0
184,240,12116,1,0
256,192,12293,5,4
328,144,12469,1,0
400,192,12645,1,8
328,240,12821,1,0
184,144,13173,2,0,B|136:144|104:104,2,90,0|8|0
328,64,13877,1,0
400,108,14053,1,8
400,192,14229,1,0
328,240,14405,2,0,B|264:240|264:240|224:264|224:264|152:264,1,180,0|8
64,128,15109,6,0,B|112:128|144:88,1,90
448,128,15462,2,0,B|400:128|368:88,1,90,8|0
256,40,15814,2,0,B|256:224,1,180,0|8
184,264,16342,2,0,B|144:344,1,90
327,263,16694,2,0,B|368:344,1,90,0|8
256,328,17046,1,0
256,128,17398,6,0,B|256:40,2,90,0|8|0
184,160,17926,1,4
216,232,18102,1,0
296,232,18278,1,8
328,160,18455,1,0
200,360,18807,1,0
256,304,18983,1,8
312,360,19159,6,0,B|408:360|456:264,1,180
454,267,19687,1,8
480,192,19863,1,0
454,116,20039,2,0,B|408:24|312:24,1,180,0|8
312,23,20567,1,0
256,80,20743,6,0,B|160:80|160:80|96:136,1,180,4|0
40,192,21271,1,0
96,248,21447,2,0,B|160:304|160:304|256:304,1,180,4|0
336,304,21976,2,0,B|416:344,1,90,0|4
512,280,22328,2,0,B|431:239,1,90
431,144,22680,2,0,B|512:104,1,90
416,39,23032,2,0,B|336:80,1,90
336,80,23296,1,0
336,80,23384,1,0
256,112,23560,5,4
192,56,23736,1,0
128,112,23912,1,0
192,168,24088,2,0,B|153:248|153:248|192:329,1,180
256,376,24616,1,0
319,329,24793,2,0,B|359:248|359:248|320:168,1,180
384,112,25321,1,0
320,56,25497,1,0
256,112,25673,1,0
256,376,26025,1,0
176,288,26377,6,0,B|176:240|208:200,1,90
256,272,26729,1,0
336,288,26905,2,0,B|336:240|304:200,1,90
168,96,27433,1,0
216,32,27609,1,0
296,32,27786,1,0
344,96,27962,1,0
256,272,28314,1,0
168,95,28666,6,0,B|197:181,1,90
343,95,29018,2,0,B|315:181,1,90
256,40,29370,2,0,B|256:136,2,90,0|8|0
200,328,30074,1,0
256,272,30250,1,8
312,328,30426,6,0,B|384:328|408:272|408:272|472:272,1,180
470,272,30955,1,8
472,192,31131,1,0
470,112,31307,2,0,B|408:112|408:112|384:56|312:56,1,180,0|8
256,112,31835,1,0
200,56,32011,6,0,B|112:56|48:144,1,180,0|8
112,192,32539,1,0
49,242,32715,2,0,B|112:328|200:328,1,180,0|8
256,272,33243,1,0
312,328,33419,2,0,B|400:328|462:242,1,180,0|8
256,128,34300,5,0
256,48,34476,2,0,B|256:16,8,22.5,0|0|0|0|0|0|0|0|4
184,88,35004,1,0
256,128,35180,1,8
328,88,35356,2,0,B|328:176|328:176|296:264,1,180
256,336,35884,1,8
215,262,36060,2,0,B|184:176|184:176|184:88,1,180
184,88,36588,1,8
256,48,36764,1,0
328,88,36940,1,0
256,336,37293,1,8
160,208,37645,6,0,B|192:240|192:240|192:288,1,90
256,336,37997,1,8
320,284,38173,2,0,B|320:240|320:240|352:208,1,90
408,56,38701,2,0,B|360:56|328:96,1,90,8|0
256,136,39053,1,0
104,56,39229,2,0,B|152:56|184:96,1,90,0|8
184,180,39581,6,0,B|248:212|256:232|256:232|264:212|328:180,1,180
376,240,40109,2,0,B|304:296,1,90,8|0
136,240,40462,2,0,B|208:296,1,90
256,360,40814,1,8
256,360,40990,1,0
256,24,41342,1,0
256,24,41518,1,8
192,72,41694,6,0,B|208:128|256:144|304:128|320:72,1,180
400,72,42222,1,8
456,128,42398,1,0
400,184,42574,1,0
112,184,42926,1,8
56,128,43102,1,0
112,72,43278,1,0
192,352,43631,5,8
256,296,43807,1,0
320,352,43983,1,0
296,184,44335,1,8
216,184,44511,1,0
256,112,44687,2,0,B|256:72,32,22.5,0|0|0|0|0|0|0|0|0|0|0|0|0|0|0|0|0|0|0|0|0|0|0|0|0|0|0|0|0|0|0|0|4
256,192,53138,12,0,57187
256,192,57363,5,4
208,256,57539,1,0
256,320,57715,1,0
336,320,57891,2,0,B|432:320|488:232,1,180
416,192,58419,1,0
485,148,58595,2,0,B|432:64|336:64,1,180
256,64,59124,1,0
176,64,59300,1,0
216,136,59476,6,0,B|32:136,2,180
256,208,60356,1,0
304,272,60532,1,0
256,336,60708,1,0
208,272,60884,1,0
384,272,61236,2,0,B|432:272|464:312,1,90
384,112,61588,2,0,B|432:112|464:72,1,90
408,192,61940,2,0,B|496:192,1,90
256,40,62469,5,0
200,96,62645,2,0,B|152:96|120:136,1,90
64,192,62997,1,0
121,250,63173,2,0,B|152:288|200:288,1,90
256,344,63525,1,0
392,256,63877,5,0
440,192,64053,1,0
392,128,64229,1,0
232,96,64581,1,0
168,152,64757,1,0
168,232,64933,1,0
232,288,65109,1,0
96,192,65462,1,0
96,104,65638,6,0,B|56:80,2,45,2|0|0
96,280,65990,2,0,B|56:304,2,45,2|0|0
168,152,66342,2,0,B|208:128,2,45,2|0|0
168,232,66694,2,0,B|208:256,2,45,2|0|0
256,192,67046,5,2
256,192,67134,1,0
256,192,67222,2,0,B|296:192,4,22.5
328,120,67574,2,0,B|296:96,4,22.5
328,264,67926,2,0,B|296:288,4,22.5
400,192,68278,6,0,B|432:192,8,22.5,0|0|0|0|0|0|0|0|4
468,128,68807,1,0
512,192,68983,1,8
468,256,69159,1,0
320,328,69511,1,0
256,280,69687,1,8
192,328,69863,6,0,B|96:328|40:240,1,180
42,243,70391,1,8
104,192,70567,1,0
42,140,70743,2,0,B|96:56|192:56,1,180,0|8
352,80,71447,6,0,B|424:136,1,90
480,192,71800,1,8
352,304,71976,2,0,B|424:248,1,90
296,152,72504,1,8
296,232,72680,1,0
216,232,72856,1,0
216,152,73032,1,0
144,192,73208,2,0,B|48:192,1,90,8|0
184,80,73736,5,0
256,40,73912,1,8
328,80,74088,1,0
296,152,74264,2,0,B|360:216,1,90
216,152,74616,2,0,B|152:216,1,90,8|0
256,344,75145,6,0,B|256:256,2,90,0|8|0
168,216,75849,1,0
216,152,76025,1,8
296,152,76201,1,0
344,216,76377,1,0
408,72,76729,6,0,B|464:144,1,90,8|0
320,296,77257,1,0
256,344,77433,1,8
192,296,77609,1,0
104,72,77962,2,0,B|48:143,1,90,0|8
48,143,78314,1,0
256,128,78666,1,0
200,192,78842,6,0,B|240:224|256:230|256:230|272:224|312:192,2,135,8|8|0
256,128,79546,2,0,B|256:88,8,22.5,0|0|0|0|0|0|0|0|4
188,72,80074,1,0
256,24,80250,1,8
324,72,80426,1,0
324,312,80778,5,0
256,360,80954,1,8
188,312,81130,1,0
88,192,81483,2,0,B|88:144|48:112,1,90,0|8
8,192,81835,2,0,B|8:240|48:272,1,90
256,192,82363,1,8
368,80,82715,5,0
432,128,82891,1,0
480,192,83067,1,8
432,256,83243,1,0
368,304,83419,2,0,B|280:304|280:304|216:368,1,180,0|8
152,320,83947,2,0,B|216:256,1,90
224,136,84300,2,0,B|160:200,2,90,0|8|0
392,72,85004,6,0,B|472:112,1,90,0|8
352,192,85356,2,0,B|440:192,1,90
392,312,85708,2,0,B|472:272,2,90,0|8|0
232,312,86412,1,0
160,272,86588,1,8
88,232,86764,6,0,B|96:136|176:80,1,180
173,81,87293,1,8
256,80,87469,1,0
337,81,87645,2,0,B|416:136|424:232,1,180,0|8
424,231,88173,1,0
256,288,88525,6,0,B|256:376,2,90,0|8|0
200,136,89229,1,0
256,192,89405,1,8
312,136,89581,1,0
256,80,89757,2,0,B|256:40,32,22.5,0|0|0|0|0|0|0|0|0|0|0|0|0|0|0|0|0|0|0|0|0|0|0|0|0|0|0|0|0|0|0|0|4
