osu file format v7

[General]
AudioFilename: Nightcore - Numb.mp3
AudioLeadIn: 0
PreviewTime: 60126
Countdown: 0
SampleSet: Soft
StackLeniency: 0.7
Mode: 0
LetterboxInBreaks: 1
EpilepsyWarning: 1

[Editor]
Bookmarks: 49310
DistanceSpacing: 0.800000011920929
BeatDivisor: 4
GridSize: 8

[Metadata]
Title:Numb (Nightcore Ver.)
Artist:Jan Wayne Vs. Raindropz
Creator:KIA
Version:Hard
Source:
Tags:natteke desu linkin park sterrum nyakun garven rokodo

[Difficulty]
HPDrainRate:3
CircleSize:4
OverallDifficulty:5
SliderMultiplier:1.6
SliderTickRate:1

[Events]
//Background and Video events
//Break Periods
2,84654,92719
//Storyboard Layer 0 (Background)
Sprite,Background,Centre,"bg3.jpg",320,240 F,0,-3500,46230,1 M,0,0,,320,240 S,0,0,,0.625 F,0,46230,49176,1,0 F,0,49176,49310,0,1 F,0,49310,81760,1 F,0,81760,,1 F,0,81760,84295,1,0 F,2,84295,84464,0,1 F,0,84464,,1 F,0,84464,168097,1
Sprite,Background,Centre,"bg3.jpg",320,240 L,32267,9 M,0,0,,320,240 F,0,0,218,1,0 S,0,0,218,0.625,0.75 F,0,218,1745,0 S,0,218,1745,0.75 L,54633,1 F,0,0,169,1,0 S,0,0,169,0.625,0.75 L,60131,1 F,0,0,169,1,0 S,0,0,169,0.625,0.75 L,55394,3 F,0,0,169,1,0 S,0,0,169,0.625,0.675 F,0,169,676,0 L,57422,1 F,0,0,169,1,0 S,0,0,169,0.625,0.675 L,57760,2 F,0,0,169,1,0 S,0,0,169,0.625,0.675 L,58267,3 F,0,0,169,1,0 S,0,0,169,0.625,0.675 L,58774,8 F,0,0,85,1,0 S,0,0,85,0.625,0.675 L,71281,31 F,0,0,169,1,0 S,0,0,169,0.625,0.675 F,0,169,338,0 L,141253,16 F,0,0,169,1,0 S,0,0,169,0.625,0.675 F,0,169,676,0 L,152070,33 F,0,0,169,1,0 S,0,0,169,0.625,0.675 F,0,169,338,0 M,0,849,,320,240 F,0,849,,1 S,0,849,,0.625 F,0,849,1067,1,0 S,0,849,1067,0.625,0.66 F,0,7830,8048,1,0 S,0,7830,8048,0.625,0.66 M,0,49176,,320,240 F,0,49176,49310,1,0 S,0,49176,49310,0.625,0.75 F,0,106098,106436,1,0 S,0,106098,106436,0.625,0.675
Sprite,Background,Centre,"bg3_bright.jpg",320,240 L,8267,5 F,0,0,218,0.8,0 S,0,0,218,0.8,0.85 F,0,218,873,0 L,15248,15 F,0,0,218,0.8,0 S,0,0,218,0.8,0.85 F,0,218,873,0 L,32485,8 M,0,0,,320,240 S,0,0,,0.8 F,2,0,109,0,1 F,1,109,327,1,0 F,1,982,1091,0,1 F,1,1091,1309,1,0 F,0,1309,1745,0 L,60126,33 F,0,0,169,1,0 S,0,0,169,0.8,0.85 F,0,169,338,0 L,84802,27 F,0,0,169,1,0 S,0,0,169,0.8,0.85 F,0,169,338,0 L,106436,28 F,0,0,169,0.5,0 S,0,0,169,0.8,0.85 F,0,169,338,0 L,115901,10 S,0,0,,0.8 F,0,0,84,1,0 L,116915,65 F,0,0,169,0.8,0 S,0,0,169,0.8,0.85 F,0,169,338,0 L,141591,32 S,0,0,,0.8 F,0,0,169,0.8,0 F,0,169,676,0
Sprite,Background,Centre,"bg3_bright.jpg",320,240 L,38921,4 S,0,0,,0.8 F,0,0,84,1,0 L,45903,4 S,0,0,,0.8 F,0,0,84,1,0 L,59450,16 F,0,0,42,1,0 S,0,0,42,0.8,0.85 L,70267,8 S,0,0,,0.8 F,0,0,84,1,0 L,49563,6 F,0,0,85,0.5,1 F,1,85,169,1,0.5 L,93929,16 S,0,0,,0.8 F,0,0,84,1,0 F,0,49176,49310,0,1 F,1,49310,49479,1,0.5 F,0,50746,50831,0.5,1 F,0,50831,50915,1,0.5 F,0,51084,51169,0.5,1 F,0,51169,51253,1,0.5 F,0,51253,51338,0.5,1 F,0,51338,51422,1,0.5 F,0,51422,51507,0.5,1 F,0,51507,51591,1,0.5 F,0,51591,51676,0.5,1 F,0,51676,51760,1,0.5 F,0,51760,51845,0.5,1 F,0,51845,51929,1,0 F,0,51929,52098,0 F,0,52098,52183,0,1 F,0,52183,52267,1,0.5 F,0,52436,52521,0.5,1 F,0,52521,52605,1,0.5 F,0,52605,52690,0.5,1 F,0,52690,52774,1,0.5 F,0,52774,52859,0.5,1 F,0,52859,52943,1,0.5 F,0,52943,53028,0.5,1 F,0,53028,53112,1,0.5 F,0,53112,53197,0.5,1 F,0,53197,53281,1,0.5 F,0,53450,53535,0.5,1 F,0,53535,53619,1,0.5 F,0,53619,53704,0.5,1 F,0,53704,53788,1,0 F,0,54126,54211,0,1 F,0,54211,54295,1,0.5 F,0,54295,54380,0.5,1 F,0,54380,54464,1,0.5 F,0,54464,54549,0.5,1 F,0,54549,54633,1,0 F,0,81760,81929,1,0 S,0,81760,81929,0.8,1 F,0,84380,84633,1,0 S,0,84380,84633,0.77,1
//Storyboard Layer 1 (Fail)
//Storyboard Layer 2 (Pass)
//Storyboard Layer 3 (Foreground)
//Storyboard Sound Samples
//Background Colour Transformations
3,100,0,0,0

[TimingPoints]
864,436.363636363636,4,2,1,25,1,0
5976,-200,4,2,1,25,0,0
6303,-100,4,2,1,26,0,0
7067,-100,4,2,1,39,0,0
7285,-100,4,2,1,60,0,0
7503,-100,4,2,1,80,0,0
7721,-100,4,2,1,100,0,0
9248,-100,4,2,1,100,0,0
9903,-100,4,2,1,100,0,0
49300,338.028169014084,4,2,1,100,1,0
60126,-100,4,2,1,100,0,1
70933,-100,4,2,1,100,0,0
71102,-100,4,1,1,51,0,0
93750,-100,4,1,1,21,0,0
94426,-100,4,1,1,34,0,0
94933,-100,4,1,1,45,0,0
95440,-100,4,1,1,40,0,0
127722,-100,4,1,1,51,0,1
127891,-100,4,2,1,70,0,1
138539,-100,4,2,1,70,0,0
151384,-100,4,1,1,78,0,0
161525,-100,4,2,1,10,0,0

[Colours]
Combo1 : 255,255,128
Combo2 : 128,255,255
Combo3 : 255,128,255
Combo4 : 128,128,255

[HitObjects]
140,96,864,2,0,B|260:48|396:104,2,240,0|0|0
144,224,2609,2,0,B|257:282|383:220,1,240,0|0
355,97,3700,6,0,B|334:63|278:57,1,80,0|0
223,58,4136,2,0,B|154:70|152:121,1,80,0|0
144,288,5009,2,0,B|257:346|383:284,1,240,0|0
256,288,6100,6,0,B|256:120|256:112,1,160,0|0
320,128,7191,1,0
376,97,7409,1,8
321,62,7627,1,8
257,62,7845,1,12
192,64,8063,6,0,B|140:60|111:99,1,80,0|8
74,132,8500,2,0,B|39:178|57:226,1,80,0|0
68,268,8936,2,0,B|89:312|146:322,1,80,0|8
189,336,9373,6,0,B|230:354|284:330,2,80
189,272,10027,2,0,B|230:254|284:278,1,80,8|0
392,240,10682,2,2,B|384:187|321:186,1,80,0|8
248,96,11336,5,0
248,160,11554,1,0
184,160,11773,1,8
184,96,11991,2,0,B|95:161|167:222|188:221,1,160,0|8
312,208,12863,5,0
312,272,13082,1,0
248,272,13300,1,0
185,258,13518,1,8
128,228,13736,2,0,B|32:188|96:84,2,160,0|8|8
240,64,15263,6,2,B|296:64|320:96,1,80,8|0
360,136,15700,2,0,B|392:168|368:224,1,80,0|0
346,268,16136,2,0,B|314:308|346:356,2,80,8|0|0
312,213,16791,1,0
296,152,17009,1,8
248,104,17227,1,0
184,104,17445,2,0,B|184:48,2,40,0|0|0
144,152,17882,1,8
184,200,18100,5,0
232,248,18318,1,0
264,304,18536,1,0
296,248,18754,1,10
336,200,18973,1,0
264,96,19409,2,0,B|264:192,1,80,0|8
264,304,20063,6,0,B|360:312|400:200,1,160,4|8
389,160,20718,2,0,B|359:72|263:80,2,160,8|8|0
389,224,21809,5,6
389,224,22027,2,0,B|373:280|301:280,5,80,0|10|0|2|0|10
269,276,23336,2,0,B|253:228|189:220,5,80,0|2|0|10|0|2
112,144,24863,6,0,B|168:104|208:112,2,80,8|0|2
78,198,25518,2,0,B|55:251|92:301,1,80,2|8
122,320,25954,2,0,B|199:371|274:320,1,160
327,290,26609,5,10
372,244,26827,1,2
432,128,27263,1,0
374,98,27482,1,10
374,161,27700,1,2
248,192,28136,2,0,B|145:196|133:70,1,160,8|8
256,192,28791,12,8,31845
256,192,32282,5,14
72,248,32936,2,0,B|40:304|48:344,2,80,8|0|8
126,213,33591,2,0,B|147:190|196:203|222:158,2,80,8|0|8
240,272,34463,2,0,B|245:243|284:230|296:184,2,80,0|8|0
368,288,35336,2,0,B|400:312|424:280|464:312,2,80,8|0|8
240,312,36209,6,0,B|248:264|200:272|192:216,1,80,0|8
202,181,36645,2,0,B|152:168|136:256|32:217,1,160,0|8
115,111,37518,1,8
240,112,37954,1,0
240,112,38173,2,0,B|336:128|352:232,1,160,8|0
320,272,38827,2,0,B|264:320|144:288,1,160,8|4
120,176,39700,5,0
128,112,39918,1,8
176,72,40136,1,0
256,176,40573,1,8
256,176,41009,1,8
320,72,41445,5,0
365,117,41663,1,8
384,176,41882,1,0
256,176,42318,1,8
256,176,42754,1,8
320,288,43191,5,0
256,304,43409,1,8
192,288,43627,1,0
256,176,44064,1,8
256,176,44500,1,8
192,64,44936,5,0
256,48,45154,1,8
320,64,45373,1,0
256,176,45809,1,8
256,176,46245,2,0,B|184:184|176:224,1,80,8|0
256,192,46682,12,12,49300
256,64,49638,6,0,B|192:88|160:128,2,80,0|0|2
256,64,50145,2,0,B|320:88|352:128,2,80,0|0|2
256,192,50821,1,2
346,282,51159,6,0,B|378:258|410:274|434:234,2,80,0|2|0
285,303,51666,1,0
224,280,51835,2,0,B|152:264|136:216|48:208,1,160,2|2
144,104,52511,6,0,B|80:104|64:56,2,80,0|2|0
208,96,53018,2,0,B|264:96|288:48,1,80,2|0
187,154,53525,2,0,B|223:194|272:192,1,80,2|0
379,191,54032,2,0,B|363:239|395:263|371:303,2,80,0|2|2
256,192,54708,5,8
360,112,55046,2,0,B|360:16,2,80,0|0|8
256,40,55722,2,0,B|256:128,2,80,0|0|8
152,112,56398,2,0,B|152:24,2,80,0|0|8
56,192,57074,6,0,B|56:280,5,80,0|0|8|0|8|8
160,192,58257,1,8
160,192,58426,1,8
160,192,58595,1,8
160,192,58764,2,0,B|224:192|264:248|192:312,3,160,8|8|8|8
88,248,60116,5,8
88,120,60454,2,0,B|136:48|240:48,2,160,8|0|8
208,176,61469,1,0
328,216,61807,2,0,B|336:168|392:160,2,80,8|0|0
232,296,62483,2,0,B|112:304|72:216,1,160,8|0
72,120,63159,6,0,B|80:72|152:56,2,80,8|0|0
192,64,63835,2,0,B|296:64|296:184,1,160,8|0
424,168,64511,2,0,B|424:278|312:278,1,180,8|0
224,216,65187,2,0,B|121:216|121:120,1,160,8|0
232,40,65863,6,0,B|328:40|352:136,1,160,8|0
352,256,66539,2,0,B|352:344|224:344,1,160,8|0
112,336,67215,2,0,B|112:248|240:248,1,160,8|0
224,120,67891,2,0,B|224:32|88:32,1,160,8|0
104,160,68567,6,0,B|104:272,2,80,8|0|0
224,208,69243,2,0,B|344:208|344:328,1,160,8|8
368,168,69919,2,0,B|368:72,2,80,0|8|8
256,112,70595,2,0,B|256:48,4,40,8|0|0|0|4
136,304,71271,6,8,B|232:264|400:280|456:320,1,320
376,72,72623,2,8,B|280:112|152:112|53:69,1,320
80,344,73976,6,8,B|40:248|38:148|79:31,1,320
336,32,75328,2,8,B|376:128|377:257|328:352,1,320
128,192,76680,6,0,B|168:104|264:120,1,160,8|0
344,216,77356,1,8
256,120,77694,1,0
256,248,78032,2,0,B|224:288|288:296|256:360,2,80,8|0|0
128,248,78708,1,8
128,248,79046,1,0
128,120,79384,5,8
168,72,79553,1,0
232,72,79722,1,0
232,200,80060,2,0,B|320:248|398:189,1,160,8|0
360,72,80736,2,0,B|402:45|446:81,2,80,8|0|0
232,72,81412,1,8
160,176,81750,2,0,B|144:152|40:120|16:288|80:336|184:320|240:328|288:280|288:208|296:176|272:120,1,480,0|0
256,192,83102,12,4,84454
256,72,93919,6,0,B|256:24,16,40
136,120,95609,6,0,B|248:120,1,80,8|8
264,160,95947,2,0,B|344:224,1,80,0|0
376,248,96285,2,0,B|464:248,1,80,8|0
456,120,96792,2,0,B|456:56|392:40,2,80,0|8|8
336,64,97469,2,0,B|304:56|280:80|224:56,1,80,0|8
136,104,97976,6,0,B|72:104|56:144,2,80,0|0|8
200,104,98483,2,0,B|264:96|320:152|336:184,1,160,8|0
272,288,99159,1,0
208,288,99328,1,8
144,288,99497,1,8
112,168,99835,1,8
208,88,100173,1,8
304,168,100511,1,8
192,216,100849,6,0,B|128:288,1,80,0|8
184,321,101187,2,0,B|270:321,1,80,8|0
309,275,101525,2,0,B|238:205,1,80,0|8
224,160,101863,2,0,B|224:107|248:48|352:48,1,160,0|0
376,80,102370,2,0,B|376:176,1,80,8|8
152,288,103215,5,0
152,288,103384,2,0,B|264:288,1,80,8|8
232,224,103722,2,0,B|128:224,1,80,0|8
376,104,104567,1,8
256,56,104905,1,8
136,104,105243,1,8
256,152,105581,1,8
136,200,105919,2,0,B|112:272|264:256|360:208|240:16|208:0|56:16|0:88|-16:152|-16:240|24:344|32:376|224:368|240:368|312:352|376:344|424:240|392:216|416:120,1,1040,8|8
304,216,108454,6,0,B|304:120,5,80,0|0|8|8|0|8
208,216,109638,2,0,B|208:120,6,80,0|8|8|0|0|8|0
208,88,110990,2,0,B|138:42|53:91,1,160,8|8
256,192,111497,12,0,113356
256,192,113694,6,0,B|256:96,1,80,0|8
208,72,114032,2,0,B|120:72,1,80,0|0
80,120,114370,2,0,B|80:208,1,80,0|8
128,248,114708,2,0,B|224:248,1,80,8|0
272,256,115046,6,0,B|344:328,1,80,0|8
392,312,115384,2,0,B|464:240,1,80,0|0
448,192,115722,2,0,B|384:128,1,80,0|8
346,90,116060,2,0,B|346:48,6,40,8|0|0|0|0|0|8
216,96,116905,6,0,B|112:96,1,80
136,96,117243,2,0,B|64:168,1,80,8|8
80,152,117581,2,0,B|160:232,1,80,0|0
136,208,117919,2,0,B|136:304,2,80,8|0|0
256,272,118595,6,0,B|256:384,2,80,8|8|0
256,144,119271,2,0,B|312:144|368:160|392:232,2,160,8|0|8
192,144,120116,2,0,B|136:144|80:144,2,80,8|0|0
224,88,120623,2,0,B|272:24|368:32,1,160,8|0
424,144,121299,2,0,B|424:248,2,80,8|8|0
296,144,121976,2,0,B|288:256|184:272,1,160,8|0
136,160,122652,6,0,B|240:160,2,80,8|8|0
48,64,123328,2,0,B|216:64,1,160,8|0
336,64,124004,2,0,B|440:64,2,80,8|8|0
336,192,124680,2,0,B|336:296|216:304,1,160,8|0
144,216,125356,6,0,B|144:120,1,80,8|8
192,88,125694,2,0,B|240:88|312:112|312:200,2,160,0|8|0
192,216,126708,2,0,B|192:312,2,80,8|8|0
192,88,127384,2,8,B|192:40,4,40,8|0|0|0|4
264,192,128060,6,0,B|288:232|264:288,2,80,8|8|8
384,240,128736,2,0,B|475:232|480:200|424:120,1,160,8|8
336,72,129412,2,0,B|296:48|232:64,1,80,8|8
200,72,129750,1,8
120,176,130088,1,8
200,72,130426,1,8
256,192,130764,5,8
256,192,130933,1,8
256,192,131102,2,0,B|256:96|336:56,2,160,8|8|8
136,240,132116,1,8
136,240,132285,1,8
136,240,132454,2,0,B|136:160|208:88,2,160,8|8|8
72,128,133469,6,0,B|72:80|144:56,2,80,8|8|8
72,256,134145,1,8
176,328,134483,1,8
304,328,134821,2,0,B|304:240,2,80,8|8|8
408,256,135497,1,8
408,128,135835,1,8
296,192,136173,6,0,B|408:192,2,80,8|8|8
168,192,136849,1,8
168,192,137187,1,8
232,80,137525,2,0,B|248:40|296:32,2,80,8|0|8
168,192,138201,1,8
104,80,138539,1,8
256,192,138708,12,0,140567
112,128,140736,6,0,B|160:72|208:80,2,80,8|8|8
112,192,141243,2,0,B|111:268|248:320,1,160,8|8
344,304,141919,2,0,B|464:304|448:176,1,160,8|8
449,83,142595,2,0,B|337:83|337:203,1,160,8|8
210,174,143271,2,0,B|192:80|80:80,1,160,8|8
56,192,143947,6,0,B|152:192,2,80,8|0|8
104,312,144623,2,0,B|-8:312,2,80,8|0|8
232,312,145300,2,0,B|352:312,2,80,8|0|8
256,184,145976,2,0,B|256:80,2,80,8|0|8
392,184,146652,6,0,B|432:96|384:24,1,160,8|8
324,30,147159,1,8
260,30,147328,2,0,B|212:110|263:191,1,160,0|8
288,238,147835,1,8
321,292,148004,2,0,B|241:340|145:286,1,160,0|0
197,240,148511,1,8
232,184,148680,2,0,B|272:104|224:24,1,160,8|8
168,32,149187,6,0,B|72:48|56:152,1,160,8|8
59,198,149694,1,8
104,243,149863,2,0,B|152:264|203:231,2,80,8|8|8
58,288,150370,1,8
103,333,150539,2,0,B|184:296|264:336,1,160,8|8
257,332,151046,1,8
184,160,151553,6,0,B|184:72,2,80,0|8|0
229,114,152060,2,0,B|245:34,1,80
280,88,152398,2,0,B|352:8,1,80,8|0
344,88,152736,2,0,B|424:48,1,80
400,112,153074,2,0,B|488:112,1,80,8|0
432,224,153581,6,0,B|432:320,1,80,0|8
392,256,153919,2,0,B|360:336,1,80
344,272,154257,2,0,B|288:336,1,80,0|8
296,272,154595,2,0,B|208:312,1,80
248,248,154933,2,0,B|160:248,1,80,0|8
176,184,155271,6,0,B|224:160|280:200,2,80
112,184,155778,2,0,B|72:152|16:208,2,80,8|0|0
144,128,156285,2,0,B|144:24,1,80,0|8
328,96,156961,6,0,B|352:48|408:32,3,80,0|8|0|0
448,152,157807,1,8
448,216,157976,2,0,B|440:272|376:280,4,80,0|0|0|8|0
320,192,158990,6,0,B|240:152|160:198,1,160,8|8
104,200,159497,2,0,B|80:160|112:112,3,80,0|0|8|0
216,56,160342,6,0,B|296:80|383:53,1,160,8|8
416,104,160849,2,0,B|456:152|448:192,3,80,0|0|8|8
256,192,161525,12,0,164229
