osu file format v14

[General]
AudioFilename: Bach - Air On G String on Guitar - On iTunes now.mp3
AudioLeadIn: 0
PreviewTime: -1
Countdown: 1
SampleSet: Soft
StackLeniency: 0.7
Mode: 0
LetterboxInBreaks: 1
WidescreenStoryboard: 0

[Editor]
DistanceSpacing: 2
BeatDivisor: 4
GridSize: 8
TimelineZoom: 2.547998

[Metadata]
Title:Air On G String on Guitar
TitleUnicode:Air On G String on Guitar
Artist:Jan Sebastian Bach
ArtistUnicode:Jan Sebastian Bach
Creator:DygnitarZ
Version:Classicanity
Source:
Tags:
BeatmapID:786531
BeatmapSetID:357570

[Difficulty]
HPDrainRate:8
CircleSize:4.5
OverallDifficulty:8.5
ApproachRate:9.5
SliderMultiplier:1.2
SliderTickRate:2

[Events]
//Background and Video events
//Break Periods
//Storyboard Layer 0 (Background)
//Storyboard Layer 1 (Fail)
//Storyboard Layer 2 (Pass)
//Storyboard Layer 3 (Foreground)
//Storyboard Sound Samples

[TimingPoints]
25,689.655172413793,4,2,0,85,1,0
25,-66.6666666666667,4,2,0,41,0,0
652,-200,4,1,0,5,0,0
772,750,4,2,0,85,1,0
772,-100,4,2,0,19,0,0
1489,-66.6666666666667,4,1,0,5,0,0
1584,500,4,2,0,85,1,0
1584,-100,4,2,0,20,0,0
2402,-133.333333333333,4,2,0,34,0,0
3383,500,4,2,0,85,1,0
3383,-153.846153846153,4,2,0,85,0,0
4165,222.222222222222,4,2,0,85,1,0
4165,-100,4,2,0,50,0,0
4566,187.5,4,2,0,85,1,0
4572,-100,4,2,0,54,0,0
4945,184.615384615385,4,2,0,85,1,0
5129,176.470588235294,4,2,0,85,1,0
5600,171.428571428571,4,2,0,85,1,0
5857,193.548387096774,4,2,0,85,1,0
6236,193.548387096774,4,2,0,85,1,0
6623,206.896551724138,4,2,0,85,1,0
6829,181.818181818182,4,2,0,85,1,0
7010,198.675496688742,4,2,0,85,1,0
7407,181.818181818182,4,2,0,85,1,0
7580,181.818181818182,4,2,0,85,1,0
7761,200,4,2,0,85,1,0
7952,193.548387096774,4,2,0,85,1,0
8145,193.548387096774,4,2,0,85,1,0
8332,214.285714285714,4,2,0,85,1,0
8754,193.548387096774,4,2,0,85,1,0
9865,181.818181818182,4,2,0,85,1,0
10830,260.869565217391,4,2,0,85,1,0
10895,-200,4,2,0,85,0,0
12233,413.793103448276,4,2,0,85,1,0
12379,-90.9090909090909,4,2,0,85,0,0
13480,250,4,2,0,85,1,0
13550,-133.333333333333,4,2,0,85,0,0
14062,260.869565217391,4,2,0,85,1,0
14067,-133.333333333333,4,2,0,85,0,0
14458,-105.263157894737,4,2,0,85,0,0
15035,250,4,2,0,85,1,0
15472,-133.333333333333,4,2,0,85,0,0
16061,260.869565217391,4,2,0,85,1,0
16582,176.470588235294,4,2,0,85,1,0
17621,171.428571428571,4,2,0,85,1,0
17621,-200,4,2,0,85,0,0
18614,264.31718061674,4,2,0,85,1,0
18614,-166.666666666667,4,2,0,85,0,0
19431,272.727272727273,4,2,0,85,1,0
19680,259.74025974026,4,2,0,85,1,0
19680,-153.846153846153,4,2,0,85,0,0
20723,259.74025974026,4,2,0,85,1,0
20723,-133.333333333333,4,2,0,85,0,0
21748,244.897959183673,4,2,0,85,1,0
23721,244.897959183673,4,2,0,85,1,0

[HitObjects]
68,344,25,6,0,B|92:304|32:264|128:184,1,180.000006866455
64,96,772,2,0,B|120:108|124:88|184:72,1,120
272,32,1584,2,0,P|308:104|256:184,1,180.000006866455
264,296,2459,2,0,L|268:328,1,22.5000008583069
464,256,3125,1,0,0:0:0:0:
352,320,3383,2,0,B|320:336|320:288|304:272|288:272,1,77.9999964294435
168,328,4165,2,0,P|144:336|96:328,1,60
0,312,4387,2,0,P|8:288|24:264,1,52.5
192,240,4566,2,0,P|175:207|152:184,1,60
224,136,4753,2,0,P|247:153|272:184,1,60
80,160,4945,2,0,P|80:128|96:96,1,60
120,64,5129,1,0,0:0:0:0:
171,33,5217,1,0,0:0:0:0:
230,24,5305,1,0,0:0:0:0:
289,26,5393,1,0,0:0:0:0:
347,38,5481,1,0,0:0:0:0:
396,72,5600,1,0,0:0:0:0:
422,126,5685,1,0,0:0:0:0:
428,185,5771,1,0,0:0:0:0:
413,243,5857,1,0,0:0:0:0:
371,286,5953,1,0,0:0:0:0:
313,304,6050,1,0,0:0:0:0:
261,273,6147,1,0,0:0:0:0:
242,215,6236,1,0,0:0:0:0:
270,162,6332,1,0,0:0:0:0:
327,143,6429,1,0,0:0:0:0:
383,160,6526,1,0,0:0:0:0:
428,199,6623,1,0,0:0:0:0:
448,255,6726,1,0,0:0:0:0:
440,312,6829,2,0,L|376:312,1,60
352,368,7010,2,0,L|288:368,1,60
100,368,7208,1,0,0:0:0:0:
148,368,7308,1,0,0:0:0:0:
196,368,7407,2,0,L|256:368,1,60
320,256,7580,2,0,L|256:256,1,60
48,304,7761,2,0,L|112:304,1,60
336,192,7952,2,0,L|272:192,1,60
32,240,8145,2,0,L|96:240,1,60
352,128,8332,2,0,L|288:128,1,60
16,176,8546,2,0,L|80:176,1,60
336,64,8754,2,0,L|272:64,1,60
32,112,8947,2,0,L|96:112,1,60
320,0,9141,2,0,L|256:0,1,60
48,48,9334,2,0,L|112:48,1,60
243,96,9526,2,0,L|304:96,6,60
160,192,10183,1,0,0:0:0:0:
256,320,10274,1,0,0:0:0:0:
352,192,10365,1,0,0:0:0:0:
256,0,10615,1,0,0:0:0:0:
440,92,10895,2,0,B|460:80|436:56|388:92|404:156|456:200|472:248|392:252,1,225
88,336,12233,1,0,0:0:0:0:
88,280,12336,1,0,0:0:0:0:
88,224,12439,2,0,B|96:184|136:200|152:168,2,82.5000025177003
328,368,13215,1,0,0:0:0:0:
456,112,13480,1,0,0:0:0:0:
456,112,13542,1,0,0:0:0:0:
456,112,13605,2,0,B|408:88|408:32|360:40,1,112.500004291535
456,248,14062,2,0,B|456:288|384:296|408:336,1,90.0000034332277
128,192,14523,2,0,B|48:224|176:272|56:344,1,170.999995433807
48,112,15035,2,0,B|112:80|160:144|264:176,1,210
308,172,15535,2,0,L|336:152,4,22.5000008583069
464,48,16061,2,0,B|496:112|416:160|400:224|416:224,1,180
384,352,16582,2,0,L|476:354,1,90
120,192,16846,2,0,L|24:192,1,90.0000034332277
384,32,17111,2,0,L|474:32,1,90.0000034332277
96,288,17376,2,0,P|40:336|24:368,1,90
256,96,17621,2,0,B|288:88|296:64|272:48|272:32|304:22,2,90
432,88,18614,2,0,B|504:224|424:160|432:136|448:128|472:136|480:160|448:168,1,143.999995605469
256,288,19431,1,0,0:0:0:0:
88,248,19680,2,0,B|96:208|40:224|0:168|40:112|72:160,1,155.999992858887
256,44,20459,1,0,0:0:0:0:
416,256,20723,2,0,B|368:232|368:320|480:320|480:216|376:192|312:256|320:344,1,270.000010299683
32,32,21748,1,0,0:0:0:0:
480,192,22237,1,0,0:0:0:0:
152,352,22727,2,0,B|96:360|80:344|64:320|83:260|121:261|152:272|55:295|16:256|16:152|56:48|104:64|136:96|144:136|136:168|136:176|176:152,1,412.5
400,216,23721,2,0,P|424:176|416:128,1,90
392,344,24241,2,0,P|328:360|296:352,1,90
72,272,24741,1,0,0:0:0:0:
192,80,24866,1,0,0:0:0:0:
336,192,25366,1,0,0:0:0:0:
