osu file format v3

[General]
AudioFilename: Jamiroquai - Soul Education.mp3
AudioLeadIn: 0
AudioHash: ab8de18ded4525da0b8d5cbb25a2986d
PreviewTime: -1
SampleSet: Normal

[Metadata]
Title:Soul Education
Artist:Jamiroquai
Creator:K-S-O
Version:Normal

[Difficulty]
HPDrainRate:1
CircleSize:3
OverallDifficulty:2
SliderMultiplier: 1.3
SliderTickRate: 4

[Events]
2,41709,49941
2,85885,92539
2,127430,142500
2,178443,193512
3,0,163,162,255

[TimingPoints]
18370,525.900604785695

[HitObjects]
96,96,18370,1,0,
176,96,18632,1,0,
256,96,18895,1,0,
400,96,19290,1,0,
400,272,20473,1,0,
320,272,20736,1,0,
240,272,20999,1,0,
96,272,21393,1,0,
144,112,22051,6,0,B|144:112|272:80|432:112,1,260
384,256,24154,2,0,B|384:256|256:288|112:256,1,260
112,96,26784,5,0,
64,176,27047,1,0,
160,176,27310,1,0,
256,288,27704,1,0,
400,288,28888,1,0,
448,208,29150,1,0,
352,208,29413,1,0,
256,80,29808,1,0,
80,96,30991,6,0,B|80:96|128:224|256:320,1,260
416,288,33095,2,0,B|416:288|416:144|288:48,1,260
256,192,35198,5,0,
160,192,35461,1,0,
208,272,35724,1,0,
304,272,35987,1,0,
384,272,36250,2,0,B|384:272|448:224|448:144|416:96|336:64,1,260
256,64,37565,5,0,
208,144,37828,1,0,
160,64,38091,1,0,
112,144,38354,2,0,B|112:144|112:224|176:256|256:256|320:208,1,260
464,192,39931,5,0,
416,112,40194,1,0,
336,80,40457,1,0,
176,80,40983,1,0,
96,112,41246,1,0,
48,192,41509,1,0,
80,192,51501,5,0,
112,112,51764,1,0,
176,48,52027,2,2,B|176:48|304:64|368:112|400:176,1,260
288,320,54131,2,2,B|288:320|176:304|96:240|80:176,1,260
304,64,56234,5,0,
208,64,56497,1,0,
256,144,56760,1,0,
304,224,57023,1,0,
208,224,57286,1,0,
256,304,57549,1,0,
352,304,57812,1,0,
400,224,58075,1,0,
432,160,59916,5,0,
400,80,60179,1,0,
320,48,60442,2,2,B|320:48|192:64|112:128|112:176,1,227.5
176,288,62545,2,2,B|176:288|304:272|352:208|384:144,1,260
304,64,64649,5,0,
208,64,64912,1,0,
112,64,65175,1,0,
160,144,65438,1,0,
256,144,65701,1,0,
208,224,65964,2,0,B|208:224|320:224|368:176|432:96,1,260
400,320,68330,5,0,
304,320,68593,1,0,
208,320,68856,1,0,
112,320,69119,1,0,
48,240,69382,2,2,B|48:240|112:112|240:64,1,260
432,240,72537,5,0,
336,240,72800,1,0,
240,240,73063,2,0,B|240:240|166:226|128:160,1,130
256,80,74641,2,2,B|256:80|352:96|416:192,2,195
256,304,77270,5,0,
160,304,77533,1,0,
64,304,77796,2,2,B|64:304|64:192|128:128|240:112,2,260
464,192,81478,5,0,
384,144,81741,1,0,
384,240,82003,1,0,
304,192,82266,1,0,
208,192,82529,1,0,
112,192,82792,2,2,B|112:192|112:112|160:64|224:48,2,195
112,288,84896,5,0,
208,288,85159,1,0,
304,288,85422,1,0,
400,288,85685,1,4,
112,64,94099,5,0,
64,144,94362,1,0,
160,144,94625,1,0,
112,224,94888,1,0,
112,320,95151,1,0,
400,320,96203,5,0,
448,240,96466,1,0,
352,240,96729,1,0,
400,160,96992,1,0,
400,64,97255,1,0,
304,64,98306,5,0,
160,64,98832,1,0,
64,64,99095,2,0,B|64:64|96:176|160:176,1,130
208,320,100410,1,0,
352,320,100936,1,0,
448,320,101199,2,0,B|448:320|416:208|352:208,1,130
448,64,102514,5,0,
352,64,102777,1,0,
400,144,103039,1,0,
304,144,103302,1,0,
208,144,103565,1,0,
48,144,104091,1,0,
64,320,104617,5,0,
160,320,104880,1,0,
112,240,105142,1,0,
208,240,105405,1,0,
304,240,105668,1,0,
464,240,106194,1,0,
320,112,106721,6,0,B|320:112|256:81|192:112,2,130
192,272,108299,2,0,B|192:272|256:303|320:272,2,130
176,128,110928,6,0,B|176:128|224:48|288:32,2,130
176,224,112243,1,0,
176,320,112506,1,0,
336,256,113032,2,0,B|336:256|288:336|224:352,2,130
336,160,114347,1,0,
336,64,114610,1,0,
176,64,115661,5,0,
96,112,115924,1,0,
176,160,116187,1,0,
336,224,116713,1,0,
416,272,116976,1,0,
336,320,117239,1,0,
304,144,119342,5,0,
336,64,119605,1,0,
256,32,119868,1,0,
176,64,120131,1,0,
208,144,120394,1,0,
208,240,121446,1,0,
176,320,121709,1,0,
256,352,121972,1,0,
336,320,122235,1,0,
304,240,122498,1,0,
448,256,123550,5,0,
448,160,123813,1,0,
448,64,124076,2,0,B|448:64|288:80|176:144,1,260
64,144,125653,1,0,
64,224,125916,1,0,
64,304,126179,2,4,B|64:304|208:272|320:208,1,260
256,208,144060,5,0,
256,128,144323,1,0,
192,64,144586,2,2,B|192:64|253:13|336:64,2,130
80,112,146163,5,0,
80,192,146426,1,0,
80,272,146689,2,2,B|80:272|160:288|224:304|320:304|368:288,1,260
416,256,148267,5,0,
416,176,148530,1,0,
384,96,148793,1,0,
304,48,149056,1,0,
224,48,149319,1,0,
96,128,150371,1,0,
96,208,150634,1,0,
128,288,150897,1,0,
208,336,151160,1,0,
288,336,151423,1,0,
256,208,152474,5,0,
256,128,152737,1,0,
320,64,153000,2,2,B|320:64|259:13|176:64,2,130
432,112,154578,5,0,
432,192,154841,1,0,
432,272,155104,2,2,B|432:272|352:288|288:304|192:304|144:288,1,260
432,128,157207,5,0,
352,80,157470,1,0,
256,80,157733,1,0,
160,80,157996,1,0,
80,128,158259,1,0,
80,288,158785,1,0,
160,336,159048,1,0,
256,336,159311,1,0,
352,336,159574,1,0,
448,336,159837,1,0,
464,224,160889,5,0,
368,224,161152,1,0,
416,144,161414,1,0,
368,64,161677,1,0,
288,64,161940,1,0,
208,64,162203,1,0,
80,64,162729,1,0,
64,192,163518,2,2,B|64:192|112:272|176:288,2,130
160,176,165096,5,0,
256,176,165359,1,0,
208,96,165622,1,0,
400,96,166148,1,0,
432,224,167199,2,2,B|432:224|384:304|336:320,2,130
64,192,169303,5,0,
96,112,169566,1,0,
160,48,169829,1,0,
240,16,170092,1,0,
320,48,170355,2,2,B|320:48|384:96|416:240|416:304,1,260
96,304,173247,5,0,
176,304,173510,1,0,
256,304,173773,1,0,
336,304,174036,2,2,B|336:304|400:272|432:208,4,130
480,64,177191,6,0,B|480:64|336:32|336:48,1,130
272,64,177980,1,0,
192,64,178243,1,4,
80,176,195072,6,0,B|80:176|144:96|320:80,2,260
144,272,197702,1,0,
256,272,198228,1,0,
368,272,198753,1,0,
432,176,199279,6,0,B|432:176|368:96|192:80,2,260
368,272,201909,1,0,
256,272,202435,1,0,
176,192,202961,5,0,
144,112,203224,1,0,
208,48,203487,2,2,B|208:48|304:64|368:160,1,195
368,288,204801,1,2,
240,336,205590,2,2,B|240:336|160:304|144:240,3,130
80,80,207694,5,0,
160,80,207957,1,0,
240,80,208220,1,0,
320,80,208483,1,0,
400,80,208746,2,0,B|400:80|480:80|480:176,1,130
432,304,209797,1,2,
352,304,210060,1,2,
272,304,210323,1,2,
192,304,210586,1,2,
112,304,210849,2,2,B|112:304|32:304|32:208,1,130
64,112,211901,5,0,
208,64,212427,1,0,
304,64,212690,1,0,
400,64,212953,2,2,B|400:64|368:144|304:192,4,130
176,48,216108,5,0,
96,48,216371,1,0,
96,128,216634,1,0,
176,128,216897,1,0,
176,208,217160,1,0,
256,208,217423,1,0,
336,336,218212,1,2,
416,336,218475,1,2,
416,256,218738,1,2,
336,256,219001,1,2,
336,176,219264,1,2,
256,176,219527,1,2,
448,112,220315,5,0,
384,48,220578,1,0,
304,48,220841,1,0,
224,48,221104,1,0,
144,48,221367,1,0,
48,112,221893,1,0,
144,240,222419,2,6,B|144:240|304:256|432:240,2,260
256,192,225048,12,4,228730
