osu file format v9

[General]
AudioFilename: The Rock City Boy - Jamil.mp3
AudioLeadIn: 0
PreviewTime: -1
Countdown: 0
SampleSet: Soft
StackLeniency: 0.2
Mode: 0
LetterboxInBreaks: 1

[Editor]
Bookmarks: 17974,69724,75724
DistanceSpacing: 0.8
BeatDivisor: 4
GridSize: 4

[Metadata]
Title:The Rock City Boy (TV Size)
Artist:Jamil
Creator:SkyDevil
Version:Normal
Source:Fairy Tail
Tags:ft natsu lucy gray erza

[Difficulty]
HPDrainRate:4
CircleSize:4
OverallDifficulty:4
ApproachRate:4
SliderMultiplier:1.3
SliderTickRate:2

[Events]
//Background and Video events
0,0,"fairy_tail_wallpaper_by_gaarajapanime-d36rjbq.png"
Video,0,"Fairy Tail opening 8 the rock city boy wi.avi"
//Break Periods
2,57924,63154
//Storyboard Layer 0 (Background)
//Storyboard Layer 1 (Fail)
//Storyboard Layer 2 (Pass)
//Storyboard Layer 3 (Foreground)
//Storyboard Sound Samples
//Background Colour Transformations
3,100,163,162,255

[TimingPoints]
3724,375,4,2,0,35,1,0
4099,-100,4,2,0,40,0,0
4477,-100,4,2,0,45,0,0
4849,-100,4,2,0,50,0,0
5224,-100,4,2,0,55,0,0
5599,-100,4,2,0,60,0,0
5974,-100,4,1,0,65,0,0
19474,-100,4,1,0,40,0,0
20786,-100,4,1,0,65,0,0
22286,-100,4,1,0,40,0,0
23974,-100,4,1,0,65,0,0
25474,-100,4,1,0,40,0,0
26786,-100,4,1,0,65,0,0
28286,-100,4,1,0,40,0,0
30724,-100,4,1,0,65,0,1
42161,-100,4,1,0,65,0,0
42724,-100,4,1,0,65,0,1
51714,-66.6666666666667,4,1,0,65,0,1
57724,-100,4,1,0,30,0,0
63724,-100,4,1,0,65,0,0
86599,-100,4,2,0,65,0,0

[Colours]
Combo1 : 203,13,3
Combo2 : 0,0,255
Combo3 : 128,0,255
Combo4 : 255,255,255

[HitObjects]
256,192,3724,12,4,5974
256,40,6724,5,4
128,144,7474,2,0,B|416:144,1,260
392,248,8974,1,0
392,344,9724,6,0,B|112:344,1,260,4|0
128,256,11224,2,0,B|392:256,1,260
400,176,12724,5,4
408,104,13099,1,0
352,64,13474,1,0
120,72,14224,5,0
112,144,14599,1,0
168,184,14974,1,0
168,296,15724,6,0,B|456:296,1,260,4|0
428,204,17036,1,0
428,160,17411,1,0
192,48,17974,6,0,B|352:48,2,130,2|2|6
192,328,19474,6,0,B|336:328,2,130,2|2|6
24,112,20786,6,0,B|112:112,1,65,0|2
176,112,21349,1,2
272,112,21724,2,2,B|272:320,2,195
360,112,23224,1,2
128,224,23974,6,0,B|248:328,2,130,2|2|6
296,64,25474,6,0,B|392:160,2,130,2|2|2
476,320,26786,5,0
440,320,26974,1,2
336,320,27349,2,0,B|272:320,1,65,2|2
216,320,27724,2,0,B|168:320,2,32.5
104,320,28286,5,0
104,280,28474,1,2
104,160,28849,2,0,B|104:88,1,65,2|2
104,36,29224,2,0,B|104:-12,2,32.5
256,192,30161,6,0,B|256:120,3,65,0|0|0|2
352,128,31099,2,0,B|352:272,1,130,2|2
284,260,31849,2,0,B|148:260,1,130,2|2
80,260,32599,2,0,B|80:124,1,130,2|2
164,128,33349,1,2
376,48,33911,5,0
400,80,34099,2,0,B|416:100|428:144|428:176|420:228,1,130,2|2
416,240,34661,1,0
400,268,34849,2,0,B|356:272|320:264,1,65,2|4
272,232,35599,6,0,B|232:192|308:144|264:96,2,130,2|2|2
168,288,36724,2,0,B|168:136,1,130,2|2
96,156,37474,2,0,B|96:12,1,130,2|2
168,24,38224,2,0,B|296:24,1,130,2|2
296,60,38786,1,0
296,92,38974,1,0
368,216,39349,6,0,B|456:216,2,65,2|0|6
192,324,40474,2,0,B|140:276|152:208|156:180|196:136,1,195,2|2
256,200,41599,5,2
256,200,41786,1,6
256,316,42161,6,0,B|256:380,2,65,0|2|0
256,256,42724,1,6
320,192,43099,1,6
192,192,43474,1,6
108,196,43849,6,0,B|108:280,4,65,2|0|2|0|2
40,192,44786,2,0,B|40:128,3,65,0|2|0|2
20,320,45911,6,0,B|76:340|156:316|156:316,1,130,2|0
192,320,46474,2,0,B|244:336|324:320,1,130,2|6
368,320,47036,1,4
376,200,47599,6,0,B|320:248|256:200|256:200|196:248|128:192,1,260,2|2
36,200,48724,5,2
108,152,49099,1,2
188,196,49474,1,2
256,152,49849,2,0,B|396:256|248:368,1,260,2|2
208,304,50974,2,0,B|172:288|140:248|220:200,1,130,2|2
308,192,51724,5,4
256,120,52286,1,4
200,192,52849,1,4
256,192,53036,12,0,54349
256,80,54724,5,4
168,260,55286,1,4
356,256,55849,1,4
256,192,56036,12,0,57724
256,272,64474,5,2
192,192,64849,1,2
320,192,65224,1,2
256,192,65411,12,0,66724
416,56,67286,6,0,B|480:144|420:252,1,195
388,240,68036,1,0
356,240,68224,2,4,B|336:264|320:328|372:360,3,130
260,360,69724,6,0,B|196:360|196:360|196:296|196:296|124:296|124:296|124:236|124:236,1,260
124,140,70849,1,8
172,56,71224,2,0,B|220:108|220:108|260:60|260:60|300:108|300:108|344:48,1,260
392,140,72349,1,8
392,232,72724,2,0,B|392:292|392:292|320:292|320:292|320:356|320:356|256:356,3,260
32,47,75724,6,0,B|32:116|32:116|84:192|84:192|152:192|152:192|204:116|204:116|204:45,1,390
300,48,77224,1,0
336,132,77599,1,0
420,168,77974,1,0
420,252,78349,6,0,B|288:252|288:252|288:348|288:348|188:348|188:348|188:252|188:252|88:252|88:252|88:120,1,650
124,128,80411,1,0
156,128,80599,1,0
256,128,80974,5,0
288,128,81161,1,0
320,128,81349,1,0
472,40,81724,6,0,B|472:140|472:140|376:140|376:140|376:40|376:40|280:40|280:40|280:176|280:176,1,520
280,264,83599,1,0
172,264,83974,1,0
172,168,84349,1,0
172,128,84536,1,0
256,192,84724,12,4,85849
224,192,86224,6,0,B|304:192,4,65,0|0|2|2|2
224,240,87161,1,2
224,284,87349,1,2
