osu file format v9

[General]
AudioFilename: The Rock City Boy - Jamil.mp3
AudioLeadIn: 0
PreviewTime: -1
Countdown: 0
SampleSet: Soft
StackLeniency: 0.7
Mode: 0
LetterboxInBreaks: 1

[Editor]
Bookmarks: 17974,69724,75724
DistanceSpacing: 0.8
BeatDivisor: 4
GridSize: 8

[Metadata]
Title:The Rock City Boy (TV Size)
Artist:Jamil
Creator:SkyDevil
Version:Hard
Source:Fairy Tail
Tags:ft natsu lucy gray erza

[Difficulty]
HPDrainRate:4
CircleSize:5
OverallDifficulty:5
ApproachRate:6
SliderMultiplier:1.5
SliderTickRate:1

[Events]
//Background and Video events
0,0,"fairy_tail_wallpaper_by_gaarajapanime-d36rjbq.png"
Video,0,"Fairy Tail opening 8 the rock city boy wi.avi"
//Break Periods
//Storyboard Layer 0 (Background)
//Storyboard Layer 1 (Fail)
//Storyboard Layer 2 (Pass)
//Storyboard Layer 3 (Foreground)
//Storyboard Sound Samples
//Background Colour Transformations
3,100,163,162,255

[TimingPoints]
3724,375,4,2,0,35,1,0
4099,-100,4,2,0,40,0,0
4477,-100,4,2,0,45,0,0
4849,-100,4,2,0,50,0,0
5224,-100,4,2,0,55,0,0
5599,-100,4,2,0,60,0,0
5974,-100,4,1,0,65,0,0
19474,-100,4,1,0,40,0,0
20786,-100,4,1,0,65,0,0
22286,-100,4,1,0,40,0,0
23974,-100,4,1,0,65,0,0
25474,-100,4,1,0,40,0,0
26786,-100,4,1,0,65,0,0
28286,-100,4,1,0,40,0,0
30724,-100,4,1,0,65,0,1
42161,-100,4,1,0,65,0,0
42724,-100,4,1,0,65,0,1
51714,-66.6666666666667,4,1,0,65,0,1
57724,-100,4,1,0,30,0,0
63724,-100,4,1,0,65,0,0
86599,-100,4,2,0,65,0,0

[Colours]
Combo1 : 203,13,3
Combo2 : 0,0,255
Combo3 : 128,0,255
Combo4 : 255,255,255

[HitObjects]
256,192,3724,12,4,5974
40,192,6536,5,0
32,296,6724,2,0,B|104:296|104:296|160:240,1,150,4|0
240,240,7286,1,0
320,240,7474,2,0,B|392:240|392:240|440:304,1,150
352,304,8036,5,0
352,192,8411,1,0
352,80,8786,1,0
232,80,9161,2,0,B|200:128|200:128|96:128,1,150
32,184,9724,5,4
88,224,9911,1,0
144,184,10099,1,0
200,224,10286,1,0
256,184,10474,2,0,B|296:184|296:184|320:232,1,75
320,320,11036,6,0,B|240:320,2,75
392,320,11599,1,0
448,256,11786,1,0
392,200,11974,1,0
336,256,12161,2,0,B|256:256|256:256|208:192,1,150
296,184,12724,5,4
296,104,12911,1,0
296,24,13099,2,0,B|208:24|208:24|176:96,1,150
184,152,13661,1,0
184,328,14036,5,0
264,328,14224,1,0
344,328,14411,1,0
344,256,14599,1,0
264,256,14786,1,0
184,256,14974,2,0,B|208:208|208:208|328:208,1,150
392,208,15536,5,0
392,136,15724,1,4
392,64,15911,1,0
320,64,16099,1,0
240,64,16286,1,0
240,136,16474,2,0,B|320:136|320:136|376:200,1,150
392,264,17036,1,0
248,264,17411,1,0
128,192,17974,5,2
256,80,18349,1,2
384,192,18724,1,6
128,192,19474,5,2
256,304,19849,1,2
384,192,20224,1,6
40,192,20786,5,0
40,112,20974,2,2,B|200:112,1,150
256,112,21536,1,0
256,192,21724,2,2,B|96:192,1,150
104,264,22286,5,0
176,264,22474,2,2,B|352:264,1,150
328,192,23036,1,0
256,192,23224,2,2,B|96:192,1,150
208,320,23974,5,2
256,56,24349,1,2
312,320,24724,1,6
208,56,25474,5,2
256,320,25849,1,2
312,56,26224,1,6
96,256,26786,6,2,B|96:336,1,75
216,328,27349,1,0
280,328,27536,1,0
344,328,27724,2,2,B|344:320|352:320|352:328|352:336|344:336|336:336|336:328|336:320|336:320|336:312|344:312|352:312|360:312|360:320|360:328|320:344,1,75
464,216,28286,5,0
384,216,28474,1,0
264,216,28849,2,0,B|264:136,1,75
328,144,29224,2,2,B|328:136|336:136|336:144|336:152|328:152|320:152|320:144|320:136|320:136|328:128|336:128|344:128|344:136|344:144|304:152|304:152,1,75
256,64,30161,5,0
224,112,30349,1,0
288,112,30536,1,0
256,160,30724,2,2,B|256:328,2,150
328,160,31661,1,0
328,224,31849,2,2,B|240:224,1,75,2|0
176,224,32224,1,2
176,144,32411,2,0,B|224:80,1,75,0|2
160,48,32786,2,0,B|104:128,1,75,0|2
56,72,33161,2,0,B|104:0,1,75,0|6
56,192,33911,5,0
128,192,34099,2,0,B|224:192,1,75,2|0
272,192,34474,1,2
272,272,34661,2,0,B|368:272,1,75,0|2
424,272,35036,1,4
264,40,35599,5,4
264,40,35786,1,4
48,192,36724,5,2
256,192,37099,1,2
472,192,37474,1,2
472,336,37849,5,2
400,336,38036,2,0,B|296:336,2,75,0|2|0
400,272,38599,2,0,B|400:184,2,75,2|0|2
256,336,39349,5,2
256,264,39536,1,0
256,192,39724,2,0,B|208:104|208:104|64:104,1,225,6|0
80,176,40474,1,2
80,256,40661,2,0,B|80:360,1,75,0|2
144,328,41036,2,4,B|400:328,1,225,4|2
440,328,41786,1,4
256,0,42161,5,0
256,56,42349,1,0
256,112,42536,1,0
256,168,42724,2,0,B|440:168,2,150,2|2|2
256,272,43849,2,0,B|152:272,2,75,2|0|2
256,328,44411,2,0,B|352:328,2,75,0|2|0
256,384,44974,2,0,B|176:384,2,75,2|0|6
496,288,45911,6,0,B|472:256|472:256|416:256,1,75,0|2
368,256,46286,1,0
288,256,46474,1,2
288,192,46661,2,0,B|304:160|304:160|344:160,1,75,0|2
408,160,47036,1,4
408,32,47411,5,0
344,32,47599,2,0,B|264:32,1,75,2|0
64,48,48724,5,2
256,192,49099,1,2
464,48,49474,1,2
464,192,49849,5,2
464,272,50036,2,0,B|296:272,1,150
248,272,50599,2,0,B|192:216,1,75,2|0
160,272,50974,2,2,B|32:152,1,150
48,104,51536,5,0
128,104,51724,2,6,B|136:96|136:96|136:112|136:112|120:104|120:104|144:88|144:88|144:120|144:120|112:104|112:104|152:80|152:80|152:128|152:128|104:104|104:104|160:72|160:72,2,337.499989941716
488,320,54349,5,0
376,320,54724,2,6,B|376:312|376:312|384:320|384:320|376:328|376:328|368:320|368:320|376:304|376:304|392:320|392:320|376:336|376:336|360:320|360:320|376:296|376:296|400:320|400:320|376:344|376:344|352:320|352:320|376:288|376:288|408:320|408:320,2,337.499989941716
256,192,56224,12,0,57724
256,192,58099,5,12
456,48,58849,1,8
456,352,59599,1,8
128,352,60161,1,8
40,352,60349,1,8
32,48,61099,5,8
256,192,61849,1,8
456,40,62599,1,8
464,280,63161,1,8
464,344,63349,1,8
256,192,63724,5,0
256,192,64099,1,4
128,192,64474,5,2
256,40,64849,1,2
376,192,65224,1,6
256,192,65411,12,0,66724
176,336,67286,5,0
176,296,67474,1,2
176,208,67849,1,2
176,168,68036,1,0
176,120,68224,2,4,B|360:120|360:120,3,150
408,120,69724,5,0
408,176,69911,1,0
408,232,70099,1,8
408,288,70286,1,0
352,288,70474,2,0,B|200:288,1,150,0|8
200,232,71036,5,0
256,232,71224,1,0
312,232,71411,1,0
312,176,71599,1,8
256,176,71786,1,0
200,176,71974,2,0,B|48:176,1,150,0|8
48,224,72536,5,0
48,272,72724,1,0
48,320,72911,1,0
48,368,73099,1,8
104,368,73286,1,0
160,368,73474,2,0,B|160:192,1,150,0|8
160,104,74036,5,4
432,104,74411,5,4
440,336,74786,5,4
256,192,74974,12,0,75724
224,192,75911,5,0
160,192,76099,1,8
96,192,76286,1,0
32,192,76474,2,0,B|32:136,2,37.5
32,256,76849,1,8
32,320,77036,1,0
96,320,77224,2,0,B|96:272,2,37.5
160,320,77599,2,0,B|208:320,2,37.5,8|0|0
160,256,77974,1,0
224,256,78161,1,0
288,256,78349,1,8
456,256,78724,6,0,B|496:256,1,37.5
456,224,78911,2,0,B|408:224,1,37.5
456,184,79099,1,8
456,120,79286,1,0
456,48,79474,2,0,B|352:48,1,75
320,48,79849,2,0,B|320:144,1,75,8|0
320,184,80224,1,0
320,248,80411,1,0
320,312,80599,2,0,B|216:312,1,75,8|0
176,312,80974,1,0
176,248,81161,1,0
248,248,81349,1,8
40,40,81724,6,0,B|120:40,3,75,0|0|8|0
176,40,82474,1,0
176,104,82661,1,0
176,168,82849,2,0,B|88:168,2,75,8|0|0
176,240,83411,1,0
176,304,83599,1,8
240,304,83786,1,0
304,304,83974,1,0
368,304,84161,1,0
432,304,84349,6,0,B|528:304,2,75,8|0|0
432,240,84911,1,0
432,176,85099,1,12
432,48,85474,5,0
368,48,85661,1,0
304,48,85849,1,12
160,48,86224,5,0
160,112,86411,1,0
160,176,86599,2,2,B|104:176,2,37.5,8|2|0
160,248,86974,1,0
160,320,87161,2,0,B|216:320,2,37.5,2|0|10
