osu file format v10

[General]
AudioFilename: jamie's elsewhere - a slave, a son.mp3
AudioLeadIn: 1500
PreviewTime: 32598
Countdown: 0
SampleSet: Normal
StackLeniency: 0.7
Mode: 0
LetterboxInBreaks: 1

[Editor]
DistanceSpacing: 1
BeatDivisor: 4
GridSize: 4

[Metadata]
Title:A Slave, A Son
TitleUnicode:A Slave, A Son
Artist:Jamies Elsewhere
ArtistUnicode:Jamies Elsewhere
Creator:P o M u T a
Version:Son
Source:
Tags:They Said A Storm Was Coming Saten Saten-san
BeatmapID:183763
BeatmapSetID:59903

[Difficulty]
HPDrainRate:6
CircleSize:3
OverallDifficulty:6
ApproachRate:8
SliderMultiplier:1.8
SliderTickRate:1

[Events]
//Background and Video events
0,0,"bg.jpg"
//Break Periods
2,56797,69181
2,107264,115847
//Storyboard Layer 0 (Background)
//Storyboard Layer 1 (Fail)
//Storyboard Layer 2 (Pass)
//Storyboard Layer 3 (Foreground)
//Storyboard Sound Samples
//Background Colour Transformations
3,100,163,162,255

[TimingPoints]
598,333.333333333333,4,2,1,50,1,0
4264,-100,4,2,1,5,0,0
5931,-100,4,1,2,70,0,0
32598,-100,4,1,2,80,0,1
48597,-133.333333333333,4,1,2,70,0,1
51264,-100,4,1,2,80,0,1
53931,-100,4,1,2,20,0,1
56597,-100,4,1,2,80,0,0
69931,-100,4,1,2,20,0,0
74597,-100,4,1,2,80,0,0
75265,-100,4,1,1,70,0,0
85932,-100,4,1,2,80,0,1
101931,-125,4,1,2,70,0,1
104597,-100,4,1,2,70,0,0
139264,-133.333333333333,4,1,2,70,0,0
157932,-100,4,1,1,70,0,0
163931,333.333333333333,4,1,2,80,1,1
179931,-133.333333333333,4,1,2,70,0,1
182598,-100,4,1,2,80,0,1
195598,-100,4,1,2,80,0,0

[Colours]
Combo1 : 255,62,62
Combo2 : 0,200,0
Combo3 : 170,170,255
Combo4 : 0,64,128

[HitObjects]
256,116,598,2,0,B|268:72|312:44|368:44|404:72,1,180
452,148,1098,1,0,0:0:0
428,236,1264,2,0,B|364:300,1,90
284,256,1597,2,0,B|348:192,1,90
316,108,1931,5,0,0:0:0
228,88,2097,1,0,0:0:0
148,128,2264,2,0,B|128:216,1,90
40,240,2598,2,0,B|80:63,1,180
168,68,3098,1,0,0:0:0
212,148,3264,6,0,B|212:328,1,180,0|0,0:0|0:0,0:0:0
296,364,3764,1,0,0:0:0
380,336,3931,2,0,B|424:256,1,90
256,192,4264,12,0,5597,0:0:0
256,88,5931,21,8,0:0:0
184,36,6097,2,0,B|144:16,2,45,0|0|8,0:0|0:0|0:0,0:0:0
108,88,6431,2,0,B|64:88,2,45,0|0|8,0:0|0:0|0:0,0:0:0
96,176,6764,2,0,B|56:196,2,45,0|0|8,0:0|0:0|0:0,0:0:0
120,264,7097,22,0,B|92:300,2,45,0|0|8,0:0|0:0|0:0,0:0:0
188,324,7431,2,0,B|184:368,2,45,0|0|8,0:0|0:0|0:0,0:0:0
276,344,7764,2,0,B|304:380,2,45,0|0|8,0:0|0:0|0:0,0:0:0
360,312,8097,2,0,B|400:336,2,45,0|0|8,0:0|0:0|0:0,0:0:0
420,244,8431,22,0,B|468:240,2,45,0|0|8,0:0|0:0|0:0,0:0:0
432,156,8764,2,0,B|472:136,2,45,0|0|8,0:0|0:0|0:0,0:0:0
392,76,9097,2,0,B|424:44,2,45,0|0|8,0:0|0:0|0:0,0:0:0
304,56,9431,2,0,B|324:16,2,45,0|0|8,0:0|0:0|0:0,0:0:0
224,96,9764,6,0,B|224:140,2,45,0|0|8,0:0|0:0|0:0,0:0:0
136,84,10098,1,0,0:0:0
64,136,10264,1,0,0:0:0
68,228,10431,1,8,0:0:0
136,288,10598,6,0,B|216:244,1,90,0|0,0:0|0:0,0:0:0
376,288,10931,2,0,B|296:244,1,90,8|0,0:0|0:0,0:0:0
256,164,11264,22,0,B|272:124|320:100|368:104|404:148,1,180,12|0,0:0|0:0,0:0:0
256,164,11764,2,0,B|240:124|192:100|144:104|108:148,1,180,8|0,0:0|0:0,0:0:0
68,228,12264,1,8,0:0:0
108,308,12431,1,0,0:0:0
192,340,12598,6,0,B|240:352|288:344|328:304|328:260,1,180,8|0,0:0|0:0,0:0:0
244,228,13098,2,0,B|196:240|148:232|108:192|108:148,1,180,8|0,0:0|0:0,0:0:0
192,116,13598,2,0,B|240:128|288:120|328:80|328:36,1,180,8|8,0:0|0:0,0:0:0
416,44,14097,5,0,0:0:0
396,132,14264,1,0,0:0:0
324,188,14431,2,0,B|244:228,2,90,8|0|0,0:0|0:0|0:0,0:0:0
400,240,14931,1,8,0:0:0
344,308,15098,1,0,0:0:0
256,316,15264,22,0,B|176:276,2,90,8|0|0,0:0|0:0|0:0,0:0:0
244,228,15764,2,0,B|324:188,2,90,8|0|0,0:0|0:0|0:0,0:0:0
160,192,16264,2,0,B|120:168,3,45
121,168,16598,6,0,B|108:120|116:76|148:40|200:28,1,180,4|8,0:0|0:0,0:0:0
256,200,17264,1,0,0:0:0
204,272,17431,1,0,0:0:0
116,284,17598,1,8,0:0:0
36,248,17764,6,0,B|68:200|40:160|16:124|39:74,1,180
112,32,18264,1,8,0:0:0
192,72,18431,2,0,B|215:121|191:157|163:197|195:245,1,180,0|0,0:3|0:3,0:3:0
276,284,18931,21,8,0:0:0
364,260,19098,1,0,0:0:0
396,176,19264,2,0,B|376:88,1,90,8|0,0:0|0:0,0:0:0
284,80,19598,2,0,B|304:168,1,90,8|0,0:0|0:0,0:0:0
212,160,19931,2,0,B|192:72,1,90,8|0,0:0|0:0,0:0:0
100,72,20264,2,0,B|120:160,1,90,8|0,0:0|0:0,0:0:0
164,236,20597,6,0,B|204:256,3,45
248,252,20931,2,0,B|288:228,3,45
332,228,21264,2,0,B|372:252,3,45
416,244,21597,2,0,B|444:208,3,45
452,164,21931,6,0,B|408:80,2,90,8|0|0,0:0|0:0|0:0,0:0:0
364,180,22431,2,0,B|320:264,2,90,8|0|0,0:0|0:0|0:0,0:0:0
272,180,22931,2,0,B|228:96,2,90,8|0|0,0:0|0:0|0:0,0:0:0
184,204,23431,2,0,B|140:288,2,90,8|0|0,0:0|0:0|0:0,0:0:0
96,184,23931,21,8,0:0:0
32,248,24097,1,0,0:0:0
64,332,24264,1,8,0:0:0
152,356,24431,1,0,0:0:0
232,316,24597,6,0,B|264:232,2,90,8|0|0,0:0|0:0|0:0,0:0:0
176,244,25097,2,0,B|208:160,2,90,8|0|0,0:0|0:0|0:0,0:0:0
120,172,25597,2,0,B|152:88,2,90,8|0|0,0:0|0:0|0:0,0:0:0
64,100,26097,2,0,B|96:16,2,90,8|0|0,0:0|0:0|0:0,0:0:0
24,180,26597,6,0,B|44:220,4,45
196,116,27264,22,0,B|220:76,4,45
284,140,27764,2,0,B|320:112,4,45
348,204,28264,2,0,B|396:204,4,45
344,296,28764,2,0,B|384:320,4,45
256,320,29264,1,8,0:0:0
92,244,29597,1,8,0:0:0
160,76,29931,6,0,B|160:32,4,45
248,84,30431,2,0,B|272:44,4,45
324,128,30931,2,0,B|368:104,4,45
256,192,31347,12,0,32264,0:0:0
256,192,32597,6,0,B|312:120|312:120|396:92,1,180,4|8,0:0|0:0,0:0:0
488,248,33264,1,0,0:0:0
424,312,33431,1,0,0:0:0
336,324,33597,1,8,0:0:0
256,284,33764,22,0,B|256:104,1,180
168,80,34264,2,0,B|168:260,1,180,8|0,0:0|0:0,0:0:0
84,288,34764,1,0,0:0:0
12,236,34931,1,8,0:0:0
88,72,35264,6,0,B|168:28|168:28|256:28,1,180,0|8,0:0|0:0,0:0:0
256,208,35931,1,0,0:0:0
320,272,36097,1,0,0:0:0
412,272,36264,1,8,0:0:0
460,196,36431,2,0,B|476:108|476:108|440:24,1,180
363,72,36931,2,0,B|329:157|329:157|256:208,1,180,8|0,0:3|0:3,0:3:0
212,200,37347,6,0,B|180:168,6,45
188,240,37931,22,0,B|256:300|256:300|344:312,1,180,0|8,0:0|0:0,0:0:0
480,192,38597,1,0,0:0:0
344,76,38931,1,8,0:0:0
256,96,39097,2,0,B|208:108|180:148|168:192|188:240,1,180
96,248,39597,2,0,B|60:209|57:164|69:117|110:89,1,180,8|0,0:0|0:0,0:0:0
180,144,40097,1,0,0:0:0
256,192,40264,1,8,0:0:0
420,264,40597,6,0,B|448:176,1,90
364,144,40931,2,0,B|336:232,1,90,8|0,0:0|0:0,0:0:0
256,192,41264,2,0,B|256:12,1,180,0|8,0:0|0:0,0:0:0
168,28,41764,5,0,0:0:0
116,100,41931,2,0,B|116:192,1,90
200,224,42264,2,0,B|200:132,1,90,8|0,0:0|0:0,0:0:0
284,164,42597,2,0,B|284:256,1,90,8|0,0:0|0:0,0:0:0
364,296,42931,2,0,B|408:312,3,45
448,296,43264,22,0,B|476:256|480:208|448:164|400:148,1,180,0|8,0:0|0:0,0:0:0
256,252,43931,1,0,0:0:0
172,224,44097,1,0,0:0:0
136,140,44264,1,8,0:0:0
176,60,44431,2,0,B|256:16|256:16|344:16,1,180
372,104,44931,6,0,B|280:104,1,90,8|0,0:0|0:0,0:0:0
256,192,45264,2,0,B|348:192,1,90
320,280,45597,2,0,B|228:280,1,90,8|0,0:0|0:0,0:0:0
140,260,45931,5,0,0:0:0
96,180,46097,1,0,0:0:0
124,92,46264,1,8,0:0:0
208,64,46431,1,0,0:0:0
288,104,46597,2,0,B|288:196,2,90,0|0|8,0:0|0:0|0:0,0:0:0
376,84,47097,22,0,B|420:100|452:144|452:196|432:236,1,180
400,320,47597,2,0,B|320:280,1,90,8|0,0:0|0:0,0:0:0
112,320,47931,2,0,B|192:280,1,90
256,216,48264,1,8,0:0:0
304,44,48597,38,4,B|356:24|408:36|456:80|460:180|392:280|256:352|256:352|120:280|52:180|56:80|104:36|156:24|206:43,1,945.000036048891,4|0,0:0|0:0,0:3:0
256,216,51264,6,0,B|336:172,1,90,8|0,0:0|0:0,0:0:0
388,248,51597,2,0,B|308:292,1,90,8|0,0:0|0:0,0:0:0
256,216,51931,2,0,B|176:172,1,90,8|0,0:0|0:0,0:0:0
124,248,52264,2,0,B|204:292,1,90,8|0,0:0|0:0,0:0:0
256,216,52597,6,0,B|280:176,7,45
320,156,53264,2,0,B|368:152,7,45
256,192,53931,12,0,56597,0:0:0
256,192,69931,12,0,74597,0:0:0
356,216,75264,6,0,B|440:180,2,90,12|0|0,0:0|0:0|0:0,0:0:0
312,140,75764,2,0,B|368:68,2,90,8|0|0,0:0|0:0|0:0,0:0:0
228,112,76264,2,0,B|256:20,2,90,8|0|0,0:0|0:0|0:0,0:0:0
140,120,76764,2,0,B|124:32,2,90,8|0|0,0:0|0:0|0:0,0:0:0
156,208,77264,1,8,0:0:0
356,208,77597,1,8,0:0:0
256,380,77931,22,0,B|168:360,2,90,8|0|0,0:0|0:0|0:0,0:0:0
256,280,78431,2,0,B|344:260,2,90,8|0|0,0:0|0:0|0:0,0:0:0
256,180,78931,2,0,B|168:160,2,90,8|0|0,0:0|0:0|0:0,0:0:0
256,80,79431,2,0,B|344:60,2,90,8|0|0,0:0|0:0|0:0,0:0:0
156,68,79931,6,0,B|112:52,4,45
308,192,80597,6,0,B|352:208,4,45
204,192,81097,2,0,B|160:208,4,45,0|0|0|0|0,0:0|0:0|0:0|0:0|0:0,0:0:0
308,276,81597,2,0,B|352:292,4,45
204,276,82097,2,0,B|160:292,4,45,0|0|0|0|0,0:0|0:0|0:0|0:0|0:0,0:0:0
256,192,82597,1,8,0:0:0
424,88,82931,1,8,0:0:0
432,284,83264,22,0,B|400:316,4,45
384,196,83764,2,0,B|352:164,4,45
304,256,84264,2,0,B|272:288,4,45
256,192,84681,12,0,85597,0:0:0
256,192,85931,6,0,B|252:244|224:284|172:296|128:284,1,180,4|8,0:0|0:0,0:0:0
32,132,86597,1,0,0:0:0
96,68,86764,1,0,0:0:0
184,52,86931,1,8,0:0:0
256,104,87097,6,0,B|256:284,1,180
356,300,87597,2,0,B|356:120,1,180,8|0,0:0|0:0,0:0:0
296,52,88097,1,0,0:0:0
212,84,88264,2,0,B|172:164|172:164|172:256,1,180,8|0,0:0|0:0,0:0:0
84,260,88764,1,0,0:0:0
12,204,88931,1,8,0:0:0
124,64,89264,21,0,0:0:0
212,84,89431,1,0,0:0:0
256,160,89597,1,8,0:0:0
320,224,89764,2,0,B|404:192|404:192|452:116,1,180
389,52,90264,2,0,B|212:84,1,180,8|0,0:0|0:0,0:0:0
172,104,90681,6,0,B|148:144,6,45
204,136,91264,6,0,B|276:192|276:192|364:192,1,180,0|8,0:0|0:0,0:0:0
256,336,91931,1,0,0:0:0
180,288,92097,1,0,0:0:0
116,224,92264,1,8,0:0:0
96,136,92431,22,0,B|184:136|184:136|256:192,1,180
284,108,92931,2,0,B|212:52|212:52|124:52,1,180,8|0,0:0|0:0,0:0:0
40,88,93431,1,0,0:0:0
32,176,93597,1,8,0:0:0
176,284,93931,6,0,B|208:200,1,90
296,212,94264,2,0,B|264:296,1,90,8|0,0:0|0:0,0:0:0
352,308,94597,2,0,B|415:140,1,180,0|8,0:0|0:0,0:0:0
364,68,95097,1,0,0:0:0
276,52,95264,6,0,B|192:84,1,90
200,172,95597,2,0,B|284:140,1,90,8|0,0:0|0:0,0:0:0
284,232,95931,2,0,B|200:264,1,90,8|0,0:0|0:0,0:0:0
108,272,96264,2,0,B|68:248,3,45
52,208,96597,22,0,B|44:160|64:116|108:88|156:92,1,180,0|8,0:0|0:0,0:0:0
260,240,97264,1,0,0:0:0
352,240,97431,1,0,0:0:0
408,172,97597,1,8,0:0:0
408,80,97764,2,0,B|332:32|332:32|240:32,1,180
216,120,98264,2,0,B|308:120,1,90,8|0,0:0|0:0,0:0:0
300,212,98597,2,0,B|208:212,1,90
132,256,98931,1,8,0:0:0
124,344,99097,1,0,0:0:0
208,376,99264,6,0,B|252:372|296:344,1,90
280,256,99597,2,0,B|236:252|192:224,1,90,8|0,0:0|0:0,0:0:0
120,180,99931,1,0,0:0:0
108,92,100097,1,0,0:0:0
168,24,100264,1,8,0:0:0
256,12,100431,6,0,B|256:192,1,180
348,192,100931,2,0,B|348:100,1,90,8|0,0:0|0:0,0:0:0
164,102,101264,2,0,B|164:192,1,90
256,152,101597,1,8,0:0:0
256,348,101931,6,4,B|208:244|32:272|4:92|128:-40|256:64|256:64|384:-40|508:92|480:272|304:244|281:298,1,1008,4|0,0:0|0:0,0:0:0
256,152,104597,6,0,B|340:120,1,90,8|0,0:0|0:0,0:0:0
416,200,104931,2,0,B|332:232,1,90,8|0,0:0|0:0,0:0:0
180,232,105264,2,0,B|96:200,1,90,8|0,0:0|0:0,0:0:0
172,120,105598,2,0,B|256:152,1,90,8|0,0:0|0:0,0:0:0
256,260,105931,5,8,0:0:0
256,192,116597,6,0,B|276:152,3,45
324,152,116931,2,0,B|356:192,3,45
396,188,117264,2,0,B|424:148,3,45
468,152,117597,2,0,B|492:192,3,45
488,236,117931,21,0,0:0:0
412,284,118097,1,0,0:0:0
324,276,118264,1,0,0:0:0
256,216,118431,1,0,0:0:0
256,128,118597,6,0,B|256:36,1,90
164,28,118931,2,0,B|164:120,1,90
180,208,119264,2,0,B|212:248|256:268|300:248|332:208,1,180,8|0,0:0|0:0,0:0:0
420,200,119764,1,0,0:0:0
392,288,119931,1,0,0:0:0
324,348,120097,6,0,B|236:348|236:348|160:296,1,180
256,252,120597,2,0,B|344:252|344:252|420:200,1,180
400,112,121097,1,0,0:0:0
316,76,121264,22,0,B|224:64,1,90
248,152,121597,2,0,B|156:152,1,90
188,236,121931,2,0,B|96:256,1,90,8|8,0:0|0:0,0:0:0
88,344,122264,6,0,B|132:360,3,45
176,356,122597,2,0,B|220:340,3,45
256,316,122931,2,0,B|256:228|256:228|204:152,1,180,8|0,0:0|0:0,0:0:0
160,144,123347,6,0,B|120:164,3,45
64,232,123764,1,0,0:0:0
108,312,123931,2,0,B|180:256,1,90
404,312,124264,2,0,B|332:256,1,90
256,212,124597,21,8,0:0:0
260,120,124764,1,0,0:0:0
340,76,124931,1,0,0:0:0
424,100,125097,1,0,0:0:0
452,184,125264,1,0,0:0:0
396,256,125431,6,0,B|344:252|308:212|300:164|324:124,1,180
188,124,125931,2,0,B|212:164|204:212|168:252|116:256,1,180
60,184,126431,5,0,0:0:0
88,100,126598,1,0,0:0:0
172,76,126764,1,0,0:0:0
252,120,126931,1,0,0:0:0
256,212,127098,1,0,0:0:0
184,264,127264,1,8,0:0:0
196,352,127431,22,0,B|240:368,2,45
116,312,127764,1,0,0:0:0
100,224,127931,1,8,0:0:0
164,164,128097,1,0,0:0:0
256,160,128264,2,0,B|324:224,1,90,8|0,0:0|0:0,0:0:0
388,160,128597,6,0,B|256:36,1,180,4|0,0:0|0:0,0:0:0
124,224,129264,2,0,B|256:348,1,180
480,304,129931,6,0,B|456:216|456:216|388:160,1,180,8|0,0:0|0:0,0:0:0
32,80,130597,2,0,B|56:168|56:168|124:224,1,180,0|8,0:0|0:0,0:0:0
256,38,131264,21,0,0:0:0
345,315,131597,1,0,0:0:0
110,144,131931,1,0,0:0:0
401,144,132264,1,0,0:0:0
165,315,132597,5,0,0:0:0
256,38,132931,1,0,0:0:0
345,315,133264,2,0,B|404:336,5,60
448,324,133931,6,0,B|488:296|500:244|484:200|436:172,1,180,4|0,0:0|0:0,0:0:0
256,192,134597,2,0,B|216:164|204:112|220:68|268:40,1,180
444,52,135264,21,8,0:0:0
384,224,135597,1,0,0:0:0
256,352,135931,2,0,B|168:328,1,90
136,216,136264,2,0,B|224:240,1,90,8|0,0:0|0:0,0:0:0
316,168,136597,5,0,0:0:0
140,124,136931,1,0,0:0:0
312,76,137264,1,0,0:0:0
136,32,137597,1,0,0:0:0
224,188,137931,6,0,B|304:232|304:232|392:232|392:232|468:280,2,270,8|0|8,0:0|0:0|0:0,0:0:0
188,104,139097,1,0,0:0:0
256,44,139264,22,0,B|320:20|400:32|452:88|456:160,2,270.000010299683,4|0|8,0:0|0:0|0:0,0:0:0
188,104,140764,1,0,0:0:0
184,196,140931,2,0,B|200:264,1,67.5000025749208
284,228,141264,2,0,B|268:160,1,67.5000025749208
340,108,141597,1,0,0:0:0
428,128,141764,1,0,0:0:0
472,208,141931,6,0,B|428:272|352:244|352:244|304:300|232:268,2,270.000010299683,0|0|8,0:0|0:0|0:0,0:0:0
428,128,143431,1,0,0:0:0
340,108,143597,2,0,B|276:128,1,67.5000025749208
256,40,143931,2,0,B|188:40,1,67.5000025749208
108,84,144264,1,8,0:0:0
76,168,144431,1,0,0:0:0
124,244,144597,6,0,B|220:284|256:244|292:204|388:244,2,270.000010299683,0|0|8,0:0|0:0|0:0,0:0:0
76,168,146097,1,0,0:0:0
108,84,146264,2,0,B|172:60,1,67.5000025749208
256,96,146597,2,0,B|320:120,1,67.5000025749208
376,192,146931,1,0,0:0:0
344,276,147097,1,0,0:0:0
256,304,147264,22,0,B|180:296|132:232|132:156|184:100,2,270.000010299683,0|0|8,0:0|0:0|0:0,0:0:0
344,276,148764,1,0,0:0:0
376,192,148931,2,0,B|376:124,1,67.5000025749208,8|0,0:0|0:0,0:0:0
292,160,149264,2,0,B|292:92,1,67.5000025749208,8|0,0:0|0:0,0:0:0
208,128,149597,2,0,B|208:60,1,67.5000025749208,8|0,0:0|0:0,0:0:0
124,24,149931,6,0,B|124:160|124:160|208:264,2,270.000010299683,0|0|8,0:0|0:0|0:0,0:0:0
216,28,151431,1,0,0:0:0
288,84,151597,2,0,B|296:120|288:160,1,67.5000025749208
208,196,151931,2,0,B|200:232|208:272,1,67.5000025749208
256,340,152264,2,0,B|284:360,3,33.7500012874604
328,356,152597,6,0,B|400:332|440:264|420:184|352:144,2,270.000010299683,0|0|8,0:0|0:0|0:0,0:0:0
236,348,154097,1,0,0:0:0
172,284,154264,1,0,0:0:0
180,192,154431,1,0,0:0:0
248,132,154597,2,0,B|280:120,3,33.7500012874604
328,124,154931,2,0,B|360:148,3,33.7500012874604
400,156,155264,22,0,B|422:88|388:-2|281:-36|196:14|145:99|179:206|269:240|337:218,2,540.000020599366,0|8|8,0:0|0:0|0:0,0:0:0
344,224,158097,5,0,0:0:0
252,216,158264,1,0,0:0:0
180,164,158431,2,0,B|160:76,2,90,8|0|0,0:0|0:0|0:0,0:0:0
256,116,158931,2,0,B|276:28,2,90,8|0|0,0:0|0:0|0:0,0:0:0
348,112,159431,2,0,B|400:36,2,90,8|0|0,0:0|0:0|0:0,0:0:0
304,192,159931,2,0,B|376:244|376:244|468:244,2,180,8|8|8,0:0|0:0|0:0,0:0:0
256,116,160764,5,0,0:0:0
168,96,160931,1,0,0:0:0
84,128,161097,2,0,B|36:204,2,90,8|0|0,0:0|0:0|0:0,0:0:0
156,180,161597,2,0,B|136:268,2,90,8|0|0,0:0|0:0|0:0,0:0:0
240,208,162097,2,0,B|252:300,2,90,8|0|0,0:0|0:0|0:0,0:0:0
256,120,162597,2,0,B|288:84,4,45
256,120,163931,22,0,B|212:200|212:200|132:240,2,180,4|8|0,0:0|0:0|0:0,0:0:0
176,76,164764,1,0,0:0:0
88,96,164931,1,8,0:0:0
32,168,165097,6,0,B|32:260|32:260|84:332,1,180
168,304,165597,2,0,B|116:232|116:232|116:140,1,180,8|0,0:0|0:0,0:0:0
176,76,166097,1,0,0:0:0
256,116,166264,2,0,B|256:296,1,180,8|0,0:0|0:0,0:0:0
332,348,166764,5,0,0:0:0
420,336,166931,2,0,B|468:312|488:272|476:216|436:188,1,180,8|0,0:0|0:0,0:0:0
364,140,167431,1,0,0:0:0
276,152,167597,1,8,0:0:0
232,232,167764,22,0,B|196:264|144:264|96:236|84:192,1,180
172,168,168264,2,0,B|216:156|244:108|244:56|212:20,1,180,8|0,0:0|0:0,0:0:0
172,40,168681,6,0,B|144:76,6,45,0|0|0|0|0|0|0,0:0|0:0|0:0|0:0|0:0|0:0|0:0,0:0:0
212,20,169264,6,0,B|256:2|305:20|341:62|337:108,1,180,4|8,0:0|0:0,0:0:0
176,192,169931,1,0,0:0:0
192,280,170097,1,0,0:0:0
256,340,170264,1,8,0:0:0
320,280,170431,22,0,B|320:224|288:200|256:176|256:116,1,180
340,80,170931,2,0,B|340:140|372:164|404:188|404:244,1,180,8|0,0:0|0:0,0:0:0
348,316,171431,1,0,0:0:0
260,336,171597,1,8,0:0:0
88,276,171931,6,0,B|116:188,1,90
184,248,172264,2,0,B|224:168,1,90,8|0,0:0|0:0,0:0:0
284,236,172597,2,0,B|340:164|340:164|424:136,1,180,0|8,0:0|0:0,0:0:0
496,192,173097,1,0,0:0:0
456,272,173264,6,0,B|380:320,1,90
304,272,173597,2,0,B|356:196,1,90,8|0,0:0|0:0,0:0:0
284,140,173931,2,0,B|196:168,1,90,8|0,0:0|0:0,0:0:0
120,212,174264,2,0,B|100:252,3,45
100,296,174597,22,0,B|172:352|172:352|260:360,1,180,0|8,0:0|0:0,0:0:0
400,244,175264,1,0,0:0:0
364,160,175431,1,0,0:0:0
284,120,175597,1,8,0:0:0
196,132,175764,2,0,B|168:176|172:224|204:260|256:268,1,180
340,240,176264,2,0,B|420:200,1,90,8|0,0:0|0:0,0:0:0
374,120,176597,2,0,B|284:120,1,90
196,132,176931,1,8,0:0:0
132,196,177097,1,0,0:0:0
140,284,177264,6,0,B|196:356,1,90
256,288,177597,2,0,B|256:196,1,90,8|0,0:0|0:0,0:0:0
312,128,177931,1,0,0:0:0
400,128,178097,1,0,0:0:0
460,196,178264,1,8,0:0:0
456,288,178431,2,0,B|388:348|388:348|296:356,1,180
212,336,178931,6,0,B|172:256,1,90,8|0,0:0|0:0,0:0:0
300,336,179264,2,0,B|340:256,1,90
256,192,179597,1,8,0:0:0
344,0,179931,6,4,B|470:66|550:243|446:441|256:491|61:443|-40:243|37:68|165:2,1,1080.00004119873,4|8,0:0|0:0,0:0:0
248,36,182764,5,0,0:0:0
256,124,182931,2,0,B|200:196,1,90,8|0,0:0|0:0,0:0:0
256,264,183264,2,0,B|312:192,1,90,8|0,0:0|0:0,0:0:0
400,184,183597,1,8,0:0:0
464,248,183764,1,0,0:0:0
448,336,183931,6,0,B|412:364,3,45
368,360,184264,2,0,B|332:332,3,45
288,336,184597,2,0,B|256:368,3,45
212,364,184931,2,0,B|172:340,3,45
144,308,185264,6,0,B|176:224|176:224|256:180,2,180,4|8|0,0:0|0:0|0:0,0:0:0
52,308,186097,1,0,0:0:0
12,228,186264,1,8,0:0:0
32,140,186431,2,0,B|112:100|112:100|204:108,1,180
256,180,186931,2,0,B|346:187|346:187|426:147,1,180,8|0,0:0|0:0,0:0:0
436,56,187431,1,0,0:0:0
356,20,187597,2,0,B|268:44,1,90,8|0,0:0|0:0,0:0:0
204,108,187931,22,0,B|180:152|180:200|212:240|256:256,1,180,8|0,0:0|0:0,0:0:0
268,168,188431,2,0,B|282:216|316:250|366:255|409:235,1,180,8|0,0:0|0:0,0:0:0
356,164,188931,2,0,B|400:187|448:188|488:156|504:112,1,180,8|0,0:0|0:0,0:0:0
456,36,189431,5,8,0:0:0
368,32,189597,1,0,0:0:0
292,80,189764,1,0,0:0:0
268,168,189931,2,0,B|268:212,3,45
248,252,190264,2,0,B|216:284,3,45
176,304,190597,6,0,B|108:244|108:244|96:156,2,180,4|8|0,0:0|0:0|0:0,0:0:0
264,328,191431,1,0,0:0:0
336,272,191597,1,8,0:0:0
372,188,191764,22,0,B|400:104|400:104|480:52,1,180
484,144,192264,2,0,B|400:116|400:116|348:36,1,180,8|0,0:0|0:0,0:0:0
260,32,192764,1,0,0:0:0
180,72,192931,2,0,B|180:164|180:164|228:240,1,180,8|0,0:0|0:0,0:0:0
168,308,193431,5,0,0:0:0
80,296,193597,2,0,B|36:216,1,90,8|0,0:0|0:0,0:0:0
128,212,193931,2,0,B|124:120,1,90
208,152,194264,2,0,B|228:64,1,90,8|0,0:0|0:0,0:0:0
304,116,194597,2,0,B|352:40,1,90
400,120,194931,2,0,B|468:60,1,90,8|0,0:0|0:0,0:0:0
508,140,195264,6,0,B|516:184,4,45,0|0|0|0|0,0:0|0:0|0:0|0:0|0:0,0:0:0
