osu file format v11

[General]
AudioFilename: jamie's elsewhere - a slave, a son.mp3
AudioLeadIn: 1500
PreviewTime: 32598
Countdown: 0
SampleSet: Normal
StackLeniency: 0.7
Mode: 0
LetterboxInBreaks: 1

[Editor]
DistanceSpacing: 0.8
BeatDivisor: 4
GridSize: 4

[Metadata]
Title:A Slave, A Son
TitleUnicode:A Slave, A Son
Artist:Jamies Elsewhere
ArtistUnicode:Jamies Elsewhere
Creator:P o M u T a
Version:Slave
Source:
Tags:They Said A Storm Was Coming Saten Saten-san
BeatmapID:183796
BeatmapSetID:59903

[Difficulty]
HPDrainRate:7
CircleSize:4
OverallDifficulty:7
ApproachRate:9
SliderMultiplier:2.6
SliderTickRate:1

[Events]
//Background and Video events
0,0,"bg.jpg"
//Break Periods
2,56797,63998
2,107631,115997
//Storyboard Layer 0 (Background)
//Storyboard Layer 1 (Fail)
//Storyboard Layer 2 (Pass)
//Storyboard Layer 3 (Foreground)
//Storyboard Sound Samples
//Background Colour Transformations
3,100,163,162,255

[TimingPoints]
598,333.333333333333,4,1,1,30,1,0
3264,-100,4,1,1,40,0,0
5931,-100,4,1,1,50,0,0
8597,-100,4,1,1,60,0,0
32597,-100,4,1,2,80,0,1
48597,-133.333333333333,4,1,2,70,0,1
51264,-100,4,1,2,80,0,1
56597,-100,4,1,2,80,0,0
64597,-133.333333333333,4,1,1,60,0,0
75264,-100,4,1,1,60,0,0
85931,-100,4,1,2,80,0,1
101931,-133.333333333333,4,1,2,70,0,1
104597,-133.333333333333,4,1,2,80,0,1
107264,-100,4,1,2,60,0,0
139264,-133.333333333333,4,1,2,60,0,0
157931,-100,4,1,1,60,0,0
163931,333.333333333333,4,1,2,80,1,1
179930,-133.333333333333,4,1,2,70,0,1
182597,-100,4,1,2,80,0,1
195597,-100,4,1,2,80,0,0

[Colours]
Combo1 : 255,62,62
Combo2 : 0,200,0
Combo3 : 170,170,255
Combo4 : 0,64,128

[HitObjects]
84,92,598,2,0,B|84:197|84:197|144:161|160:157|160:157|172:161|220:189,1,260,0|8,0:0|0:0,0:0:0
332,260,1097,1,0,0:0:0
456,300,1264,2,0,B|476:248|444:216|444:216|468:184,2,130,0|0|8,0:0|0:0|0:0,0:0:0
352,220,1764,2,0,B|340:149|412:117,2,130
160,220,2264,2,0,B|171:149|99:117,2,130,8|0|0,0:0|0:0|0:0,0:0:0
256,220,2764,2,0,B|256:88,2,130,0|8|0,0:0|0:0|0:0,0:0:0
256,348,3264,6,0,B|324:364|324:364|381:347,1,130
504,260,3597,2,0,B|436:244|436:244|378:260,1,130,8|0,0:0|0:0,0:0:0
328,140,3931,2,0,B|392:160|392:160|452:140,2,130,0|0|8,0:0|0:0|0:0,0:0:0
184,140,4431,2,0,B|120:160|120:160|60:140,2,130,0|0|0,0:0|0:0|0:0,0:0:0
256,248,4931,2,0,B|256:116,2,130,8|0|0,0:0|0:0|0:0,0:0:0
192,360,5431,2,0,B|256:368|256:368|320:359,2,130,0|8|0,0:0|0:0|0:0,0:0:0
408,304,5931,5,4,0:0:0
464,216,6097,1,0,0:0:0
464,216,6181,1,0,0:0:0
464,216,6264,1,8,0:0:0
380,156,6431,2,0,B|315:156,2,65
436,68,6764,2,0,B|500:68,2,65,0|0|8,0:0|0:0|0:0,0:0:0
332,68,7097,2,0,B|267:68,2,65
436,68,7431,5,0,0:0:0
436,68,7514,1,0,0:0:0
436,68,7597,1,8,0:0:0
380,156,7764,1,0,0:0:0
380,156,7847,1,0,0:0:0
380,156,7931,1,0,0:0:0
380,260,8097,2,0,B|380:325,2,65,0|0|8,0:0|0:0|0:0,0:0:0
380,156,8431,1,0,0:0:0
332,64,8597,5,0,0:0:0
308,56,8681,1,0,0:0:0
284,48,8764,1,0,0:0:0
260,40,8847,1,0,0:0:0
232,44,8931,1,8,0:0:0
208,52,9014,1,0,0:0:0
184,60,9097,1,0,0:0:0
160,68,9181,1,0,0:0:0
136,80,9264,1,0,0:0:0
120,100,9347,1,0,0:0:0
104,120,9431,1,0,0:0:0
88,140,9514,1,0,0:0:0
72,160,9597,5,8,0:0:0
72,184,9681,1,0,0:0:0
72,208,9764,1,0,0:0:0
72,232,9847,1,0,0:0:0
72,256,9931,2,0,B|40:296|40:296|68:332|25:362,2,130,8|0|0,0:0|0:0|0:0,0:0:0
176,256,10431,2,0,B|208:296|208:296|180:332|222:362,2,130,8|0|0,0:0|0:0|0:0,0:0:0
292,316,10931,1,8,0:0:0
256,64,11264,6,0,B|308:56|308:56|324:84|324:84|362:107,1,130
440,288,11598,2,0,B|388:296|388:296|372:268|372:268|333:244,1,130,8|0,0:0|0:0,0:0:0
256,64,11931,2,0,B|204:56|204:56|188:84|188:84|150:107,1,130
72,288,12264,2,0,B|124:296|124:296|140:268|140:268|179:244,1,130,8|0,0:0|0:0,0:0:0
328,316,12598,6,0,B|328:252|328:252|390:232,2,130,0|0|8,0:0|0:0|0:0,0:0:0
184,68,13098,2,0,B|184:132|184:132|121:151,2,130
256,192,13598,1,8,0:0:0
84,284,13931,6,0,B|128:320|128:320|164:332|198:312,1,130
428,100,14264,2,0,B|384:64|384:64|348:52|314:72,1,130
428,284,14598,2,0,B|384:320|384:320|348:332|314:312,1,130
84,100,14931,2,0,B|128:64|128:64|164:52|198:72,1,130
256,240,15264,6,0,B|320:228|320:228|384:240,2,130,0|0|8,0:0|0:0|0:0,0:0:0
256,240,15764,2,0,B|192:252|192:252|128:240,2,130
256,172,16264,1,8,0:0:0
256,148,16348,1,0,0:0:0
256,124,16431,1,0,0:0:0
256,97,16514,1,0,0:0:0
256,73,16598,6,0,B|316:77|316:77|320:41|360:29,1,130
428,308,16931,2,0,B|384:300|384:300|356:324|356:324|309:312,1,130,8|0,0:0|0:0,0:0:0
84,316,17264,2,0,B|130:327|130:327|158:303|158:303|202:311,1,130,8|0,0:0|0:0,0:0:0
256,174,17598,2,0,B|232:126|232:126|256:102|256:102|256:59,1,130
256,60,17931,6,0,B|296:60|296:60|316:80|316:80|336:60|336:60|369:60,2,130,0|0|8,0:0|0:0|0:0,0:0:0
256,60,18431,2,0,B|216:60|216:60|196:80|196:80|176:60|176:60|142:60,2,130
256,192,18931,1,8,0:0:0
256,324,19097,1,0,0:0:0
180,76,19264,6,0,B|140:60|140:60|104:72|104:72|64:44,1,130
320,96,19597,2,0,B|360:112|360:112|396:100|396:100|436:128,1,130,8|0,0:0|0:0,0:0:0
332,308,19931,2,0,B|372:324|372:324|408:312|408:312|448:340,1,130,8|0,0:0|0:0,0:0:0
192,288,20264,2,0,B|152:272|152:272|116:284|116:284|76:256,1,130
256,268,20597,5,0,0:0:0
280,260,20681,1,0,0:0:0
304,252,20764,1,0,0:0:0
328,244,20847,1,0,0:0:0
352,232,20931,1,8,0:0:0
376,220,21014,1,0,0:0:0
400,208,21097,1,0,0:0:0
420,192,21181,1,0,0:0:0
436,172,21264,5,0,0:0:0
448,148,21347,1,0,0:0:0
452,124,21431,1,0,0:0:0
448,100,21514,1,0,0:0:0
436,76,21597,1,8,0:0:0
420,56,21681,1,0,0:0:0
396,44,21764,1,0,0:0:0
372,36,21847,1,0,0:0:0
348,32,21931,6,0,B|308:52|308:52|268:52|268:52|229:28,2,130,0|0|0,0:0|0:0|0:0,0:0:0
80,192,22431,2,0,B|144:200|144:200|168:184|208:192,2,130
440,312,22931,2,0,B|400:304|376:320|376:320|312:312,2,130,0|0|0,0:0|0:0|0:0,0:0:0
72,312,23431,6,0,B|112:304|136:320|136:320|200:312,2,130
256,128,23931,2,0,B|232:72|232:72|168:48,1,130,8|0,0:0|0:0,0:0:0
256,256,24264,2,0,B|280:312|280:312|344:336,1,130,8|0,0:0|0:0,0:0:0
40,280,24597,6,0,B|98:240|98:240|114:182,1,130
280,80,24931,1,8,0:0:0
460,156,25097,1,0,0:0:0
356,320,25264,1,0,0:0:0
168,268,25431,1,0,0:0:0
137,78,25597,2,0,B|156:144|156:144|212:168,1,130,0|0,0:0|0:0,0:0:0
400,224,25931,5,8,0:0:0
316,48,26097,1,0,0:0:0
284,240,26264,1,0,0:0:0
460,324,26431,1,0,0:0:0
256,324,26597,1,0,0:0:0
224,324,26681,1,0,0:0:0
192,324,26764,1,0,0:0:0
160,324,26847,1,0,0:0:0
128,324,26931,1,8,0:0:0
36,44,27264,5,0,0:0:0
68,44,27347,1,0,0:0:0
100,44,27431,1,0,0:0:0
180,44,27597,1,8,0:0:0
256,120,27764,2,0,B|320:120,2,65
400,120,28097,1,8,0:0:0
136,196,28264,5,8,0:0:0
168,196,28347,1,0,0:0:0
200,196,28431,1,0,0:0:0
280,196,28597,1,8,0:0:0
16,272,28764,2,0,B|84:272,2,65,0|0|8,0:0|0:0|0:0,0:0:0
160,272,29097,1,8,0:0:0
340,276,29264,2,0,B|392:320|392:320|453:328,1,130,8|0,0:0|0:0,0:0:0
340,108,29597,2,0,B|392:64|392:64|453:55,1,130,8|0,0:0|0:0,0:0:0
312,192,29931,6,0,B|247:192,2,65
116,192,30264,1,8,0:0:0
312,192,30431,2,0,B|376:192,2,65
116,192,30764,1,0,0:0:0
312,192,30931,2,0,B|312:256,2,65,8|0|0,0:0|0:0|0:0,0:0:0
312,112,31264,5,0,0:0:0
308,88,31347,1,0,0:0:0
296,64,31431,1,0,0:0:0
272,52,31514,1,0,0:0:0
248,48,31597,1,8,0:0:0
224,48,31681,1,0,0:0:0
200,56,31764,5,0,0:0:0
180,72,31847,1,0,0:0:0
164,92,31931,1,0,0:0:0
156,116,32014,1,0,0:0:0
156,140,32097,1,0,0:0:0
156,164,32181,1,0,0:0:0
156,192,32264,1,8,0:0:0
404,300,32597,6,0,B|456:248|451:183,1,130
268,116,32931,2,0,B|320:168|385:163,1,130,8|0,0:0|0:0,0:0:0
200,228,33264,1,0,0:0:0
200,32,33431,1,0,0:0:0
24,120,33597,2,0,B|160:168|156:344|156:344|176:172|324:196,2,520,8|8|8,0:0|0:0|0:0,0:0:0
328,364,35264,6,0,B|360:316|360:316|380:308|380:308|430:304,1,130
412,108,35597,2,0,B|460:140|460:140|468:160|468:160|471:210,1,130,8|0,0:0|0:0,0:0:0
360,52,35931,1,0,0:0:0
172,104,36097,1,0,0:0:0
360,152,36264,2,0,B|336:204|259:228,1,130,8|0,0:0|0:0,0:0:0
124,376,36597,6,0,B|72:352|47:275,3,130,0|0|8|0,0:0|0:0|0:0|0:0,0:0:0
44,198,37264,1,0,0:0:0
44,160,37347,1,0,0:0:0
52,128,37431,1,0,0:0:0
68,100,37514,1,0,0:0:0
88,76,37597,1,8,0:0:0
116,56,37681,1,0,0:0:0
148,44,37764,1,0,0:0:0
180,36,37847,1,0,0:0:0
212,28,37931,6,0,B|276:12|340:28,1,130,0|0,0:0|0:0,0:0:0
440,196,38264,2,0,B|376:212|311:195,1,130,8|0,0:0|0:0,0:0:0
128,128,38597,2,0,B|192:112|256:128,1,130
356,296,38931,2,0,B|292:312|227:295,1,130,8|0,0:0|0:0,0:0:0
348,140,39264,6,0,B|417:107|417:107|429:55,2,130,0|0|8,0:0|0:0|0:0,0:0:0
164,244,39764,2,0,B|94:276|94:276|82:328,2,130
256,192,40264,1,8,0:0:0
256,192,40348,1,0,0:0:0
256,192,40431,1,0,0:0:0
128,44,40598,6,0,B|256:44,1,130
368,204,40931,2,0,B|372:248|372:248|340:268|340:268|372:304,2,130,8|0|0,0:0|0:0|0:0,0:0:0
240,352,41431,1,0,0:0:0
68,260,41598,2,0,B|44:196|75:133,1,130,8|0,0:0|0:0,0:0:0
256,60,41931,5,0,0:0:0
400,192,42098,1,0,0:0:0
112,192,42264,1,8,0:0:0
256,324,42431,1,0,0:0:0
400,192,42598,5,8,0:0:0
204,192,42764,1,0,0:0:0
400,192,42931,1,8,0:0:0
204,192,43098,1,0,0:0:0
52,72,43264,6,0,B|120:72|176:39,1,130
48,188,43598,1,8,0:0:0
200,308,43764,1,0,0:0:0
396,312,43931,2,0,B|452:264|452:264|463:209,1,130
348,364,44264,2,0,B|212:316|216:140|216:140|196:312|48:288,2,520,8|8|8,0:0|0:0|0:0,0:0:0
44,120,45931,6,0,B|88:68|88:68|148:52,2,130,0|0|8,0:0|0:0|0:0,0:0:0
44,264,46431,2,0,B|88:316|88:316|148:332,2,130
224,192,46931,1,8,0:0:0
224,192,47098,2,0,B|356:192,2,130
44,264,47598,5,8,0:0:0
224,192,47764,1,0,0:0:0
44,120,47931,1,8,0:0:0
224,192,48098,1,0,0:0:0
44,192,48264,1,8,0:0:0
224,192,48431,1,0,0:0:0
396,240,48598,6,0,B|404:288|452:273|452:273|438:322|486:307|486:307|472:355,1,195.00000743866,0|8,0:0|0:0,0:0:0
116,144,49264,2,0,B|108:96|60:111|60:111|74:62|26:77|26:77|40:29,1,195.00000743866,0|8,0:0|0:0,0:0:0
116,240,49931,2,0,B|108:288|60:273|60:273|74:322|26:307|26:307|40:355,1,195.00000743866,0|8,0:0|0:0,0:0:0
396,144,50598,2,0,B|404:96|452:111|452:111|438:62|486:77|486:77|472:29,1,195.00000743866,0|8,0:0|0:0,0:0:0
186,192,51264,5,0,0:0:0
326,192,51431,1,0,0:0:0
181,117,51598,1,8,0:0:0
330,266,51764,1,0,0:0:0
219,56,51931,1,0,0:0:0
292,326,52098,1,0,0:0:0
300,22,52264,1,8,0:0:0
210,361,52431,1,0,0:0:0
126,326,52598,5,0,0:0:0
105,309,52681,1,0,0:0:0
88,288,52764,1,0,0:0:0
66,266,52848,1,0,0:0:0
75,240,52931,1,8,0:0:0
83,214,53014,1,0,0:0:0
75,189,53098,1,0,0:0:0
66,163,53181,1,0,0:0:0
88,141,53264,5,0,0:0:0
105,120,53348,1,0,0:0:0
126,103,53431,1,0,0:0:0
152,94,53514,1,0,0:0:0
182,94,53598,1,8,0:0:0
208,94,53681,1,0,0:0:0
234,94,53764,1,0,0:0:0
264,94,53848,1,0,0:0:0
256,192,53931,12,4,56597,0:0:0
387,291,64598,6,0,B|288:264|197:305,1,195.00000743866
160,316,65098,1,0,0:0:0
124,304,65264,2,0,B|151:204|110:113,1,195.00000743866
100,76,65764,1,0,0:0:0
84,40,65931,5,0,0:0:0
164,40,66264,1,0,0:0:0
240,40,66598,2,0,B|336:40,2,97.50000371933
240,80,67098,1,0,0:0:0
240,120,67264,6,0,B|288:132|336:119,1,97.50000371933
364,148,67598,2,0,B|352:196|364:244,1,97.50000371933
336,272,67931,2,0,B|288:260|239:272,1,97.50000371933,0|0,0:0|0:0,0:0:0
212,244,68264,2,0,B|224:196|211:147,1,97.50000371933
188,115,68598,6,0,B|80:144|75:256,1,195.00000743866
76,296,69098,1,0,0:0:0
152,296,69431,1,0,0:0:0
152,296,69598,1,0,0:0:0
228,300,69931,6,0,B|272:324|321:300,1,97.50000371933
356,280,70264,2,0,B|380:236|356:186,1,97.50000371933
322,168,70598,2,0,B|278:144|228:167,1,97.50000371933,0|0,0:0|0:0,0:0:0
194,186,70931,2,0,B|170:230|193:279,1,97.50000371933
228,300,71264,5,0,0:0:0
264,316,71431,1,0,0:0:0
304,324,71598,1,0,0:0:0
344,316,71764,1,0,0:0:0
380,300,71931,2,0,B|476:300,2,97.50000371933
380,300,72431,1,0,0:0:0
256,192,72598,12,0,74598,0:0:0
404,68,75264,6,0,B|437:191,1,130
466,302,75598,1,8,0:0:0
296,104,75764,6,0,B|296:232,1,130
296,347,76098,1,8,0:0:0
216,104,76264,6,0,B|216:232,1,130
216,347,76598,1,8,0:0:0
108,68,76764,6,0,B|74:191,1,130
46,302,77098,1,8,0:0:0
216,347,77264,6,0,B|216:216,1,130
296,37,77598,2,0,B|296:168,1,130,8|0,0:0|0:0,0:0:0
456,280,77931,5,0,0:0:0
420,88,78098,1,0,0:0:0
420,88,78264,1,8,0:0:0
268,208,78431,5,0,0:0:0
92,124,78597,1,0,0:0:0
92,124,78764,1,8,0:0:0
284,88,78931,5,0,0:0:0
448,192,79097,1,0,0:0:0
448,192,79264,1,8,0:0:0
308,328,79431,5,0,0:0:0
140,228,79597,1,0,0:0:0
140,228,79764,1,8,0:0:0
140,32,79931,5,0,0:0:0
172,32,80014,1,0,0:0:0
204,32,80097,1,0,0:0:0
236,32,80181,1,0,0:0:0
268,32,80264,1,8,0:0:0
400,32,80597,6,0,B|464:32,4,65,0|0|0|0|8,0:0|0:0|0:0|0:0|0:0,0:0:0
112,96,81097,2,0,B|47:96,4,65,0|0|0|0|8,0:0|0:0|0:0|0:0|0:0,0:0:0
400,160,81597,2,0,B|465:160,4,65,0|0|0|0|8,0:0|0:0|0:0|0:0|0:0,0:0:0
112,224,82097,6,0,B|47:224,4,65,0|0|0|0|8,0:0|0:0|0:0|0:0|0:0,0:0:0
400,288,82597,2,0,B|465:288,4,65,0|0|0|0|8,0:0|0:0|0:0|0:0|0:0,0:0:0
40,136,83264,6,0,B|104:136,4,65,0|0|0|0|8,0:0|0:0|0:0|0:0|0:0,0:0:0
40,200,83764,2,0,B|104:200,4,65,0|0|0|0|8,0:0|0:0|0:0|0:0|0:0,0:0:0
36,264,84264,2,0,B|101:264,2,65,8|0|0,0:0|0:0|0:0,0:0:0
180,264,84597,5,0,0:0:0
212,268,84681,1,0,0:0:0
244,272,84764,1,0,0:0:0
276,280,84847,1,0,0:0:0
308,288,84931,1,8,0:0:0
340,280,85014,1,0,0:0:0
372,272,85097,5,0,0:0:0
404,268,85181,1,0,0:0:0
436,264,85264,1,0,0:0:0
436,232,85347,1,0,0:0:0
436,200,85431,1,0,0:0:0
436,168,85514,1,0,0:0:0
436,136,85597,1,8,0:0:0
32,112,85931,6,0,B|72:64|148:63,1,130,4|0,0:0|0:0,0:0:0
320,160,86264,2,0,B|272:120|271:43,1,130,8|0,0:0|0:0,0:0:0
240,236,86597,1,0,0:0:0
372,92,86764,1,0,0:0:0
456,268,86931,2,0,B|332:276|332:276|200:356|200:356|144:236|144:236|36:228,2,520,8|8|8,0:0|0:0|0:0,0:0:0
68,156,88597,6,0,B|52:92|66:27,1,130
260,92,88931,2,0,B|196:108|131:93,1,130,8|0,0:0|0:0,0:0:0
312,164,89264,1,0,0:0:0
172,28,89431,1,0,0:0:0
348,112,89597,2,0,B|412:96|476:110,1,130,8|0,0:0|0:0,0:0:0
428,300,89931,5,0,0:0:0
236,332,90097,1,0,0:0:0
72,228,90264,1,8,0:0:0
108,36,90431,1,0,0:0:0
304,40,90597,1,0,0:0:0
336,44,90681,1,0,0:0:0
368,52,90764,1,0,0:0:0
396,68,90847,1,0,0:0:0
420,88,90931,1,8,0:0:0
440,116,91014,1,0,0:0:0
452,148,91097,1,0,0:0:0
460,180,91181,1,0,0:0:0
468,212,91264,6,0,B|484:276|468:340,1,130,0|0,0:0|0:0,0:0:0
284,276,91597,2,0,B|268:212|284:148,1,130,8|0,0:0|0:0,0:0:0
137,275,91931,2,0,B|73:256|26:210,1,130,0|0,0:0|0:0,0:0:0
173,83,92264,2,0,B|236:102|284:148,1,130,8|0,0:0|0:0,0:0:0
408,192,92597,6,0,B|408:125|408:125|473:119,2,130,0|0|8,0:0|0:0|0:0,0:0:0
104,192,93097,2,0,B|104:259|104:259|38:264,2,130,0|0|0,0:0|0:0|0:0,0:0:0
256,196,93597,1,8,0:0:0
256,196,93681,1,0,0:0:0
256,196,93764,1,0,0:0:0
104,316,93931,6,0,B|232:316,1,130
164,132,94264,2,0,B|92:124|40:160,2,130,8|0|0,0:0|0:0|0:0,0:0:0
104,316,94764,1,0,0:0:0
296,344,94931,2,0,B|368:352|420:316,1,130,8|0,0:0|0:0,0:0:0
464,124,95264,5,0,0:0:0
296,224,95431,1,0,0:0:0
332,32,95597,1,8,0:0:0
164,132,95764,1,0,0:0:0
360,132,95931,1,8,0:0:0
360,328,96097,1,0,0:0:0
164,68,96264,1,8,0:0:0
164,264,96431,1,0,0:0:0
360,256,96597,6,0,B|436:260|468:316,1,130
276,348,96931,1,8,0:0:0
92,284,97097,1,0,0:0:0
212,132,97264,2,0,B|142:140|142:140|96:179,1,130,0|0,0:0|0:0,0:0:0
144,368,97597,2,0,B|231:256|275:144|275:144|299:256|490:245,2,520,8|8|8,0:0|0:0|0:0,0:0:0
440,116,99264,6,0,B|408:60|408:60|345:40,2,130,0|0|8,0:0|0:0|0:0,0:0:0
72,116,99764,2,0,B|104:60|104:60|166:40,2,130
256,192,100264,1,8,0:0:0
72,268,100431,6,0,B|104:324|104:324|166:343,2,130
440,268,100931,2,0,B|408:324|408:324|345:343,2,130,8|0|0,0:0|0:0|0:0,0:0:0
256,192,101431,1,0,0:0:0
256,192,101597,2,0,B|256:64,1,130,8|0,0:0|0:0,0:0:0
112,40,101931,6,0,B|44:40|44:40|44:81|44:145|25:166,1,195.00000743866,0|8,0:0|0:0,0:0:0
400,40,102597,2,0,B|467:40|467:40|467:81|467:145|486:166,1,195.00000743866,0|8,0:0|0:0,0:0:0
400,344,103264,2,0,B|467:344|467:344|467:302|467:238|486:217,1,195.00000743866,0|8,0:0|0:0,0:0:0
112,344,103931,2,0,B|44:344|44:344|44:302|44:238|26:219,1,195.00000743866,0|8,0:0|0:0,0:0:0
256,80,104597,5,0,0:0:0
424,48,104764,1,0,0:0:0
476,192,104931,1,8,0:0:0
424,336,105097,1,0,0:0:0
256,304,105264,1,0,0:0:0
88,336,105431,1,0,0:0:0
36,192,105597,1,8,0:0:0
88,48,105764,1,0,0:0:0
256,192,105931,12,4,107264,0:0:0
256,192,107431,5,4,0:0:0
256,192,116597,12,0,117931,0:0:0
88,292,118264,5,0,0:0:0
144,256,118431,1,0,0:0:0
200,292,118597,1,0,0:0:0
256,256,118764,1,0,0:0:0
312,292,118931,1,0,0:0:0
364,256,119097,1,0,0:0:0
415,296,119264,6,0,B|492:260|492:199,1,130,8|0,0:0|0:0,0:0:0
364,52,119597,1,0,0:0:0
504,188,119764,1,0,0:0:0
356,60,119931,2,0,B|272:53|242:105,1,130
156,280,120264,2,0,B|119:203|59:203,1,130
44,140,120597,5,0,0:0:0
100,104,120764,1,0,0:0:0
156,140,120931,1,0,0:0:0
212,104,121097,1,0,0:0:0
268,140,121264,1,0,0:0:0
320,104,121431,1,0,0:0:0
372,140,121597,2,0,B|384:200|464:220,1,130
364,52,121931,5,8,0:0:0
312,240,122097,1,0,0:0:0
120,240,122264,2,0,B|56:240,2,65,8|8|8,0:0|0:0|0:0,0:0:0
312,316,122597,2,0,B|376:316,2,65,8|8|8,0:0|0:0|0:0,0:0:0
256,128,122931,1,8,0:0:0
152,48,123264,5,0,0:0:0
124,60,123347,1,0,0:0:0
100,84,123431,1,0,0:0:0
80,112,123514,1,0,0:0:0
68,140,123597,1,0,0:0:0
60,204,123764,2,0,B|60:336,2,130
124,204,124264,2,0,B|252:204,1,130
320,204,124597,6,0,B|284:240|284:240|284:272|284:272|317:305,1,130,8|0,0:0|0:0,0:0:0
428,144,124931,2,0,B|464:108|464:108|464:76|464:76|430:42,1,130
236,36,125264,1,0,0:0:0
48,88,125431,1,0,0:0:0
236,136,125597,1,0,0:0:0
48,188,125764,1,0,0:0:0
48,252,125931,6,0,B|112:248|176:264,1,130
180,200,126264,2,0,B|168:264|229:312,1,130
172,344,126597,2,0,B|304:344,1,130
300,280,126931,2,0,B|428:280,1,130
464,88,127264,5,8,0:0:0
276,36,127431,1,8,0:0:0
276,36,127514,1,8,0:0:0
276,36,127597,1,8,0:0:0
84,72,127764,1,0,0:0:0
280,52,127931,1,8,0:0:0
88,88,128097,1,0,0:0:0
284,68,128264,2,0,B|344:100|344:100|344:162,1,130,8|0,0:0|0:0,0:0:0
256,192,128597,12,0,130931,0:0:0
408,240,131264,6,0,B|380:296|380:296|320:328,1,130
396,148,131597,2,0,B|452:176|452:176|484:236,1,130,8|0,0:0|0:0,0:0:0
316,136,131931,2,0,B|344:80|344:80|404:48,1,130
312,220,132264,2,0,B|256:192|256:192|224:132,1,130,8|0,0:0|0:0,0:0:0
332,296,132597,6,0,B|200:288|200:288|94:215,1,260,0|8,0:0|0:0,0:0:0
184,164,133097,1,0,0:0:0
192,60,133264,2,0,B|148:52|148:52|108:64,5,86.6666666666667,8|0|8|0|8|0,0:0|0:0|0:0|0:0|0:0|0:0,0:0:0
108,64,133931,6,0,B|64:125|104:185,1,130
299,264,134264,2,0,B|340:204|296:144,1,130,8|0,0:0|0:0,0:0:0
484,84,134597,2,0,B|440:144|480:205,1,130
296,144,134931,2,0,B|337:83|293:23,1,130,8|0,0:0|0:0,0:0:0
108,64,135264,6,0,B|68:120|68:120|88:176,1,130
312,244,135597,2,0,B|256:284|256:284|198:264,1,130,8|0,0:0|0:0,0:0:0
388,316,135931,1,0,0:0:0
240,192,136097,1,0,0:0:0
388,316,136264,1,8,0:0:0
240,192,136431,1,0,0:0:0
388,316,136597,6,0,B|420:251|387:191,1,130
388,68,136931,2,0,B|420:132|387:192,1,130,8|0,0:0|0:0,0:0:0
308,192,137264,1,0,0:0:0
240,192,137431,1,0,0:0:0
172,192,137597,1,8,0:0:0
104,192,137764,1,0,0:0:0
256,192,137931,12,0,138931,0:0:0
451,191,139264,6,0,B|288:220|256:228|224:220|66:192,2,390.00001487732
444,112,140764,5,0,0:0:0
444,112,140931,2,0,B|348:92,1,97.50000371933
300,84,141264,2,0,B|200:84,1,97.50000371933
152,92,141597,2,0,B|56:112,1,97.50000371933
60,192,141931,6,0,B|224:221|256:229|288:221|445:192,2,390.00001487732
64,288,143431,6,0,B|160:308,1,97.50000371933,0|8,0:0|0:0,0:0:0
256,320,143764,1,8,0:0:0
448,288,143931,2,0,B|352:308,2,97.50000371933,8|8|8,0:0|0:0|0:0,0:0:0
431,191,144597,6,0,B|352:128|256:116|156:128|68:191,2,390.00001487732
460,284,146097,5,0,0:0:0
372,240,146264,2,0,B|324:216|278:238,2,97.50000371933
324,324,146764,1,0,0:0:0
232,292,146931,2,0,B|180:312|136:292,1,97.50000371933
68,191,147264,6,0,B|156:128|256:116|352:128|431:191,2,390.00001487732
56,288,148764,5,0,0:0:0
56,288,148931,1,8,0:0:0
252,288,149264,2,0,B|348:288,1,97.50000371933,8|0,0:0|0:0,0:0:0
445,192,149597,2,0,B|348:192,1,97.50000371933,8|0,0:0|0:0,0:0:0
256,144,149931,5,0,0:0:0
200,64,150097,1,0,0:0:0
104,64,150264,1,0,0:0:0
52,144,150431,1,0,0:0:0
52,240,150597,1,0,0:0:0
104,320,150764,1,0,0:0:0
200,320,150931,1,0,0:0:0
256,240,151097,1,0,0:0:0
352,192,151264,6,0,B|424:260,1,97.50000371933
352,192,151597,2,0,B|424:124,1,97.50000371933
292,192,151931,1,0,0:0:0
276,192,152014,1,0,0:0:0
260,192,152097,1,0,0:0:0
244,192,152181,1,0,0:0:0
228,192,152264,1,0,0:0:0
212,192,152347,1,0,0:0:0
196,192,152431,1,0,0:0:0
180,192,152514,1,0,0:0:0
164,192,152597,6,0,B|164:96,1,97.50000371933
164,192,152931,2,0,B|164:289,1,97.50000371933
78,337,153264,2,0,B|164:290,1,97.50000371933
249,336,153597,2,0,B|164:289,1,97.50000371933
164,192,153931,6,0,B|68:192,1,97.50000371933
164,192,154264,2,0,B|260:192,1,97.50000371933
164,192,154597,1,0,0:0:0
164,176,154681,1,0,0:0:0
164,160,154764,1,0,0:0:0
164,144,154847,1,0,0:0:0
164,128,154931,1,0,0:0:0
164,112,155014,1,0,0:0:0
164,96,155097,1,0,0:0:0
164,80,155181,1,0,0:0:0
164,56,155264,6,0,B|216:44,1,48.750001859665
236,40,155431,2,0,B|288:40,1,48.750001859665,0|0,0:0|0:0,0:0:0
308,40,155597,2,0,B|352:56,1,48.750001859665
376,68,155764,2,0,B|400:112,1,48.750001859665
412,132,155931,2,0,B|412:180,1,48.750001859665
408,204,156097,2,0,B|384:248,1,48.750001859665
372,268,156264,2,0,B|324:272,1,48.750001859665
300,272,156431,2,0,B|252:272,1,48.750001859665
228,272,156597,5,0,0:0:0
204,268,156681,1,0,0:0:0
180,260,156764,1,0,0:0:0
156,248,156847,1,0,0:0:0
136,236,156931,1,0,0:0:0
116,220,157014,1,0,0:0:0
100,200,157097,1,0,0:0:0
88,180,157181,1,0,0:0:0
76,160,157264,1,0,0:0:0
68,136,157348,1,0,0:0:0
64,112,157431,1,0,0:0:0
60,88,157514,1,0,0:0:0
60,64,157598,1,0,0:0:0
64,40,157681,1,0,0:0:0
80,20,157764,1,0,0:0:0
224,52,157931,5,8,0:0:0
224,200,158098,1,0,0:0:0
352,125,158264,1,0,0:0:0
120,127,158431,5,8,0:0:0
195,257,158598,1,0,0:0:0
268,127,158764,1,0,0:0:0
70,246,158931,5,8,0:0:0
198,320,159098,1,0,0:0:0
198,171,159264,5,0,0:0:0
198,171,159431,2,0,B|327:171,2,130,0|8|0,0:0|0:0|0:0,0:0:0
60,32,159931,1,0,0:0:0
196,172,160098,1,0,0:0:0
388,204,160264,1,8,0:0:0
196,172,160431,1,0,0:0:0
344,44,160598,6,0,B|472:44,1,130,8|0,0:0|0:0,0:0:0
280,44,160931,1,0,0:0:0
388,204,161098,2,0,B|388:332,1,130,8|0,0:0|0:0,0:0:0
388,140,161431,1,0,0:0:0
280,300,161598,2,0,B|216:320|216:320|156:300,1,130,8|0,0:0|0:0,0:0:0
76,120,161931,6,0,B|112:76|112:76|180:48,2,130,0|0|8,0:0|0:0|0:0,0:0:0
256,192,162431,1,0,0:0:0
76,120,162598,1,0,0:0:0
64,156,162681,1,0,0:0:0
52,192,162764,1,0,0:0:0
64,228,162848,1,0,0:0:0
76,264,162931,1,8,0:0:0
448,148,163931,6,0,B|380:124|360:60,1,130,4|0,0:0|0:0,0:0:0
308,248,164264,2,0,B|240:272|220:336,1,130,8|0,0:0|0:0,0:0:0
260,144,164597,1,0,0:0:0
420,32,164764,1,0,0:0:0
224,28,164931,2,0,B|92:84|56:216|56:216|136:324|276:332,2,520,8|8|8,0:0|0:0|0:0,0:0:0
20,360,166597,6,0,B|84:344|148:360,1,130
308,248,166931,2,0,B|244:264|180:248,1,130,8|0,0:0|0:0,0:0:0
344,356,167264,1,0,0:0:0
180,248,167431,1,0,0:0:0
336,368,167597,1,8,0:0:0
192,236,167764,1,0,0:0:0
380,196,167931,6,0,B|432:224|432:224|480:276,2,130,0|0|8,0:0|0:0|0:0,0:0:0
212,96,168431,1,0,0:0:0
32,172,168597,1,0,0:0:0
36,204,168681,1,0,0:0:0
44,236,168764,1,0,0:0:0
60,264,168847,1,0,0:0:0
80,288,168931,1,8,0:0:0
108,308,169014,1,0,0:0:0
140,320,169097,1,0,0:0:0
172,328,169181,1,0,0:0:0
204,336,169264,6,0,B|268:352|332:336,1,130,0|0,0:0|0:0,0:0:0
480,208,169597,2,0,B|416:192|352:208,1,130,8|0,0:0|0:0,0:0:0
224,60,169931,2,0,B|208:124|224:188,1,130,0|0,0:0|0:0,0:0:0
352,336,170264,2,0,B|368:272|352:208,1,130,8|0,0:0|0:0,0:0:0
160,248,170597,6,0,B|136:316|136:316|76:316,2,130,0|0|8,0:0|0:0|0:0,0:0:0
160,136,171097,2,0,B|136:68|136:68|76:68,2,130
256,192,171597,1,8,0:0:0
256,192,171681,1,0,0:0:0
256,192,171764,1,0,0:0:0
396,56,171931,6,0,B|396:116|464:160,1,130,0|0,0:0|0:0,0:0:0
312,284,172264,2,0,B|380:268|380:268|440:284,2,130,8|0|0,0:0|0:0|0:0,0:0:0
120,320,172764,1,0,0:0:0
120,320,172931,2,0,B|88:264|88:264|140:224,1,130,8|0,0:0|0:0,0:0:0
308,124,173264,5,0,0:0:0
140,224,173431,1,0,0:0:0
332,192,173597,1,8,0:0:0
140,224,173764,1,0,0:0:0
328,276,173931,1,8,0:0:0
140,224,174097,1,0,0:0:0
284,356,174264,1,8,0:0:0
140,224,174431,1,0,0:0:0
36,60,174597,6,0,B|92:32|161:28,1,130
344,96,174931,1,8,0:0:0
156,148,175097,1,0,0:0:0
24,292,175264,2,0,B|88:284|88:284|156:292,1,130
348,312,175597,2,0,B|480:256|516:124|516:124|436:16|293:12,2,520,8|8|8,0:0|0:0|0:0,0:0:0
68,40,177264,6,0,B|128:28|128:28|196:40,2,130,0|0|8,0:0|0:0|0:0,0:0:0
196,188,177764,2,0,B|136:200|136:200|68:188,2,130
376,112,178264,1,8,0:0:0
452,292,178431,5,0,0:0:0
256,296,178597,1,0,0:0:0
92,192,178764,1,0,0:0:0
288,192,178931,1,8,0:0:0
452,84,179097,1,0,0:0:0
256,84,179264,1,8,0:0:0
420,192,179431,1,0,0:0:0
224,192,179597,2,0,B|92:192,1,130,8|0,0:0|0:0,0:0:0
164,64,179931,6,0,B|108:80|104:132,1,97.50000371933
348,64,180264,2,0,B|404:80|408:132,1,97.50000371933
164,320,180597,2,0,B|108:304|104:252,1,97.50000371933
348,320,180931,2,0,B|404:304|408:252,1,97.50000371933
304,148,181264,6,0,B|404:148,1,97.50000371933
208,236,181597,2,0,B|108:236,1,97.50000371933
300,240,181931,2,0,B|300:340,1,97.50000371933
212,144,182264,2,0,B|212:44,1,97.50000371933
84,192,182597,5,0,0:0:0
428,192,182764,1,0,0:0:0
170,192,182931,1,8,0:0:0
342,192,183097,1,0,0:0:0
256,192,183264,2,0,B|256:324,1,130
256,192,183597,2,0,B|256:60,1,130,8|0,0:0|0:0,0:0:0
60,64,183931,5,0,0:0:0
52,88,184014,1,0,0:0:0
44,112,184097,1,0,0:0:0
36,136,184181,1,0,0:0:0
36,164,184264,1,8,0:0:0
36,188,184347,1,0,0:0:0
36,212,184431,1,0,0:0:0
36,240,184514,1,0,0:0:0
36,264,184597,5,0,0:0:0
44,288,184681,1,0,0:0:0
52,312,184764,1,0,0:0:0
60,336,184847,1,0,0:0:0
84,336,184931,1,8,0:0:0
112,332,185014,1,0,0:0:0
136,324,185097,1,0,0:0:0
160,312,185181,1,0,0:0:0
180,296,185264,6,0,B|212:240|212:240|276:228,1,130
468,256,185597,2,0,B|436:312|436:312|372:324,1,130,8|0,0:0|0:0,0:0:0
336,132,185931,1,0,0:0:0
144,168,186097,1,0,0:0:0
308,60,186264,2,0,B|368:40|368:40|432:60,2,130,8|0|0,0:0|0:0|0:0,0:0:0
204,60,186764,2,0,B|144:40|144:40|80:60,2,130,0|8|0,0:0|0:0|0:0,0:0:0
256,248,187264,1,0,0:0:0
440,184,187431,1,0,0:0:0
264,272,187597,1,8,0:0:0
424,160,187764,1,0,0:0:0
264,272,187931,6,0,B|184:328|184:328|152:316|152:316|124:328|124:328|44:272,1,260,0|8,0:0|0:0,0:0:0
156,100,188431,2,0,B|236:44|236:44|268:56|268:56|296:44|296:44|376:100,1,260
376,296,188931,2,0,B|296:352|296:352|264:340|264:340|236:352|236:352|156:296,1,260,8|0,0:0|0:0,0:0:0
24,152,189431,6,0,B|4:88|4:88|24:28,2,130,0|8|0,0:0|0:0|0:0,0:0:0
196,60,189931,1,0,0:0:0
220,64,190014,1,0,0:0:0
244,72,190097,1,0,0:0:0
268,80,190181,1,0,0:0:0
292,92,190264,1,8,0:0:0
316,104,190347,1,0,0:0:0
340,120,190431,1,0,0:0:0
360,136,190514,1,0,0:0:0
380,156,190597,6,0,B|416:212|396:280,1,130,0|0,0:0|0:0,0:0:0
204,236,190931,2,0,B|260:200|328:220,1,130,8|0,0:0|0:0,0:0:0
156,128,191264,2,0,B|100:164|32:144,1,130
148,300,191597,2,0,B|204:336|272:316,1,130,8|0,0:0|0:0,0:0:0
468,316,191931,6,0,B|468:384,2,65
284,252,192264,1,8,0:0:0
432,124,192431,1,0,0:0:0
252,52,192597,2,0,B|188:52,2,65
432,124,192931,1,8,0:0:0
284,252,193097,1,0,0:0:0
88,248,193264,6,0,B|84:304|84:304|152:336,1,130
424,248,193597,2,0,B|428:304|428:304|360:336,1,130,8|0,0:0|0:0,0:0:0
424,136,193931,2,0,B|428:80|428:80|360:48,1,130
88,136,194264,2,0,B|84:80|84:80|152:48,1,130,8|0,0:0|0:0,0:0:0
88,248,194597,5,0,0:0:0
424,136,194764,1,0,0:0:0
424,248,194931,1,8,0:0:0
88,136,195097,1,0,0:0:0
256,192,195264,1,0,0:0:0
256,224,195347,1,0,0:0:0
256,256,195431,1,0,0:0:0
256,288,195514,1,0,0:0:0
256,320,195597,1,12,0:0:0
