osu file format v11

[General]
AudioFilename: jamie's elsewhere - a slave, a son.mp3
AudioLeadIn: 1500
PreviewTime: 32597
Countdown: 0
SampleSet: Normal
StackLeniency: 0.7
Mode: 0
LetterboxInBreaks: 1

[Editor]
Bookmarks: 45931
DistanceSpacing: 1
BeatDivisor: 4
GridSize: 4

[Metadata]
Title:A Slave, A Son
TitleUnicode:A Slave, A Son
Artist:Jamies Elsewhere
ArtistUnicode:Jamies Elsewhere
Creator:P o M u T a
Version:Cruel
Source:
Tags:They Said A Storm Was Coming Saten Saten-san
BeatmapID:182157
BeatmapSetID:59903

[Difficulty]
HPDrainRate:4
CircleSize:3
OverallDifficulty:4
ApproachRate:5
SliderMultiplier:0.799999999999999
SliderTickRate:1

[Events]
//Background and Video events
0,0,"bg.jpg"
//Break Periods
2,56798,68731
2,107464,115397
//Storyboard Layer 0 (Background)
//Storyboard Layer 1 (Fail)
//Storyboard Layer 2 (Pass)
//Storyboard Layer 3 (Foreground)
//Storyboard Sound Samples
//Background Colour Transformations
3,100,163,162,255

[TimingPoints]
598,333.333333333333,4,1,1,30,1,0
1931,-100,4,1,1,40,0,0
3264,-100,4,1,1,50,0,0
4597,-100,4,1,1,60,0,0
32597,-100,4,1,2,80,0,1
48597,-100,4,1,2,70,0,1
51264,-100,4,1,2,80,0,1
56597,-100,4,1,2,80,0,0
75264,-100,4,1,1,60,0,0
85931,-100,4,1,2,80,0,1
101931,-100,4,1,2,70,0,1
104597,-100,4,1,2,80,0,1
107264,-100,4,1,2,60,0,0
157931,-100,4,1,1,60,0,0
158597,-100,4,1,1,90,0,0
163931,333.333333333333,4,1,2,80,1,1
179930,-100,4,1,2,70,0,1
182597,-100,4,1,2,80,0,1
184514,-100,4,2,1,80,0,1
184680,-100,4,1,2,80,0,1
195597,-100,4,1,2,80,0,0

[Colours]
Combo1 : 255,62,62
Combo2 : 0,200,0
Combo3 : 170,170,255
Combo4 : 0,64,128

[HitObjects]
180,116,598,6,0,B|256:152|334:116,1,160,0|8,0:0|0:0,0:0:0
484,60,1931,2,0,B|519:138|483:214,1,160,0|8,0:0|0:0,0:0:0
360,316,3264,6,0,B|324:237|360:161,1,160,0|8,0:0|0:0,0:0:0
216,92,4597,2,0,B|251:170|215:246,1,160,0|8,0:0|0:0,0:0:0
64,300,5931,6,0,B|34:242|64:184,2,120,8|8|8,0:0|0:0|0:0,0:0:0
136,264,7264,2,0,B|166:206|136:148,2,120,8|8|8,0:0|0:0|0:0,0:0:0
256,192,8597,12,0,10597,0:0:0
296,232,11264,6,0,B|360:240|408:272,2,120,4|8|8,0:0|0:0|0:0,0:0:0
296,152,12598,2,0,B|360:144|408:112,2,120,8|8|8,0:0|0:0|0:0,0:0:0
216,152,13931,6,0,B|152:144|104:112,2,120,4|8|8,0:0|0:0|0:0,0:0:0
216,232,15264,2,0,B|152:240|104:272,2,120,8|8|8,0:0|0:0|0:0,0:0:0
288,268,16598,6,0,B|328:268,2,40,0|0|8,0:0|0:0|0:0,0:0:0
312,192,17264,2,0,B|352:192,2,40,0|0|8,0:0|0:0|0:0,0:0:0
336,116,17931,2,0,B|376:116,2,40,0|0|8,0:0|0:0|0:0,0:0:0
360,40,18598,2,0,B|400:40,2,40,0|0|8,0:0|0:0|0:0,0:0:0
280,40,19264,6,0,B|240:20|204:40,1,79.9999999999999,0|8,0:0|0:0,0:0:0
168,112,19931,2,0,B|204:132|244:112,1,79.9999999999999,0|8,0:0|0:0,0:0:0
280,40,20597,1,0,0:0:0
344,88,20931,1,8,0:0:0
392,152,21264,2,0,B|432:152,2,40,0|0|8,0:0|0:0|0:0,0:0:0
340,212,21931,6,0,B|340:296,2,79.9999999999999,0|8|0,0:0|0:0|0:0,0:0:0
268,176,22931,2,0,B|268:96,2,79.9999999999999,8|0|8,0:0|0:0|0:0,0:0:0
220,240,23931,1,8,0:0:0
156,288,24264,1,8,0:0:0
84,324,24597,6,0,B|4:324,2,79.9999999999999,0|8|0,0:0|0:0|0:0,0:0:0
156,288,25597,2,0,B|236:288,2,79.9999999999999,8|0|8,0:0|0:0|0:0,0:0:0
92,240,26597,1,0,0:0:0
48,172,26931,1,8,0:0:0
24,96,27264,6,0,B|24:12,2,79.9999999999999,4|8|0,0:0|0:0|0:0,0:0:0
104,96,28264,2,0,B|104:16,2,79.9999999999999,8|0|8,0:0|0:0|0:0,0:0:0
168,144,29264,1,0,0:0:0
248,132,29597,1,8,0:0:0
328,120,29931,6,0,B|408:120,2,79.9999999999999,0|8|0,0:0|0:0|0:0,0:0:0
256,156,30931,1,8,0:0:0
184,192,31264,2,0,B|100:192,2,79.9999999999999,0|8|0,0:0|0:0|0:0,0:0:0
256,336,32597,6,0,B|224:304|144:284|68:304|29:330,2,240,4|8|4,0:0|0:0|0:0,0:0:0
256,176,35264,2,0,B|217:202|141:222|61:202|29:170,2,240,0|8|0,0:0|0:0|0:0,0:0:0
380,76,37931,6,0,B|444:128|467:206,1,160
420,272,38931,1,8,0:0:0
372,336,39264,2,0,B|308:284|284:205,1,160
208,64,40598,6,0,B|263:32|323:60,2,120,0|0|8,0:0|0:0|0:0,0:0:0
160,128,41931,2,0,B|124:200,1,79.9999999999999,0|8,0:0|0:0,0:0:0
48,224,42598,2,0,B|84:296,1,79.9999999999999,0|8,0:0|0:0,0:0:0
148,344,43264,6,0,B|228:352|308:344,1,160
384,320,44264,2,0,B|412:288|428:252|440:212|432:172|412:124|390:99,1,240,8|0,0:0|0:0,0:0:0
276,212,45931,6,0,B|196:220|116:212,1,160
68,148,46931,2,0,B|128:96|128:96|205:72,2,160,8|8|8,0:0|0:0|0:0,0:0:0
44,224,48597,6,0,P|84:293,1,79.9999999999999,0|8,0:0|0:0,0:0:0
153,252,49264,2,0,P|113:182,1,79.9999999999999,0|8,0:0|0:0,0:0:0
182,143,49931,2,0,P|221:212,1,79.9999999999999,0|8,0:0|0:0,0:0:0
291,173,50597,2,0,P|251:103,1,79.9999999999999,0|8,0:0|0:0,0:0:0
188,52,51264,5,0,0:0:0
124,100,51598,1,8,0:0:0
124,180,51931,1,0,0:0:0
188,228,52264,1,8,0:0:0
268,228,52598,2,0,B|388:228,2,120,0|0|8,0:0|0:0|0:0,0:0:0
256,192,53931,12,4,56598,0:0:0
256,192,69931,12,0,74598,0:0:0
296,280,75264,6,0,B|380:280,2,79.9999999999999,4|8|0,0:0|0:0|0:0,0:0:0
216,280,76264,2,0,B|136:280,2,79.9999999999999,8|0|8,0:0|0:0|0:0,0:0:0
256,212,77264,2,0,B|256:132,1,79.9999999999999,0|8,0:0|0:0,0:0:0
216,64,77931,6,0,B|132:64,2,79.9999999999999,4|8|0,0:0|0:0|0:0,0:0:0
296,64,78931,2,0,B|376:64,2,79.9999999999999,8|0|8,0:0|0:0|0:0,0:0:0
256,132,79931,2,0,B|256:212,1,79.9999999999999,0|8,0:0|0:0,0:0:0
256,292,80597,6,0,B|316:308|374:292,1,120
256,292,81597,2,0,B|196:276|137:291,1,120,8|0,0:0|0:0,0:0:0
68,192,82597,1,0,0:0:0
68,192,82931,1,8,0:0:0
148,192,83264,6,0,B|227:191|227:191|256:163,1,120
364,108,84264,2,0,B|284:108|284:108|255:79,1,120,8|0,0:0|0:0,0:0:0
140,48,85264,2,0,B|88:48,2,40,0|0|8,0:0|0:0|0:0,0:0:0
220,48,85931,6,0,B|348:60|435:143,2,240,4|0|4,0:0|0:0|0:0,0:0:0
220,208,88597,2,0,B|92:220|4:303,2,240,0|8|0,0:0|0:0|0:0,0:0:0
376,248,91264,6,0,B|432:176|376:100,1,160
308,60,92264,1,8,0:0:0
304,140,92597,2,0,B|284:220|195:246,1,160
116,224,93597,1,0,0:0:0
48,180,93931,6,0,B|64:120|130:102,2,120,0|0|8,0:0|0:0|0:0,0:0:0
116,224,95264,2,0,B|188:264,1,79.9999999999999,0|8,0:0|0:0,0:0:0
240,321,95931,2,0,B|312:281,1,79.9999999999999,0|8,0:0|0:0,0:0:0
340,208,96597,6,0,B|272:192|272:144|214:113,1,160,4|0,0:0|0:0,0:0:0
140,84,97597,2,0,B|48:168,2,120,8|0|0,0:0|0:0|0:0,0:0:0
212,48,98931,1,8,0:0:0
292,44,99264,6,0,B|372:24|450:43,1,160
452,124,100264,2,0,B|372:144|293:124,2,160,8|0|8,0:0|0:0|0:0,0:0:0
460,204,101931,6,0,B|400:256,1,79.9999999999999,0|8,0:0|0:0,0:0:0
320,256,102597,2,0,B|268:196,1,79.9999999999999,0|8,0:0|0:0,0:0:0
224,128,103264,1,0,0:0:0
160,80,103597,1,8,0:0:0
80,80,103931,1,0,0:0:0
16,128,104264,1,8,0:0:0
256,192,104597,12,4,107264,0:0:0
216,192,116597,6,0,B|136:192,2,79.9999999999999,0|8|8,0:0|0:0|0:0,0:0:0
296,192,117597,1,8,0:0:0
256,124,117931,6,0,B|224:76|192:72,1,79.9999999999999,0|8,0:0|0:0,0:0:0
120,52,118597,1,0,0:0:0
120,52,118931,1,8,0:0:0
72,116,119264,2,0,B|72:196,1,79.9999999999999,0|8,0:0|0:0,0:0:0
72,276,119931,2,0,B|128:276,1,40
216,216,120597,6,0,B|260:216,1,40,0|0,0:0|0:0,0:0:0
360,156,121264,1,0,0:0:0
360,156,121597,1,8,0:0:0
400,224,121931,2,0,B|440:224,2,40,0|0|8,0:0|0:0|0:0,0:0:0
320,224,122597,2,0,B|276:224,2,40,0|0|8,0:0|0:0|0:0,0:0:0
360,292,123264,6,0,B|320:332|292:332,1,79.9999999999999,0|8,0:0|0:0,0:0:0
212,332,123931,1,0,0:0:0
132,332,124264,1,8,0:0:0
52,332,124597,2,0,B|52:252,1,79.9999999999999,0|8,0:0|0:0,0:0:0
52,172,125264,2,0,B|52:120,1,40
156,72,125931,6,0,B|156:112,1,40
156,232,126597,2,0,B|236:232,1,79.9999999999999,0|8,0:0|0:0,0:0:0
316,232,127264,2,0,B|396:200,1,79.9999999999999,0|8,0:0|0:0,0:0:0
456,156,127931,2,0,B|500:172,2,40,0|0|8,0:0|0:0|0:0,0:0:0
256,192,128597,12,0,133264,0:0:0
394,274,133931,6,0,B|337:330,1,79.9999999999999,0|8,0:0|0:0,0:0:0
284,272,134597,2,0,B|343:212,1,79.9999999999999,0|8,0:0|0:0,0:0:0
281,161,135264,2,0,B|224:217,1,79.9999999999999,0|8,0:0|0:0,0:0:0
170,158,135931,2,0,B|206:121,2,40,0|0|8,0:0|0:0|0:0,0:0:0
120,220,136597,6,0,B|63:276,1,79.9999999999999,0|8,0:0|0:0,0:0:0
7,220,137264,2,0,B|66:160,1,79.9999999999999,0|8,0:0|0:0,0:0:0
112,100,137931,2,0,B|112:56,2,40,0|0|8,0:0|0:0|0:0,0:0:0
192,100,138597,2,0,B|240:100,2,40,0|0|8,0:0|0:0|0:0,0:0:0
152,168,139264,6,0,B|208:264|350:287,1,240,0|8,0:0|0:0,0:0:0
320,360,140597,2,0,B|416:304|439:161,1,240,0|8,0:0|0:0,0:0:0
512,192,141931,6,0,B|456:96|313:73,1,240,0|8,0:0|0:0,0:0:0
232,72,143264,2,0,B|89:95|33:191,1,240,0|8,0:0|0:0,0:0:0
80,256,144597,6,0,B|164:340,2,120,0|0|8,0:0|0:0|0:0,0:0:0
136,199,145931,2,0,B|220:114,2,120,0|0|8,0:0|0:0|0:0,0:0:0
132,280,147264,6,0,B|172:284|212:280,1,79.9999999999999,0|8,0:0|0:0,0:0:0
268,224,147931,2,0,B|308:220|348:224,1,79.9999999999999,0|8,0:0|0:0,0:0:0
420,256,148597,1,0,0:0:0
468,192,148931,1,8,0:0:0
468,112,149264,2,0,B|468:68,2,40,0|0|8,0:0|0:0|0:0,0:0:0
388,120,149931,6,0,B|348:124|308:120,1,79.9999999999999,0|8,0:0|0:0,0:0:0
252,64,150597,2,0,B|212:60|172:64,1,79.9999999999999,0|8,0:0|0:0,0:0:0
116,120,151264,1,0,0:0:0
68,184,151597,1,8,0:0:0
68,264,151931,2,0,B|68:304,2,40,0|0|8,0:0|0:0|0:0,0:0:0
136,224,152597,6,0,B|172:212|214:224,1,79.9999999999999,0|8,0:0|0:0,0:0:0
272,280,153264,2,0,B|308:292|350:281,1,79.9999999999999,0|8,0:0|0:0,0:0:0
408,224,153931,1,0,0:0:0
456,160,154264,1,8,0:0:0
460,80,154597,2,0,B|460:40,2,40,0|0|8,0:0|0:0|0:0,0:0:0
256,192,155264,12,4,157931,0:0:0
336,68,158598,6,0,B|416:68,1,79.9999999999999,0|8,0:0|0:0,0:0:0
416,148,159264,2,0,B|496:148,2,79.9999999999999,0|8|0,0:0|0:0|0:0,0:0:0
416,228,160264,1,8,0:0:0
336,228,160598,6,0,B|336:148,2,79.9999999999999,0|8|0,0:0|0:0|0:0,0:0:0
288,292,161598,2,0,B|208:292,1,79.9999999999999,8|0,0:0|0:0,0:0:0
128,292,162264,2,0,B|48:292,2,79.9999999999999,8|0|8,0:0|0:0|0:0,0:0:0
256,88,163931,6,0,B|128:100|40:184,2,240,4|8|0,0:0|0:0|0:0,0:0:0
256,248,166597,2,0,B|384:236|472:152,2,240,0|8|0,0:0|0:0|0:0,0:0:0
96,228,169264,6,0,B|48:192|48:120,2,120,4|0|8,0:0|0:0|0:0,0:0:0
176,232,170597,2,0,B|256:232,1,79.9999999999999,0|8,0:0|0:0,0:0:0
304,296,171264,2,0,B|384:296,1,79.9999999999999,0|8,0:0|0:0,0:0:0
448,248,171931,6,8,B|504:212|504:148,2,120,0|0|8,0:0|0:0|0:0,0:0:0
368,248,173264,2,0,B|288:248,1,79.9999999999999,0|8,0:0|0:0,0:0:0
240,184,173931,2,0,B|160:184,1,79.9999999999999,0|8,0:0|0:0,0:0:0
80,184,174597,6,0,B|76:124|144:96|148:44,1,160,4|0,0:0|0:0,0:0:0
228,44,175597,2,0,B|280:28|332:60|386:44,2,160,8|8|8,0:0|0:0|0:0,0:0:0
192,116,177264,6,0,B|32:116,1,160
32,196,178264,2,0,B|192:196,2,160,8|8|8,0:0|0:0|0:0,0:0:0
24,276,179931,6,0,B|100:320,1,79.9999999999999,0|8,0:0|0:0,0:0:0
172,316,180597,2,0,B|244:276,1,79.9999999999999,0|8,0:0|0:0,0:0:0
308,232,181264,2,0,B|388:232,1,79.9999999999999,0|8,0:0|0:0,0:0:0
452,184,181931,2,0,B|452:104,1,79.9999999999999,0|8,0:0|0:0,0:0:0
256,192,182597,12,4,184597,0:0:0
164,272,185264,6,0,B|244:272,1,79.9999999999999,4|8,0:0|0:0,0:0:0
324,272,185931,1,0,0:0:0
404,272,186264,2,0,B|424:196|392:188|403:113,2,160,8|8|8,0:0|0:0|0:0,0:0:0
340,320,187931,6,0,B|280:340|222:320,1,120
124,252,188931,2,0,B|104:192|123:134,1,120,8|0,0:0|0:0,0:0:0
220,64,189931,2,0,B|260:64,2,40,0|0|8,0:0|0:0|0:0,0:0:0
140,64,190597,6,0,B|136:104|140:144,1,79.9999999999999,0|8,0:0|0:0,0:0:0
140,224,191264,2,0,B|180:228|220:224,1,79.9999999999999,0|8,0:0|0:0,0:0:0
284,272,191931,2,0,B|324:276|364:272,1,79.9999999999999,0|8,0:0|0:0,0:0:0
444,272,192597,2,0,B|488:272,2,40,0|0|8,0:0|0:0|0:0,0:0:0
404,204,193264,6,0,B|400:164|404:124,1,79.9999999999999,0|8,0:0|0:0,0:0:0
340,76,193931,2,0,B|300:80|260:76,1,79.9999999999999,0|8,0:0|0:0,0:0:0
196,124,194597,2,0,B|200:164|196:204,1,79.9999999999999,0|8,0:0|0:0,0:0:0
260,252,195264,2,0,B|300:252,2,40,0|0|12,0:0|0:0|0:0,0:0:0
