osu file format v14

[General]
AudioFilename: Jamie Lynn Spears - FOLLOW ME.mp3
AudioLeadIn: 2000
PreviewTime: 34033
Countdown: 0
SampleSet: Soft
StackLeniency: 0.3
Mode: 0
LetterboxInBreaks: 0
WidescreenStoryboard: 0

[Editor]
Bookmarks: 347,60346
DistanceSpacing: 0.5
BeatDivisor: 4
GridSize: 4
TimelineZoom: 1

[Metadata]
Title:FOLLOW ME
TitleUnicode:FOLLOW ME
Artist:Jamie Lynn Spears
ArtistUnicode:Jamie Lynn Spears
Creator:Gero
Version:Tough
Source:Zoey 101
Tags:Pacific Coast Academy PCA Britney Bryan Sister Christian Karlsson Pontus Winnberg Henrik Jonback Bloodshy Avant For Morgan Music Dan Dymtrow Nickelodeon Teennick Sitcom Dan Schneider Paul Butcher Sean Flynn Christopher Massey Erin Sanders Matthew Underwood Kristin Herrera Alexa Nikolas Victoria Justice Chase Matthews Lola Martínez Martinez Nicole Bristow Logan Reese Quinn Pensky Dustin Brooks Mark Del Figgalo Michael Barrett Sr Wayne "Firewire" Firewire Gilbert Jock Austin Butler Jack Salvatore Jr Allen Evangelista Roark Critchlow TV Size Version Hanjamon
BeatmapID:714815
BeatmapSetID:208944

[Difficulty]
HPDrainRate:7
CircleSize:4
OverallDifficulty:7
ApproachRate:8
SliderMultiplier:2
SliderTickRate:2

[Events]
//Background and Video events
0,0,"BG.jpg",0,0
Video,0,"Video.avi"
//Break Periods
//Storyboard Layer 0 (Background)
//Storyboard Layer 1 (Fail)
//Storyboard Layer 2 (Pass)
//Storyboard Layer 3 (Foreground)
//Storyboard Sound Samples

[TimingPoints]
347,508.474576271186,4,2,2,70,1,0
919,-100,4,2,1,70,0,0
5685,-100,4,2,5,60,0,0
5813,-100,4,2,1,70,0,0
9753,-100,4,2,5,60,0,0
9880,-100,4,2,1,70,0,0
13821,-100,4,2,5,60,0,0
13948,-100,4,2,1,70,0,0
21957,-100,4,2,5,60,0,0
22084,-100,4,2,1,70,0,0
26024,-100,4,2,5,60,0,0
26152,-100,4,2,1,70,0,0
27550,-100,4,2,5,60,0,0
27677,-100,4,2,1,70,0,0
30092,-100,4,2,5,60,0,0
30219,-100,4,2,1,70,0,0
30855,-100,4,2,1,50,0,0
30982,-100,4,2,1,70,0,0
31872,-100,4,2,1,60,0,0
31999,-100,4,2,1,70,0,0
32380,-100,4,2,1,60,0,0
32508,-100,4,2,1,70,0,0
32889,-100,4,2,1,60,0,0
33016,-100,4,2,1,70,0,0
33143,-100,4,2,1,60,0,0
33270,-100,4,2,1,70,0,0
33652,-100,4,2,1,60,0,0
33779,-100,4,2,1,70,0,0
34160,-100,4,2,1,60,0,0
34287,-100,4,2,1,70,0,0
34669,-100,4,2,1,60,0,0
34796,-100,4,2,1,70,0,0
34923,-83.3333333333333,4,2,1,70,0,1
42931,-83.3333333333333,4,2,1,70,0,0
43058,-83.3333333333333,4,2,1,70,0,1
46109,-83.3333333333333,4,2,5,60,0,1
46236,-83.3333333333333,4,2,1,70,0,1
50177,-83.3333333333333,4,2,5,60,0,1
50304,-83.3333333333333,4,2,1,70,0,1
51067,-83.3333333333333,4,2,1,70,0,0
51194,-83.3333333333333,4,2,1,70,0,1
52211,-83.3333333333333,4,2,5,60,0,1
52338,-83.3333333333333,4,2,1,70,0,1
54245,-83.3333333333333,4,2,5,60,0,1
54372,-83.3333333333333,4,2,1,70,0,1
56914,-83.3333333333333,4,2,1,70,0,0
57041,-83.3333333333333,4,2,1,70,0,1
57169,-83.3333333333333,4,2,1,70,0,0
57296,-83.3333333333333,4,2,1,60,0,0
57804,-83.3333333333333,4,2,1,50,0,0
58313,-83.3333333333333,4,2,1,40,0,0
58821,-83.3333333333333,4,2,1,30,0,0
59330,-83.3333333333333,4,2,1,20,0,0
59838,-83.3333333333333,4,2,1,10,0,0
60346,-83.3333333333333,4,2,10,5,0,0

[Colours]
Combo1 : 249,129,70
Combo2 : 86,168,235
Combo3 : 191,159,227
Combo4 : 166,153,153
Combo5 : 189,163,100
Combo6 : 234,119,171
Combo7 : 111,191,145
Combo8 : 237,234,99

[HitObjects]
136,308,347,6,0,P|87:295|39:308,1,100,2|0,0:0|0:0,0:0:0:0:
208,368,855,2,0,P|256:380|304:368,1,100,2|0,0:0|0:0,0:0:0:0:
376,308,1363,1,2,0:3:0:0:
383,300,1491,1,2,0:3:0:0:
390,292,1618,1,2,0:3:0:0:
336,208,1872,1,2,0:3:0:0:
337,197,2000,1,2,0:3:0:0:
339,186,2127,1,2,0:3:0:0:
252,140,2380,6,0,B|284:88|348:88|348:88|433:88,1,200,4|8,0:0|0:0,0:0:0:0:
496,8,3143,1,0,0:0:0:0:
433,88,3397,2,0,P|468:123|480:176,1,100,2|2,0:0|0:0,0:0:0:0:
332,258,3906,2,0,P|345:210|380:176,1,100,8|0,0:0|0:0,0:0:0:0:
432,260,4414,5,2,0:0:0:0:
380,348,4669,1,0,0:0:0:0:
280,348,4923,2,0,B|244:312|244:312|192:312,1,100,8|0,0:0|0:0,0:0:0:0:
140,228,5431,2,0,B|140:176|100:140|100:140|140:104|140:52,1,200,2|8,0:0|0:0,0:0:0:0:
208,140,6194,1,0,0:0:0:0:
20,188,6448,6,0,P|7:139|20:91,1,100,2|0,0:0|0:0,0:0:0:0:
140,228,6957,2,0,P|152:276|139:324,2,100,8|2|2,0:0|0:0|0:0,0:0:0:0:
104,136,7719,1,2,0:0:0:0:
20,188,7974,1,8,0:0:0:0:
56,280,8228,1,0,0:0:0:0:
228,172,8482,6,0,B|280:148|316:172|324:176|332:180|372:204|420:172,1,200,2|8,0:0|0:0,0:0:0:0:
472,88,9245,1,0,0:0:0:0:
372,88,9499,2,0,B|372:178|372:178|364:196|364:196|364:288,1,200,2|8,0:0|0:0,0:0:0:0:
434,357,10262,1,0,0:0:0:0:
364,286,10516,6,0,P|316:274|268:286,1,100,2|0,0:0|0:0,0:0:0:0:
79,248,11024,2,0,P|127:260|176:248,1,100,8|2,0:0|0:0,0:0:0:0:
176,135,11533,2,0,P|127:123|79:135,1,100,2|2,0:0|0:0,0:0:0:0:
267,97,12041,2,0,P|315:109|364:98,1,100,8|0,0:0|0:0,0:0:0:0:
434,27,12550,5,2,0:0:0:0:
504,97,12804,2,0,L|472:192,1,100,0|8,0:0|0:0,0:0:0:0:
412,272,13313,1,0,0:0:0:0:
344,344,13567,2,0,B|288:344|256:305|256:305|224:344|168:344,1,200,2|8,0:0|0:0,0:0:0:0:
100,272,14330,1,0,0:0:0:0:
199,202,14584,6,0,B|179:166|179:166|179:150|179:150|160:112,1,100,2|0,0:0|0:0,0:0:0:0:
312,202,15092,2,0,B|332:166|332:166|332:150|332:150|352:112,1,100,8|0,0:0|0:0,0:0:0:0:
304,24,15601,2,0,B|256:10|256:10|208:24,1,100,2|2,0:0|0:0,0:0:0:0:
256,112,16109,2,0,B|304:126|304:126|352:112,1,100,8|0,0:0|0:0,0:0:0:0:
416,24,16618,6,0,P|455:112|416:200,1,200,2|8,0:0|0:0,0:0:0:0:
344,268,17380,1,8,0:0:0:0:
414,201,17635,2,0,L|511:233,1,100,8|8,0:0|0:0,0:0:0:0:
455,315,18143,2,0,L|361:284,1,100,8|8,0:0|0:0,0:0:0:0:
352,276,18524,1,8,0:0:0:0:
344,268,18652,5,14,0:0:0:0:
256,204,18906,1,0,0:0:0:0:
168,268,19160,2,0,P|256:308|344:268,1,200,8|2,0:0|0:0,0:0:0:0:
304,108,19923,2,0,P|255:95|207:108,1,100,2|8,0:0|0:0,0:0:0:0:
256,204,20431,1,0,0:0:0:0:
464,164,20685,5,2,0:0:0:0:
471,171,20940,2,0,L|500:68,2,100,0|8|0,0:0|0:0|0:0,0:0:0:0:
468,276,21702,2,0,L|400:88,1,200,2|8,0:0|0:0,0:0:0:0:
316,32,22465,1,0,0:0:0:0:
175,123,22719,6,0,P|175:173|200:216,1,100,2|0,0:0|0:0,0:0:0:0:
312,216,23228,2,0,P|336:173|336:123,1,100,8|2,0:0|0:0,0:0:0:0:
196,32,23736,1,2,0:0:0:0:
256,152,23991,1,0,0:0:0:0:
316,32,24245,1,8,0:0:0:0:
196,32,24499,1,0,0:0:0:0:
312,216,24753,6,0,B|268:232|256:293|256:293|244:232|200:216,1,200,2|8,0:0|0:0,0:0:0:0:
256,132,25516,1,2,0:0:0:0:
340,335,25770,2,0,P|256:381|172:336,1,200,2|8,0:0|0:0,0:0:0:0:
108,260,26533,1,0,0:0:0:0:
52,104,26787,6,0,P|77:56|124:32,1,100,6|0,0:0|0:0,0:0:0:0:
204,80,27296,2,0,L|412:44,1,200,8|2,0:0|0:0,0:0:0:0:
471,116,28058,1,0,0:0:0:0:
400,186,28313,2,0,B|386:234|386:234|400:282,1,100,8|0,0:0|0:0,0:0:0:0:
308,324,28821,5,2,0:0:0:0:
204,324,29075,1,0,0:0:0:0:
112,282,29330,2,0,B|126:234|126:234|112:186,1,100,8|2,0:0|0:0,0:0:0:0:
20,128,29838,2,0,B|48:76|112:76|112:76|200:76,1,200,2|8,0:0|0:0,0:0:0:0:
256,172,30601,1,0,0:0:0:0:
312,76,30855,2,0,B|400:76|400:76|464:76|492:128,1,200,4|8,0:0|0:0,0:0:0:0:
400,186,31618,1,2,0:0:0:0:
304,252,31872,6,0,B|256:267|256:267|208:252,1,100,4|0,0:0|0:0,0:0:0:0:
17,186,32380,2,0,B|65:171|65:171|113:186,1,100,12|0,0:0|0:0,0:0:0:0:
119,178,32762,1,8,0:0:0:0:
126,170,32889,1,4,0:0:0:0:
176,72,33143,2,0,B|204:28|256:17|256:17|308:28|336:72,1,200,12|12,0:0|0:0,0:0:0:0:
400,186,33906,5,8,0:0:0:0:
400,186,34033,1,8,0:0:0:0:
400,186,34160,1,12,0:0:0:0:
256,256,34414,1,8,0:0:0:0:
112,328,34669,1,12,0:0:0:0:
40,192,34923,6,0,P|22:136|40:80,1,119.999996337891,14|0,0:0|0:0,0:0:0:0:
156,48,35431,1,8,0:0:0:0:
272,20,35685,2,0,L|492:136,1,239.999992675781,2|2,0:0|0:0,0:0:0:0:
504,252,36448,1,8,0:0:0:0:
419,336,36702,1,0,0:0:0:0:
196,300,36957,6,0,P|140:282|84:300,1,119.999996337891,2|0,0:0|0:0,0:0:0:0:
280,212,37465,2,0,P|336:230|392:212,2,119.999996337891,8|2|0,0:0|0:0|0:0,0:0:0:0:
192,128,38228,1,0,0:0:0:0:
256,24,38482,1,8,0:0:0:0:
256,24,38609,1,8,0:0:0:0:
256,24,38736,1,8,0:0:0:0:
320,128,38991,6,0,P|256:210|192:128,1,239.999992675781,6|8,0:0|0:0,0:0:0:0:
140,20,39753,2,0,B|256:49|256:49|372:20,1,239.999992675781,2|2,0:0|0:0,0:0:0:0:
476,80,40516,2,0,P|494:136|476:192,1,119.999996337891,8|0,0:0|0:0,0:0:0:0:
404,288,41024,5,10,0:0:0:0:
395,296,41152,1,8,0:0:0:0:
386,304,41279,1,8,0:0:0:0:
268,276,41533,1,10,0:0:0:0:
256,279,41661,1,8,0:0:0:0:
244,281,41787,1,8,0:0:0:0:
126,304,42041,1,10,0:0:0:0:
117,296,42168,1,8,0:0:0:0:
108,288,42296,1,8,0:0:0:0:
116,168,42550,5,10,0:0:0:0:
107,159,42677,1,8,0:0:0:0:
98,150,42804,1,8,0:0:0:0:
89,141,42931,1,8,0:0:0:0:
80,132,43058,5,14,0:0:0:0:
180,68,43313,2,0,P|236:49|292:68,1,119.999996337891,0|8,0:0|0:0,0:0:0:0:
352,172,43821,2,0,P|296:190|240:172,2,119.999996337891,6|2|2,0:0|0:0|0:0,0:0:0:0:
444,92,44584,1,8,0:0:0:0:
508,192,44838,1,0,0:0:0:0:
444,292,45092,6,0,P|388:192|444:92,1,239.999992675781,6|8,0:0|0:0,0:0:0:0:
508,192,45855,2,0,B|396:192|396:192|380:184|380:184|268:184,1,239.999992675781,6|2,0:0|0:0,0:0:0:0:
180,256,46618,1,8,0:0:0:0:
171,264,46745,1,8,0:0:0:0:
162,272,46872,1,8,0:0:0:0:
72,192,47126,6,0,P|54:136|72:80,1,119.999996337891,6|0,0:0|0:0,0:0:0:0:
176,20,47635,1,8,0:0:0:0:
312,128,47889,2,0,B|280:128|256:110|256:110|232:128|200:128,1,119.999996337891,6|2,0:0|0:0,0:0:0:0:
336,20,48397,1,2,0:0:0:0:
439,79,48652,2,0,P|457:135|440:192,1,119.999996337891,8|0,0:0|0:0,0:0:0:0:
312,248,49160,6,0,B|280:248|256:266|256:266|232:248|200:248,1,119.999996337891,6|0,0:0|0:0,0:0:0:0:
256,140,49669,1,8,0:0:0:0:
364,331,49923,2,0,P|256:375|148:332,1,239.999992675781,6|2,0:0|0:0,0:0:0:0:
76,236,50685,5,8,0:0:0:0:
85,227,50812,1,8,0:0:0:0:
94,218,50939,1,8,0:0:0:0:
103,209,51067,1,8,0:0:0:0:
112,200,51194,5,14,0:0:0:0:
196,112,51448,2,0,P|256:112|304:144,1,119.999996337891,0|8,0:0|0:0,0:0:0:0:
256,256,51957,2,0,L|356:28,1,239.999992675781,6|2,0:0|0:0,0:0:0:0:
420,136,52719,2,0,L|371:245,1,119.999996337891,8|0,0:0|0:0,0:0:0:0:
492,244,53228,5,14,0:0:0:0:
497,233,53355,1,8,0:0:0:0:
502,222,53482,1,8,0:0:0:0:
420,136,53736,1,8,0:0:0:0:
344,228,53991,2,0,B|284:236|256:301|256:301|228:236|168:228,1,239.999992675781,6|6,0:0|0:0,0:0:0:0:
92,136,54753,1,14,0:0:0:0:
18,214,55008,1,2,0:0:0:0:
10,222,55262,6,0,L|27:344,2,119.999996337891,6|0|8,0:0|0:0|0:0,0:0:0:0:
96,56,56024,2,0,B|111:156|111:156|107:192|107:192|123:296,1,239.999992675781,6|2,0:0|0:0,0:0:0:0:
256,360,56787,1,8,0:0:0:0:
390,293,57041,5,6,0:0:0:0:
256,192,57169,12,0,60346,0:0:0:0:
