osu file format v14

[General]
AudioFilename: lalalala.mp3
AudioLeadIn: 0
PreviewTime: 6038
Countdown: 0
SampleSet: Soft
StackLeniency: 0.7
Mode: 0
LetterboxInBreaks: 0
WidescreenStoryboard: 0

[Editor]
DistanceSpacing: 1.4
BeatDivisor: 4
GridSize: 8
TimelineZoom: 1

[Metadata]
Title:Lala Lala Song
TitleUnicode:Lala Lala Song
Artist:James S. Levine
ArtistUnicode:James S. Levine
Creator:Auxent
Version:Normal
Source:American Horror Story: Coven
Tags:soundtrack ost byby13 byby_chan
BeatmapID:820359
BeatmapSetID:374470

[Difficulty]
HPDrainRate:4
CircleSize:4
OverallDifficulty:4
ApproachRate:5
SliderMultiplier:1.2
SliderTickRate:1

[Events]
//Background and Video events
0,0,"BG.jpg",0,0
//Break Periods
//Storyboard Layer 0 (Background)
//Storyboard Layer 1 (Fail)
//Storyboard Layer 2 (Pass)
//Storyboard Layer 3 (Foreground)
//Storyboard Sound Samples

[TimingPoints]
6181,571.428571428571,4,2,1,45,1,0
61609,-100,4,2,1,40,0,0
62180,-100,4,2,1,35,0,0
62752,-100,4,2,1,30,0,0
63323,-100,4,2,1,25,0,0
63895,-100,4,2,1,20,0,0
64466,-100,4,2,1,15,0,0
65038,-100,4,2,1,10,0,0
65609,-100,4,2,1,5,0,0

[Colours]
Combo1 : 134,0,0
Combo2 : 128,128,64
Combo3 : 126,82,33

[HitObjects]
83,296,6181,6,0,L|60:222,1,60,6|2,0:0|0:1,0:0:0:0:
112,169,6752,2,0,L|89:95,1,60,8|8,0:0|0:1,0:0:0:0:
153,52,7323,2,0,P|212:72|278:47,1,120,4|0,0:0|0:0,0:0:0:0:
338,98,8180,1,8,0:1:0:0:
397,157,8466,6,0,P|383:207|409:270,2,120,4|8|4,0:0|0:0|0:0,0:0:0:0:
338,98,9895,1,8,0:1:0:0:
266,142,10180,2,0,L|192:148,1,60,8|2,0:0|0:1,0:0:0:0:
135,193,10752,6,0,P|137:226|125:262,1,60,6|2,0:0|0:1,0:0:0:0:
53,217,11323,2,0,P|51:184|63:148,1,60,8|8,0:0|0:1,0:0:0:0:
128,111,11895,1,4,0:0:0:0:
290,68,12466,1,8,0:0:0:0:
368,99,12752,1,8,0:1:0:0:
336,176,13038,6,0,L|335:241,1,60,4|0,0:0|0:0,0:0:0:0:
250,235,13609,2,0,L|250:294,2,60,8|8|4,0:0|0:1|0:0,0:0:0:0:
182,185,14466,1,2,0:1:0:0:
102,212,14752,1,8,0:0:0:0:
29,170,15038,1,2,0:3:0:0:
37,86,15323,6,0,L|170:71,1,120,6|8,0:0|0:0,0:0:0:0:
225,120,16180,1,8,0:1:0:0:
295,166,16466,2,0,L|428:151,1,120,4|0,0:0|0:0,0:0:0:0:
437,319,17609,6,0,L|304:334,1,120,4|8,0:0|0:0,0:0:0:0:
249,285,18466,1,8,0:1:0:0:
179,239,18752,2,0,L|46:254,1,120,4|8,0:0|0:0,0:0:0:0:
10,184,19609,1,8,0:1:0:0:
69,124,19895,6,0,L|48:58,2,60,6|0|8,0:0|0:0|0:0,0:0:0:0:
144,160,20752,1,8,0:1:0:0:
214,113,21038,2,0,L|282:125,1,60,4|2,0:0|0:1,0:0:0:0:
350,90,21609,1,8,0:0:0:0:
425,239,22180,6,0,P|419:297|347:338,1,120,4|8,0:0|0:0,0:0:0:0:
298,295,23038,1,8,0:1:0:0:
218,321,23323,2,0,L|154:319,1,60,4|4,0:0|0:0,0:0:0:0:
109,249,23895,2,0,L|45:247,1,60,8|8,0:0|0:1,0:0:0:0:
20,168,24466,6,0,L|19:41,2,120,6|8|4,0:0|0:0|0:0,0:0:0:0:
182,212,26180,1,8,0:0:0:0:
344,168,26752,6,0,L|343:41,2,120,4|8|4,0:0|0:0|0:0,0:0:0:0:
231,292,28466,2,0,L|161:297,1,60,8|8,0:0|0:1,0:0:0:0:
99,251,29038,6,0,P|145:146|73:28,1,240,6|4,0:0|0:0,0:0:0:0:
13,188,30752,1,8,0:0:0:0:
107,326,31323,6,0,B|176:354|226:313|286:259|342:295,1,240,4|4,0:0|0:0,0:0:0:0:
468,188,33038,1,8,0:0:0:0:
331,92,33609,6,0,P|291:97|261:84,1,60,6|2,0:0|0:1,0:0:0:0:
195,59,34180,2,0,L|143:90,1,60,8|8,0:0|0:1,0:0:0:0:
100,162,34752,2,0,P|116:221|93:285,1,120,4|0,0:0|0:0,0:0:0:0:
260,323,35895,6,0,L|379:312,1,120,4|8,0:0|0:0,0:0:0:0:
446,260,36752,1,8,0:1:0:0:
463,177,37038,1,4,0:0:0:0:
399,122,37323,2,0,P|367:130|330:126,1,60,8|8,0:1|0:0,0:0:0:0:
271,78,37895,1,2,0:3:0:0:
197,118,38180,6,0,L|78:112,2,120,6|8|4,0:0|0:0|0:0,0:0:0:0:
246,186,39609,1,2,0:1:0:0:
299,250,39895,2,0,L|371:256,1,60,8|8,0:0|0:1,0:0:0:0:
435,221,40466,6,0,P|452:168|417:98,2,120,4|8|4,0:0|0:0|0:0,0:0:0:0:
368,168,41895,1,2,0:1:0:0:
293,128,42180,2,0,L|232:130,1,60,8|2,0:0|0:3,0:0:0:0:
186,200,42752,6,0,P|149:226|66:98,1,240,6|4,0:0|0:0,0:0:0:0:
222,74,44466,1,0,0:0:0:0:
385,111,45038,6,0,P|364:217|256:202,1,240,4|4,0:0|0:0,0:0:0:0:
147,74,46752,1,8,0:0:0:0:
69,222,47323,6,0,L|86:301,1,60,6|2,0:0|0:1,0:0:0:0:
147,333,47895,1,8,0:0:0:0:
225,303,48180,1,8,0:1:0:0:
271,232,48467,2,0,L|283:173,1,60,4|2,0:0|0:1,0:0:0:0:
357,133,49038,1,8,0:0:0:0:
427,286,49609,6,0,L|302:296,1,120,4|8,0:0|0:0,0:0:0:0:
229,264,50466,1,8,0:1:0:0:
152,298,50752,2,0,P|115:305|76:292,1,60,4|4,0:0|0:0,0:0:0:0:
116,219,51323,2,0,P|109:182|122:143,1,60,8|8,0:0|0:1,0:0:0:0:
188,122,51895,6,0,L|312:104,2,120,6|8|4,0:0|0:0|0:0,0:0:0:0:
36,195,53609,1,8,0:0:0:0:
178,287,54180,6,0,L|302:305,2,120,4|8|4,0:0|0:0|0:0,0:0:0:0:
94,140,55895,2,0,P|135:134|156:120,1,60,8|8,0:0|0:1,0:0:0:0:
190,50,56466,6,0,B|243:88|233:151|233:151|213:217|268:269,1,240,6|4,0:0|0:0,0:0:0:0:
416,334,58180,1,8,0:0:0:0:
485,181,58752,6,0,P|405:112|315:209,1,240,4|4,0:0|0:0,0:0:0:0:
218,322,60466,1,8,0:0:0:0:
256,192,61038,12,0,65609,0:0:0:0:
