osu file format v9

[General]
AudioFilename: James Harris - Emiya.mp3
AudioLeadIn: 0
PreviewTime: 60611
Countdown: 0
SampleSet: Normal
StackLeniency: 0.7
Mode: 1
LetterboxInBreaks: 0

[Editor]
DistanceSpacing: 1.2
BeatDivisor: 4
GridSize: 4

[Metadata]
Title:Emiya
Artist:James Harris
Creator:Ch1ka
Version:lepidon! - Taiko Oni
Source:Fate/Stay Night
Tags:type-moon ost visual novel ubw lepidopodus [Ryuu] Reiji-RJ

[Difficulty]
HPDrainRate:5
CircleSize:5
OverallDifficulty:6
ApproachRate:5
SliderMultiplier:1.4
SliderTickRate:1

[Events]
//Background and Video events
0,0,"BG.jpg"
//Break Periods
//Storyboard Layer 0 (Background)
//Storyboard Layer 1 (Fail)
//Storyboard Layer 2 (Pass)
//Storyboard Layer 3 (Foreground)
//Storyboard Sound Samples
//Background Colour Transformations
3,100,163,162,255

[TimingPoints]
611,416.666666666667,4,1,1,40,1,0
20506,-100,4,1,1,45,0,0
25506,-100,4,1,1,55,0,0
27173,-100,4,1,1,40,0,0
33840,-100,4,1,1,45,0,0
47173,-100,4,1,1,50,0,0
58736,-100,4,1,1,55,0,0
60611,-100,4,1,1,55,0,1
93944,-100,4,1,1,40,0,0
107277,-100,4,1,1,45,0,0
118736,-100,4,1,1,55,0,0
120611,-100,4,1,1,55,0,1
153944,-100,4,1,1,40,0,0

[Colours]
Combo1 : 182,114,1
Combo2 : 206,83,0
Combo3 : 208,2,2
Combo4 : 205,192,141

[HitObjects]
240,100,13944,1,0
428,176,14152,1,8
468,188,14361,1,0
468,188,14465,1,8
404,272,14673,1,8
428,176,14777,1,0
428,176,14986,1,8
428,176,15194,1,0
376,184,15298,1,8
240,100,15611,1,0
428,176,15819,1,8
468,188,16028,1,0
468,188,16132,1,8
404,272,16340,1,8
428,176,16444,1,0
428,176,16653,1,8
428,176,16861,1,0
376,184,16965,1,8
416,152,17277,1,0
416,152,17486,1,8
416,152,17590,1,8
468,188,17694,1,0
468,188,17798,1,8
408,212,18006,1,8
468,188,18111,1,0
428,176,18319,1,8
468,188,18527,1,0
376,200,18631,1,8
408,212,18840,1,8
428,176,18944,1,0
428,176,19152,1,8
468,188,19361,1,0
428,176,19465,1,8
428,176,19673,1,8
428,176,19777,1,0
376,200,19986,1,8
408,212,20194,1,0
408,212,20298,1,8
448,128,20611,5,8
448,128,20715,1,8
468,188,20819,1,0
468,188,20923,1,0
468,188,21027,1,8
448,128,21236,1,0
428,176,21340,1,8
408,212,21548,1,8
380,332,21652,1,8
416,152,21861,1,8
468,188,21965,1,0
468,188,22069,1,8
376,280,22277,1,8
376,280,22381,1,8
408,212,22486,1,0
376,184,22590,1,8
376,184,22694,1,8
428,176,22902,1,8
468,188,23006,1,0
376,184,23215,1,8
376,184,23319,1,8
368,252,23527,1,0
368,252,23631,1,8
368,252,23736,1,8
276,108,23944,1,0
448,156,24048,1,8
468,188,24152,1,0
428,176,24256,1,8
428,176,24361,1,8
400,224,24569,1,8
400,224,24673,1,8
400,224,24881,1,8
400,224,24986,1,0
448,156,25194,1,8
448,156,25298,1,8
428,176,25402,1,0
284,232,25611,1,0
284,232,25715,1,0
284,232,25819,1,0
284,232,26027,1,0
284,232,26131,1,0
332,128,26236,1,0
332,128,26305,1,0
332,128,26374,1,0
352,300,26444,1,0
352,300,26548,1,0
352,300,26652,1,0
352,300,26861,1,0
352,300,26965,1,0
352,300,27069,1,0
424,160,27277,5,8
424,160,27381,1,0
424,160,27486,1,0
424,160,27590,1,0
436,184,27694,1,8
392,216,27902,1,0
436,184,28006,1,8
336,256,28215,1,0
336,256,28319,1,0
356,136,28527,1,0
424,160,28631,1,8
424,160,28736,1,8
424,160,28944,1,0
424,160,29048,1,8
436,184,29256,1,0
436,184,29361,1,8
392,224,29569,1,8
392,224,29673,1,8
392,224,29881,1,8
392,224,29986,1,8
384,148,30194,1,8
400,176,30298,1,0
380,200,30402,1,8
420,116,30611,1,0
436,184,30715,1,8
400,176,30923,1,8
400,176,31027,1,8
380,200,31236,1,8
392,224,31340,1,8
436,184,31548,1,8
456,212,31652,1,0
420,204,31861,1,8
420,204,31965,1,8
456,212,32069,1,0
400,176,32277,1,8
400,176,32381,1,0
400,176,32590,1,0
400,176,32694,1,0
468,180,32902,1,8
456,212,33006,1,0
456,212,33215,1,0
420,204,33319,1,0
424,152,33527,1,8
420,204,33631,1,0
420,204,33736,1,0
176,144,33944,5,0
176,144,34256,1,0
292,288,34465,1,8
340,184,34777,1,0
340,184,34881,1,0
340,184,34986,1,0
376,204,35298,1,8
340,184,35611,1,8
340,184,35715,1,8
360,164,35923,1,8
428,184,36027,1,0
428,184,36236,1,8
428,184,36340,1,8
428,184,36444,1,0
416,208,36548,1,0
416,208,36652,1,8
428,184,36861,1,8
428,184,36965,1,8
416,208,37069,1,0
160,164,37277,1,0
224,188,37590,1,0
384,172,37798,1,8
428,184,38111,1,0
428,184,38215,1,0
428,184,38319,1,0
360,200,38631,1,8
276,120,38944,1,0
392,136,39048,1,8
392,136,39152,1,8
396,200,39361,1,0
392,280,39569,1,0
456,164,39673,1,8
456,164,39777,1,0
428,184,39881,1,8
428,184,39986,1,8
432,108,40194,1,8
432,108,40298,1,8
384,224,40402,1,0
160,180,40611,5,0
160,180,40923,1,0
352,172,41131,1,8
388,188,41444,1,0
388,188,41548,1,0
388,188,41652,1,0
352,172,41965,1,8
240,104,42277,1,0
448,168,42381,1,8
212,176,42590,1,0
384,152,42694,1,8
384,152,42798,1,8
412,208,42902,1,0
352,116,43111,1,0
352,116,43215,1,0
352,172,43319,1,8
352,172,43527,1,8
352,172,43631,1,8
348,244,43736,1,0
104,116,43944,1,0
104,116,44256,1,0
424,184,44465,1,8
388,192,44777,1,0
388,192,44881,1,0
388,192,44986,1,0
324,200,45298,1,8
448,164,45611,1,8
424,184,45715,1,0
424,184,45819,1,0
424,184,45923,1,8
384,304,46131,1,8
384,304,46340,1,8
368,232,46444,1,0
328,300,46652,1,0
328,300,46861,1,0
328,300,46965,1,0
328,300,47069,1,0
112,128,47277,5,0
408,252,47486,1,8
376,148,47590,1,0
436,168,47798,1,8
408,252,47902,1,8
392,168,48111,1,0
376,148,48215,1,0
376,148,48319,1,8
384,236,48527,1,0
392,168,48631,1,8
392,168,48840,1,8
368,212,48944,1,0
440,140,49152,1,8
436,168,49361,1,0
436,168,49569,1,8
436,168,49777,1,0
392,168,49986,1,8
364,184,50194,1,0
368,212,50298,1,0
412,184,50402,1,8
396,208,50506,1,0
112,128,50611,1,0
408,252,50820,1,8
376,148,50924,1,0
436,168,51132,1,8
408,252,51236,1,8
392,168,51445,1,0
376,148,51549,1,0
376,148,51653,1,8
384,236,51861,1,0
392,168,51965,1,8
392,168,52174,1,8
224,144,52277,1,0
420,144,52381,1,8
436,168,52590,1,8
476,180,52694,1,0
400,204,52902,1,8
400,204,53006,1,0
400,204,53111,1,0
400,204,53215,1,0
308,228,53319,1,8
420,144,53527,1,0
436,168,53631,1,8
400,204,53736,1,0
112,128,53944,5,0
408,252,54153,1,8
376,148,54257,1,0
436,168,54465,1,8
408,252,54569,1,8
392,168,54778,1,0
376,148,54882,1,0
376,148,54986,1,8
384,236,55194,1,0
392,168,55298,1,8
392,168,55507,1,8
224,144,55610,1,0
452,192,55819,1,8
488,200,56027,1,0
452,192,56236,1,8
452,192,56340,1,8
452,192,56444,1,0
424,196,56652,1,8
424,196,56861,1,0
424,196,56965,1,0
452,192,57069,1,8
388,228,57173,1,0
112,128,57277,1,0
408,252,57486,1,8
376,148,57590,1,0
436,168,57798,1,8
408,252,57902,1,8
392,168,58111,1,0
376,148,58215,1,0
376,148,58319,1,8
384,236,58527,1,0
392,168,58631,1,8
392,168,58840,1,8
224,144,58943,1,0
328,156,59048,1,0
436,168,59152,1,8
416,188,59256,1,0
416,188,59361,1,0
416,188,59465,1,0
436,168,59569,1,8
392,168,59673,1,0
392,168,59777,1,0
392,168,59881,1,0
436,168,59986,1,8
436,168,60090,1,0
436,168,60194,1,0
436,168,60298,1,8
436,168,60402,1,8
168,200,60611,5,8
384,264,60819,1,0
384,264,60923,1,0
384,264,61027,1,8
376,304,61236,1,0
436,168,61652,1,0
392,188,61861,1,0
392,188,61965,1,0
392,188,62069,1,8
356,216,62277,1,8
408,220,62381,1,0
376,304,62590,1,0
440,216,62694,1,8
412,268,62902,1,0
304,232,63111,1,0
392,188,63319,1,8
464,184,63527,1,0
356,216,63631,1,0
356,216,63736,1,8
304,88,63944,1,0
376,148,64048,1,8
376,148,64152,1,8
392,288,64361,1,8
424,232,64569,1,8
424,232,64673,1,8
424,232,64777,1,0
412,208,64881,1,8
412,208,64986,1,8
416,164,65194,1,8
416,164,65298,1,8
376,244,65402,1,0
376,104,65611,1,0
456,164,65715,1,8
416,164,65923,1,0
416,164,66027,1,8
376,244,66236,1,8
376,244,66340,1,8
344,252,66444,1,0
412,208,66548,1,0
412,208,66652,1,8
412,208,66861,1,0
412,208,67069,1,0
412,208,67173,1,0
332,128,67277,5,8
412,208,67381,1,0
400,264,67590,1,0
440,136,67694,1,8
376,244,67902,1,0
464,208,68006,1,8
464,208,68111,1,0
464,208,68215,1,8
464,208,68319,1,8
464,208,68527,1,8
464,208,68631,1,0
464,208,68736,1,8
356,160,68944,1,0
480,172,69048,1,8
464,208,69256,1,0
464,208,69361,1,8
464,208,69569,1,8
464,208,69673,1,8
464,208,69777,1,0
464,208,69881,1,8
464,208,69986,1,8
464,208,70194,1,8
464,208,70298,1,8
464,208,70402,1,8
416,140,70611,1,8
496,192,70715,1,0
352,212,70923,1,0
392,180,71027,1,8
404,244,71236,1,0
404,244,71340,1,0
404,244,71444,1,0
464,208,71548,1,8
464,208,71652,1,8
404,212,71861,1,0
404,212,71965,1,0
364,236,72069,1,8
176,188,72277,1,0
176,188,72381,1,0
176,188,72486,1,0
176,188,72694,1,0
176,188,72798,1,0
176,188,72902,1,0
392,180,72972,1,0
392,180,73041,1,0
424,184,73111,1,0
424,184,73215,1,0
424,184,73319,1,0
424,184,73527,1,0
424,184,73631,1,0
424,184,73736,1,0
252,128,73944,5,0
396,224,74048,1,8
324,168,74361,1,0
424,136,74569,1,8
424,136,74673,1,8
456,168,74777,1,0
456,168,74881,1,0
424,184,74986,1,8
424,136,75194,1,0
424,184,75402,1,8
424,184,75506,1,8
396,224,75611,1,0
324,168,75715,1,8
396,224,76027,1,0
408,160,76236,1,8
408,160,76340,1,0
456,168,76444,1,0
324,168,76548,1,0
372,200,76652,1,8
156,180,76861,1,0
156,180,76965,1,0
156,180,77069,1,0
456,120,77277,1,8
408,196,77381,1,0
368,232,77694,1,8
408,160,77902,1,0
456,168,78006,1,8
440,200,78111,1,0
440,200,78215,1,8
440,200,78319,1,8
360,188,78527,1,0
360,188,78631,1,0
360,188,78736,1,0
320,128,78944,1,0
408,160,79048,1,8
360,248,79361,1,8
456,168,79569,1,8
440,200,79673,1,8
432,228,79777,1,0
340,224,79881,1,8
340,224,80090,1,8
392,304,80194,1,0
392,304,80298,1,0
396,260,80402,1,8
356,148,80611,5,8
328,88,80715,1,0
224,120,80923,1,0
308,212,81027,1,8
396,208,81236,1,0
396,208,81340,1,0
396,208,81444,1,0
396,208,81652,1,8
396,208,81861,1,0
308,212,82069,1,8
308,212,82173,1,8
360,232,82277,1,0
360,232,82381,1,8
432,156,82590,1,0
396,208,82694,1,8
396,208,82902,1,8
396,208,83006,1,8
296,240,83111,1,0
396,208,83319,1,8
424,232,83527,1,0
424,232,83631,1,0
400,268,83736,1,8
420,184,83944,1,0
328,176,84048,1,0
396,208,84152,1,8
396,208,84256,1,8
396,208,84361,1,0
396,208,84569,1,8
396,208,84673,1,8
396,208,84777,1,0
396,208,84881,1,0
368,228,84986,1,8
320,252,85090,1,0
420,184,85194,1,8
420,184,85298,1,8
300,236,85402,1,0
156,200,85611,1,0
156,200,85715,1,0
156,200,85819,1,0
156,200,86027,1,0
156,200,86131,1,0
452,160,86236,1,0
352,192,86305,1,0
352,192,86374,1,0
384,188,86444,1,0
352,192,86548,1,0
352,192,86652,1,0
352,192,86861,1,0
352,192,86965,1,0
352,192,87069,1,0
216,156,87277,5,0
216,156,87486,1,0
384,188,87694,1,8
384,188,88111,1,0
372,228,88319,1,8
312,240,88944,1,0
312,240,89048,1,0
312,240,89152,1,0
312,240,89361,1,8
312,240,89569,1,8
372,228,89777,1,0
372,228,89881,1,0
372,228,89986,1,0
432,208,90194,1,8
416,252,90402,1,8
356,216,90611,1,0
356,216,90819,1,0
400,184,91027,1,8
456,176,91444,1,0
420,224,91653,1,8
220,120,92277,1,0
220,120,92381,1,0
220,120,92486,1,0
220,120,92590,1,0
456,176,92694,1,8
456,176,92798,1,0
456,176,92902,1,8
412,192,93006,1,0
412,192,93111,1,0
412,192,93215,1,0
412,192,93319,1,0
412,192,93423,1,0
456,176,93527,1,8
456,176,93631,1,0
456,176,93736,1,8
376,264,93840,1,0
212,272,93944,5,0
368,184,94256,1,0
368,184,94465,1,8
352,204,94777,1,0
352,204,94881,1,0
352,204,94986,1,0
432,200,95298,1,8
408,176,95611,1,0
472,184,95819,1,8
432,200,96027,1,0
432,200,96236,1,8
432,200,96444,1,0
408,176,96652,1,8
432,200,96861,1,0
388,220,97069,1,8
408,176,97173,1,8
408,176,97277,1,0
320,176,97590,1,0
408,176,97798,1,8
408,176,98111,1,0
408,176,98215,1,0
408,176,98319,1,0
408,176,98631,1,8
416,116,98944,1,0
460,172,99152,1,8
444,200,99361,1,0
460,172,99569,1,8
460,172,99777,1,0
460,172,99986,1,8
416,204,100194,1,0
400,172,100402,1,8
400,172,100506,1,8
140,140,100611,5,0
312,228,100819,1,8
312,228,100923,1,0
300,180,101131,1,8
416,204,101444,1,0
416,204,101548,1,0
416,204,101652,1,8
300,180,101861,1,0
460,188,101965,1,8
312,228,102173,1,8
348,144,102277,1,0
440,156,102486,1,8
460,188,102694,1,0
400,168,102902,1,8
460,188,103111,1,0
396,200,103319,1,8
460,188,103527,1,0
428,192,103736,1,8
428,192,103840,1,8
368,256,103944,1,0
400,168,104152,1,0
400,168,104256,1,8
440,216,104361,1,0
428,192,104465,1,0
128,172,104673,1,0
312,176,104777,1,0
312,176,104881,1,0
460,188,104986,1,8
428,192,105194,1,0
440,216,105298,1,8
440,216,105506,1,8
296,100,105611,1,0
400,168,105819,1,0
460,188,105923,1,8
428,192,106027,1,0
460,188,106236,1,0
460,188,106340,1,8
460,188,106444,1,0
460,188,106652,1,0
460,188,106756,1,8
440,216,106861,1,0
440,216,107069,1,0
460,188,107173,1,8
112,128,107277,5,0
408,252,107486,1,8
376,148,107590,1,0
436,168,107798,1,8
408,252,107902,1,8
392,168,108111,1,0
376,148,108215,1,0
376,148,108319,1,8
384,236,108527,1,0
392,168,108631,1,8
392,168,108840,1,8
368,212,108944,1,0
440,140,109152,1,8
436,168,109361,1,0
436,168,109569,1,8
436,168,109777,1,0
392,168,109986,1,8
364,184,110194,1,0
368,212,110298,1,0
412,184,110402,1,8
396,208,110506,1,0
112,128,110611,1,0
408,252,110820,1,8
376,148,110924,1,0
436,168,111132,1,8
408,252,111236,1,8
392,168,111445,1,0
376,148,111549,1,0
376,148,111653,1,8
384,236,111861,1,0
392,168,111965,1,8
392,168,112174,1,8
224,144,112277,1,0
420,144,112381,1,8
436,168,112590,1,8
476,180,112694,1,0
400,204,112902,1,8
400,204,113006,1,0
400,204,113111,1,0
400,204,113215,1,0
308,228,113319,1,8
420,144,113527,1,0
436,168,113631,1,8
400,204,113736,1,0
112,128,113944,5,0
408,252,114153,1,8
376,148,114257,1,0
436,168,114465,1,8
408,252,114569,1,8
392,168,114778,1,0
376,148,114882,1,0
376,148,114986,1,8
384,236,115194,1,0
392,168,115298,1,8
392,168,115507,1,8
224,144,115610,1,0
452,192,115819,1,8
488,200,116027,1,0
452,192,116236,1,8
452,192,116340,1,8
452,192,116444,1,0
424,196,116652,1,8
424,196,116861,1,0
424,196,116965,1,0
452,192,117069,1,8
388,228,117173,1,0
112,128,117277,1,0
408,252,117486,1,8
376,148,117590,1,0
228,252,117694,1,0
436,168,117798,1,8
408,252,117902,1,8
392,168,118111,1,0
376,148,118215,1,0
376,148,118319,1,8
384,236,118527,1,0
392,168,118631,1,8
392,168,118840,1,8
224,144,118943,1,0
328,156,119048,1,0
436,168,119152,1,8
416,188,119256,1,0
416,188,119361,1,0
416,188,119465,1,0
436,168,119569,1,8
392,168,119673,1,0
392,168,119777,1,0
392,168,119881,1,0
436,168,119986,1,8
436,168,120090,1,0
436,168,120194,1,0
436,168,120298,1,8
436,168,120402,1,8
168,200,120611,5,8
384,264,120819,1,0
384,264,120923,1,0
384,264,121027,1,8
376,304,121236,1,0
436,168,121652,1,0
392,188,121861,1,0
392,188,121965,1,0
392,188,122069,1,8
356,216,122277,1,8
408,220,122381,1,0
376,304,122590,1,0
440,216,122694,1,8
412,268,122902,1,0
304,232,123111,1,0
392,188,123319,1,8
464,184,123527,1,0
356,216,123631,1,0
356,216,123736,1,8
304,88,123944,1,0
376,148,124048,1,8
376,148,124152,1,8
392,288,124361,1,8
424,232,124569,1,8
424,232,124673,1,8
424,232,124777,1,0
412,208,124881,1,8
412,208,124986,1,8
416,164,125194,1,8
416,164,125298,1,8
376,244,125402,1,0
376,104,125611,1,0
456,164,125715,1,8
416,164,125923,1,0
416,164,126027,1,8
376,244,126236,1,8
376,244,126340,1,8
344,252,126444,1,0
412,208,126548,1,0
412,208,126652,1,8
412,208,126861,1,0
412,208,127069,1,0
412,208,127173,1,0
332,128,127277,5,8
412,208,127381,1,0
400,264,127590,1,0
440,136,127694,1,8
376,244,127902,1,0
464,208,128006,1,8
464,208,128111,1,0
464,208,128215,1,8
464,208,128319,1,8
464,208,128527,1,8
464,208,128631,1,0
464,208,128736,1,8
356,160,128944,1,0
480,172,129048,1,8
464,208,129256,1,0
464,208,129361,1,8
464,208,129569,1,8
464,208,129673,1,8
464,208,129777,1,0
464,208,129881,1,8
464,208,129986,1,8
464,208,130194,1,8
464,208,130298,1,8
464,208,130402,1,8
416,140,130611,1,8
496,192,130715,1,0
352,212,130923,1,0
392,180,131027,1,8
404,244,131236,1,0
404,244,131340,1,0
404,244,131444,1,0
464,208,131548,1,8
464,208,131652,1,8
404,212,131861,1,0
404,212,131965,1,0
364,236,132069,1,8
176,188,132277,1,0
176,188,132381,1,0
176,188,132486,1,0
176,188,132694,1,0
176,188,132798,1,0
176,188,132902,1,0
392,180,132972,1,0
392,180,133041,1,0
424,184,133111,1,0
424,184,133215,1,0
424,184,133319,1,0
424,184,133527,1,0
424,184,133631,1,0
424,184,133736,1,0
252,128,133944,5,0
396,224,134048,1,8
208,252,134152,1,0
208,252,134256,1,0
324,168,134361,1,0
424,136,134569,1,8
424,136,134673,1,8
456,168,134777,1,0
456,168,134881,1,0
424,184,134986,1,8
424,136,135194,1,0
424,184,135402,1,8
424,184,135506,1,8
396,224,135611,1,0
324,168,135715,1,8
324,336,135819,1,0
324,336,135923,1,0
396,224,136027,1,0
408,160,136236,1,8
408,160,136340,1,0
456,168,136444,1,0
324,168,136548,1,0
372,200,136652,1,8
156,180,136861,1,0
156,180,136965,1,0
156,180,137069,1,0
456,120,137277,1,8
408,196,137381,1,0
384,276,137486,1,0
384,276,137590,1,0
368,232,137694,1,8
408,160,137902,1,0
456,168,138006,1,8
440,200,138111,1,0
440,200,138215,1,8
440,200,138319,1,8
360,188,138527,1,0
360,188,138631,1,0
360,188,138736,1,0
320,128,138944,1,0
408,160,139048,1,8
316,268,139152,1,0
316,268,139256,1,0
360,248,139361,1,8
456,168,139569,1,8
440,200,139673,1,8
432,228,139777,1,0
340,224,139881,1,8
340,224,140090,1,8
392,304,140194,1,0
392,304,140298,1,0
396,260,140402,1,8
356,148,140611,5,8
328,88,140715,1,0
392,304,140819,1,0
224,120,140923,1,0
308,212,141027,1,8
396,208,141236,1,0
396,208,141340,1,0
396,208,141444,1,0
396,208,141652,1,8
396,208,141861,1,0
308,212,142069,1,8
308,212,142173,1,8
360,232,142277,1,0
360,232,142381,1,8
356,344,142486,1,0
432,156,142590,1,0
396,208,142694,1,8
396,208,142902,1,8
396,208,143006,1,8
296,240,143111,1,0
396,208,143319,1,8
424,232,143527,1,0
424,232,143631,1,0
400,268,143736,1,8
420,184,143944,1,0
328,176,144048,1,0
396,208,144152,1,8
396,208,144256,1,8
396,208,144361,1,0
396,208,144569,1,8
396,208,144673,1,8
396,208,144777,1,0
396,208,144881,1,0
368,228,144986,1,8
320,252,145090,1,0
420,184,145194,1,8
420,184,145298,1,8
300,236,145402,1,0
156,200,145611,1,0
156,200,145715,1,0
156,200,145819,1,0
156,200,146027,1,0
156,200,146131,1,0
452,160,146236,1,0
352,192,146305,1,0
352,192,146374,1,0
384,188,146444,1,0
352,192,146548,1,0
352,192,146652,1,0
352,192,146861,1,0
352,192,146965,1,0
352,192,147069,1,0
216,156,147277,5,0
216,156,147486,1,0
384,188,147694,1,8
384,188,148111,1,0
372,228,148319,1,8
312,240,148944,1,0
312,240,149048,1,0
312,240,149152,1,0
312,240,149361,1,8
312,240,149569,1,8
372,228,149777,1,0
372,228,149881,1,0
372,228,149986,1,0
432,208,150194,1,8
416,252,150402,1,8
356,216,150611,1,0
356,216,150819,1,0
400,184,151027,1,8
456,176,151444,1,0
420,224,151653,1,8
220,120,152277,1,0
220,120,152381,1,0
220,120,152486,1,0
220,120,152590,1,0
456,176,152694,1,8
456,176,152798,1,0
456,176,152902,1,8
412,192,153006,1,0
412,192,153111,1,0
412,192,153215,1,0
412,192,153319,1,0
412,192,153423,1,0
456,176,153527,1,8
456,176,153631,1,0
456,176,153736,1,8
376,264,153840,1,0
212,272,153944,5,0
276,160,154256,1,0
412,192,154465,1,8
412,192,154777,1,0
412,192,154881,1,0
412,192,154986,1,0
376,232,155298,1,8
436,204,157277,1,0
436,204,157590,1,0
464,188,157798,1,8
392,204,158111,1,0
392,204,158215,1,0
364,116,158319,1,0
392,204,158631,1,8
396,176,160611,5,0
396,176,160923,1,0
364,196,161131,1,8
416,212,161444,1,0
416,212,161548,1,0
416,212,161652,1,0
364,196,161965,1,8
400,164,163944,1,0
400,164,164256,1,0
416,184,164465,1,8
456,180,164777,1,0
456,180,164881,1,0
456,180,164986,1,0
456,180,165298,1,8
212,272,167277,5,4
276,160,167589,1,0
412,192,167798,1,8
412,192,168110,1,0
412,192,168214,1,0
412,192,168319,1,8
376,232,168631,1,8
312,160,168944,1,4
376,232,169256,1,8
376,232,169569,1,8
376,200,169777,1,0
376,200,169881,1,0
376,200,169986,1,0
376,200,170194,1,0
376,200,170298,1,0
376,200,170402,1,0
436,204,170610,1,4
436,204,170923,1,0
464,188,171131,1,8
392,204,171444,1,0
392,204,171548,1,0
364,116,171652,1,8
392,204,171964,1,8
252,168,172277,1,4
360,212,172590,1,0
360,212,172902,1,0
332,228,173111,1,0
332,228,173215,1,0
332,228,173319,1,0
332,228,173527,1,0
332,228,173631,1,0
332,228,173736,1,0
396,176,173944,5,4
396,176,174256,1,0
364,196,174464,1,8
416,212,174777,1,4
416,212,174985,1,0
164,224,175090,1,0
364,196,175298,1,8
364,196,175611,1,4
256,152,175923,1,8
256,152,176236,1,8
324,248,176444,1,4
256,152,176652,1,0
256,152,176756,1,0
256,152,176861,1,0
256,152,176965,1,0
256,152,177069,1,0
308,136,177277,5,4
200,200,177486,1,0
308,136,177694,1,4
200,200,177902,1,0
308,136,178111,1,4
200,200,178319,1,0
308,136,178527,1,4
200,200,178736,1,0
356,260,178944,1,4
356,260,179152,1,4
356,260,179361,1,4
356,260,179569,1,4
396,212,179777,1,0
396,212,179881,1,0
396,212,179986,1,0
396,212,180090,1,0
396,212,180194,1,0
396,212,180298,1,0
396,212,180402,1,0
396,212,180506,1,0
