osu file format v6

[General]
AudioFilename: 01 Soviet March.mp3
AudioLeadIn: 0
PreviewTime: -1
Countdown: 1
SampleSet: Soft
StackLeniency: 0.7
Mode: 0
LetterboxInBreaks: 1

[Editor]
Bookmarks: 91040,115640
DistanceSpacing: 0.800000011920929
BeatDivisor: 4
GridSize: 8

[Metadata]
Title:Soviet March
Artist:James Hannigan
Creator:MisinformationAtBest
Version:Mighty Soviet Warrior
Source:Red Alert 3
Tags:Red Alert Russia James Hannigan

[Difficulty]
HPDrainRate:6
CircleSize:6
OverallDifficulty:5
SliderMultiplier:1.4
SliderTickRate:1

[Events]
//Background and Video events
0,0,"121664927694.jpg"
//Break Periods
2,55281,61750
2,113806,120767
//Storyboard Layer 0 (Background)
//Storyboard Layer 1 (Fail)
//Storyboard Layer 2 (Pass)
//Storyboard Layer 3 (Foreground)
//Storyboard Sound Samples
//Background Colour Transformations
3,100,163,162,255

[TimingPoints]
0,491.803278688525,4,2,0,55,1,0

[Colours]
Combo1 : 202,202,0
Combo2 : 0,0,255
Combo3 : 157,0,0
Combo4 : 39,39,39

[HitObjects]
72,160,19918,1,0
128,80,20409,1,0
224,64,20901,1,0
328,64,21393,1,0
408,144,21885,5,0
368,248,22377,1,0
296,304,22868,1,0
192,312,23360,1,0
160,264,23606,5,0
104,168,24098,1,0
152,64,24590,1,0
256,24,25081,1,0
360,64,25573,1,0
280,144,26065,5,0
176,96,26557,1,0
144,200,27049,1,0
176,248,27295,1,0
224,280,27540,5,0
320,224,28032,1,0
224,160,28524,1,0
312,96,29016,1,0
216,40,29508,5,0
128,104,30000,1,0
160,144,30245,1,0
160,200,30491,1,0
272,208,30983,5,0
384,184,31475,1,0
288,128,31967,1,0
176,104,32459,1,0
176,216,32950,5,0
216,248,33196,1,0
272,264,33442,1,0
360,192,33934,1,0
296,96,34426,5,0
192,56,34918,1,0
128,64,35163,1,0
96,112,35409,1,0
48,216,35901,1,0
128,248,36393,2,0,C|296:248,1,140
384,240,37377,6,0,C|312:80|272:232|192:192,1,420
200,88,39344,1,0
312,88,39836,1,0
416,136,40327,5,0
400,248,40819,1,0
320,168,41311,1,0
224,112,41803,1,0
176,176,42172,1,0
160,200,42295,1,0
304,280,43032,5,0
368,248,43278,1,0
432,160,43770,1,0
360,112,44139,1,0
336,104,44262,1,0
280,104,44508,1,0
168,96,45000,5,0
128,136,45245,1,0
40,208,45737,1,0
168,152,46229,5,0
200,248,46721,1,0
312,248,47213,1,0
344,144,47704,1,0
256,80,48196,1,0
176,152,48688,1,0
152,200,48934,5,0
64,256,49180,1,0
216,304,49672,1,0
248,200,50163,1,0
336,272,50655,5,0
360,224,50901,1,0
328,176,51147,2,0,C|200:72,1,140
120,136,52131,5,0
192,48,52622,1,0
368,304,53114,2,0,L|368:160|216:160|216:288|152:288|152:216,1,560
256,80,62950,5,0
168,152,63442,1,0
200,248,63934,1,0
312,248,64426,1,0
344,152,64918,1,0
256,80,65409,1,0
176,104,65778,5,0
184,160,65901,1,0
176,272,66393,1,0
288,280,66885,1,0
232,184,67377,5,0
344,176,67868,1,0
296,272,68360,1,0
240,272,68606,1,0
240,176,68852,1,0
128,176,69344,5,0
208,104,69836,1,0
288,184,70327,1,0
248,144,70573,1,0
208,104,70819,1,0
72,88,71311,5,0
152,168,71803,1,0
264,192,72295,1,0
208,192,72540,1,0
200,248,72786,1,0
312,264,73278,1,0
376,208,73770,1,0
80,208,74262,5,0
136,216,74508,1,0
192,208,74754,1,0
304,208,75245,1,0
416,192,75737,5,0
376,296,76229,1,0
320,200,76721,1,0
216,240,77213,5,0
200,184,77459,1,0
224,136,77704,1,0
240,80,77950,1,0
216,24,78688,6,0,L|168:88|176:80,1,70
144,96,79180,2,0,L|72:96|64:96,1,70
80,152,79672,2,0,L|152:208,1,70
88,232,80163,2,0,L|48:320,1,70
120,320,80655,2,0,L|208:264,1,70
232,288,81147,2,0,L|312:344,1,70
344,312,81639,2,0,L|288:224,1,70
272,208,82131,2,0,L|352:168,1,70
328,128,82622,2,0,L|256:128,1,70
256,72,83114,2,0,L|208:8,1,70
192,72,83606,2,0,L|192:168|192:160,1,70
224,192,84098,5,0
280,200,84344,1,0
328,176,84590,1,0
240,112,85081,5,0
288,144,85327,1,0
248,184,85573,1,0
344,240,86065,1,0
336,128,86557,5,0
240,72,87049,1,0
192,136,87418,1,0
224,176,87540,1,0
272,200,87786,1,0
384,208,88278,5,0
352,256,88524,1,0
240,272,89016,1,0
168,232,89385,1,0
200,200,89508,1,0
112,160,90000,1,0
104,240,90491,5,0
216,248,90983,1,0
360,240,91475,2,0,L|360:80|352:88,1,140
296,192,92459,2,0,L|144:192|152:64|8:64,1,420
256,208,94426,12,0,95901
256,208,96393,12,0,97868
112,184,98360,5,0
112,72,98852,1,0
224,72,99344,1,0
248,24,99590,5,0
304,40,99713,1,0
336,72,99836,1,0
344,184,100327,5,0
288,176,100573,1,0
264,176,100696,1,0
240,176,100819,1,0
184,192,101065,1,0
144,152,101311,1,0
104,120,101557,1,0
56,88,101803,1,0
40,144,102049,1,0
56,200,102295,1,0
168,200,102786,5,0
168,88,103278,1,0
224,104,103524,1,0
248,112,103647,1,0
272,128,103770,1,0
360,200,104262,5,0
416,184,104508,1,0
424,160,104631,1,0
408,136,104754,1,0
384,88,105000,1,0
328,72,105245,1,0
272,88,105491,1,0
216,96,105737,1,0
168,120,105983,1,0
112,128,106229,1,0
112,240,106721,5,0
168,88,107213,1,0
224,104,107459,1,0
248,112,107582,1,0
272,128,107705,1,0
360,200,108197,5,0
416,184,108443,1,0
424,160,108566,1,0
408,136,108689,1,0
384,88,108935,1,0
328,72,109180,1,0
272,88,109426,1,0
216,96,109672,1,0
168,120,109918,1,0
112,128,110164,1,0
112,240,110655,5,0
168,88,111147,1,0
224,104,111393,1,0
248,112,111516,1,0
272,128,111639,1,0
360,200,112131,5,0
416,184,112377,1,0
424,160,112500,1,0
408,136,112623,1,0
384,88,112869,1,0
328,72,113114,1,0
272,88,113360,1,0
224,112,113606,1,0
256,176,121967,5,0
184,88,122459,1,0
112,128,122827,1,0
112,168,122950,1,0
112,224,123196,1,0
208,288,123688,5,0
264,280,123934,1,0
376,296,124426,1,0
376,216,124795,1,0
376,184,124918,1,0
384,72,125409,5,0
272,56,125901,1,0
160,56,126393,1,0
120,128,126762,1,0
104,152,126885,1,0
80,200,127131,1,0
184,248,127622,5,0
240,248,127868,1,0
336,184,128360,1,0
400,128,128729,1,0
392,88,128852,1,0
288,40,129344,1,0
176,32,129836,5,0
88,96,130327,1,0
144,160,130696,1,0
168,160,130819,1,0
224,168,131065,1,0
280,168,131311,5,0
392,176,131803,1,0
352,72,132295,1,0
272,64,132663,1,0
240,56,132786,1,0
128,56,133278,1,0
112,128,133770,2,0,B|112:304,1,140
288,184,134754,2,0,L|184:80,1,140
80,64,135737,2,0,L|80:240|256:240|256:144,1,420
256,176,137704,5,0
184,88,138196,1,0
112,128,138564,1,0
112,168,138687,1,0
112,224,138933,1,0
208,288,139425,5,0
264,280,139671,1,0
376,296,140163,1,0
376,216,140532,1,0
376,184,140655,1,0
384,72,141146,5,0
272,56,141638,1,0
160,56,142130,1,0
120,128,142499,1,0
104,152,142622,1,0
80,200,142868,1,0
184,248,143359,5,0
240,248,143605,1,0
336,184,144097,1,0
400,128,144466,1,0
392,88,144589,1,0
288,40,145081,1,0
176,32,145573,5,0
88,96,146064,1,0
144,160,146433,1,0
168,160,146556,1,0
224,168,146802,1,0
280,168,147048,5,0
392,176,147540,1,0
352,72,148032,1,0
272,64,148400,1,0
240,56,148523,1,0
128,56,149015,1,0
184,40,149508,2,0,B|288:48|336:96|336:160|336:224|288:280|160:272,1,420
167,272,150983,2,0,B|152:360,1,70
416,296,151475,2,0,B|168:120|128:208|232:64|245:51|136:208,1,420
56,48,153442,2,0,L|296:208,1,280
464,48,155409,2,0,L|112:288,1,420
80,64,157377,1,0
216,64,157868,1,0
344,64,158360,1,0
456,64,158852,1,0
136,280,159344,2,0,B|432:280,2,280
