osu file format v4

[General]
AudioFilename: Kotetsu_SHin_Jeeg_-_Stormbringer.mp3
AudioLeadIn: 0
AudioHash: e3f68f9c0887867d41fd3e6fa43285b6
PreviewTime: -1
SampleSet: Normal
EditorBookmarks: 44668,51098,84511,94604,94638,116219,118876,121283,136121

[Metadata]
Title:Stormbringer
Artist:Jam Project
Creator:Headbang
Version:Normal

[Difficulty]
HPDrainRate:5
CircleSize:5
OverallDifficulty:5
SliderMultiplier: 1.7
SliderTickRate: 2

[Events]
2,84280,93487
3,0,163,162,255

[TimingPoints]
9830,662.94991708126,4,1,1

[HitObjects]
256,160,9830,1,0,
320,160,10161,1,0,
384,160,10492,1,0,
352,224,10824,1,0,
288,224,11155,1,0,
224,224,11487,1,0,
160,224,11818,1,0,
192,160,12150,1,0,
256,160,12481,1,0,
320,160,12813,1,0,
384,160,13144,1,0,
352,224,13476,1,0,
288,224,13807,1,4,
288,160,15133,5,0,
224,160,15464,1,0,
160,160,15795,1,0,
128,224,16127,1,0,
192,224,16458,1,0,
256,224,16790,1,0,
320,224,17121,1,0,
288,160,17453,1,0,
224,160,17784,1,0,
160,160,18116,1,0,
96,160,18447,1,0,
128,224,18779,1,0,
192,224,19110,1,4,
256,192,20437,5,0,
256,128,20768,1,0,
256,64,21100,1,0,
128,64,21763,2,4,B|128:64|128:256,1,170
256,192,23088,1,0,
256,192,23751,1,0,
256,192,24414,1,4,
256,32,25740,5,0,
256,32,26072,1,0,
256,128,26403,1,0,
224,128,26569,1,0,
160,192,27066,2,4,B|160:192|352:192,1,170
192,128,28392,5,0,
256,192,29055,1,0,
256,288,29718,2,0,B|256:288|448:288|448:64,1,318.75
256,96,31375,5,0,
256,160,31707,1,0,
256,256,32370,2,4,B|256:256|256:352|384:352,1,170
256,192,34359,5,0,
256,256,35022,2,4,B|256:256|256:352|128:352,1,170
96,192,36347,6,0,B|96:192|192:192,3,85
224,192,37673,2,0,B|224:192|320:192,3,85
352,192,38999,2,4,B|352:192|448:192,3,85
128,160,41651,2,0,B|128:160|320:160,1,170
384,224,42977,2,0,B|384:224|192:224,1,170
384,160,44303,6,0,B|384:160|192:160,1,170
128,224,45629,2,0,B|128:224|320:224,1,170
160,160,46955,5,0,
96,160,47286,1,0,
96,160,47452,1,4,
256,192,47949,12,0,50932
256,96,51761,1,0,
192,256,52258,1,0,
288,256,52590,1,0,
320,256,52755,1,4,
256,192,53584,5,0,
256,192,54579,1,0,
256,192,54744,1,0,
256,192,54910,1,0,
256,288,55242,1,0,
256,288,55407,1,4,
128,192,55905,6,0,L|128:192|32:192,3,85
160,96,57562,2,0,B|160:96|384:96|384:320,1,340
320,320,60214,2,4,B|320:320|96:320|96:96,1,340
256,64,62865,5,0,
256,128,63197,1,0,
256,128,63363,1,0,
256,192,63860,2,4,B|256:192|256:288,3,85
256,64,65186,5,0,
256,64,65352,1,0,
256,128,65517,1,0,
256,192,65849,1,0,
256,192,66015,1,0,
256,256,66512,2,4,B|256:256|256:352,3,85
192,96,68501,6,0,B|192:96|192:288,1,170
256,256,69826,2,0,B|256:256|256:64,1,170
320,96,70821,2,4,B|320:96|416:96,4,85
288,288,73141,5,0,
320,256,73307,1,0,
352,224,73473,1,0,
416,160,73804,1,0,
448,128,73970,1,0,
288,96,74467,2,4,L|288:96|160:96|32:96,1,255
160,192,76124,5,0,
192,192,76290,1,0,
224,192,76456,1,0,
256,192,76621,1,0,
352,192,77119,2,4,B|352:192|352:96|128:96,1,255
288,128,78611,5,0,
256,128,78777,1,0,
160,128,79108,1,0,
160,160,79273,1,0,
160,192,79439,1,0,
224,192,79854,2,0,L|224:192|288:192,1,63.75
256,192,80599,12,4,84080
256,160,94687,5,0,
320,160,95018,1,0,
384,160,95349,1,0,
352,224,95681,1,0,
288,224,96012,1,0,
224,224,96344,1,0,
160,224,96675,1,0,
192,160,97007,1,0,
256,160,97338,1,0,
320,160,97670,1,0,
384,160,98001,1,0,
352,224,98333,1,0,
288,224,98664,1,4,
288,160,99990,5,0,
224,160,100321,1,0,
160,160,100652,1,0,
128,224,100984,1,0,
192,224,101315,1,0,
256,224,101647,1,0,
320,224,101978,1,0,
288,160,102310,1,0,
224,160,102641,1,0,
160,160,102973,1,0,
96,160,103304,1,0,
128,224,103636,1,0,
192,224,103967,1,4,
128,192,105294,5,0,
192,192,105626,1,0,
256,192,105957,2,0,L|256:192|352:192,1,85
416,192,106620,1,0,
416,192,106786,1,0,
416,192,106952,1,4,
96,160,107946,2,4,C|96:160|256:128|352:288,1,340
192,192,110515,5,0,
256,192,110929,1,0,
320,192,111261,1,0,
320,192,111427,1,0,
256,128,111924,1,0,
256,192,112255,1,0,
256,256,112587,1,0,
256,256,112752,1,4,
192,128,113250,5,0,
256,192,113747,1,0,
256,192,113912,1,4,
256,320,114576,2,0,B|256:320|480:320|480:96,1,340
384,192,116233,5,0,
352,192,116399,1,0,
320,192,116564,1,0,
320,128,116896,2,0,B|320:128|256:128,1,42.5
192,128,117393,2,4,B|192:128|128:128,1,42.5
128,224,118885,5,0,
192,224,119050,1,0,
192,224,119216,1,0,
320,224,119548,1,0,
320,224,119713,1,0,
384,224,120045,1,0,
384,224,120211,1,4,
256,32,121205,6,0,B|256:32|256:128,3,85
256,160,122531,2,0,B|256:160|256:256,3,85
256,288,123857,2,4,B|256:288|256:384,3,85
384,192,126840,5,0,
352,192,127006,1,0,
320,192,127171,1,0,
320,128,127503,2,0,B|320:128|256:128,1,42.5
192,128,128000,2,4,B|192:128|128:128,1,42.5
128,224,129492,5,0,
192,224,129657,1,0,
192,224,129823,1,0,
320,224,130155,1,0,
320,224,130320,1,0,
384,224,130652,1,0,
384,224,130818,1,4,
256,192,131812,12,4,135790
256,96,136619,1,0,
256,96,136784,1,0,
192,256,137116,1,0,
288,256,137448,1,0,
320,256,137613,1,4,
320,192,138110,5,0,
384,192,138442,1,0,
448,192,138773,1,0,
448,192,138939,1,4,
256,192,139436,5,0,
256,192,139601,1,0,
256,192,139767,1,0,
256,96,140099,1,0,
256,96,140264,1,4,
192,192,140762,5,0,
128,192,141094,1,0,
64,192,141425,1,0,
64,192,141591,1,4,
32,192,142751,5,0,
96,192,143082,1,0,
160,192,143414,1,0,
224,192,143745,1,0,
288,192,144076,1,0,
352,160,144408,1,0,
416,128,144739,1,0,
480,128,145071,2,4,B|480:128|480:320,2,170
128,192,147723,5,0,
192,192,148055,1,0,
192,192,148221,1,4,
256,192,148718,2,4,B|256:192|352:192,3,85
352,256,150044,5,0,
352,256,150210,1,0,
288,256,150375,1,0,
224,256,150707,1,0,
224,256,150873,1,0,
160,256,151370,2,4,B|160:256|64:256,3,85
480,192,153358,5,0,
416,192,153689,1,0,
352,192,154021,1,0,
288,192,154352,1,0,
224,192,154683,1,0,
160,160,155015,1,0,
96,128,155346,1,0,
32,128,155678,2,4,B|32:128|32:224,4,85
224,288,157999,5,0,
192,256,158165,1,0,
160,224,158331,1,0,
96,160,158662,1,0,
64,128,158828,1,0,
224,96,159325,2,4,L|224:96|352:96|480:96,1,255
352,192,160982,5,0,
320,192,161148,1,0,
288,192,161314,1,0,
256,192,161479,1,0,
160,192,161977,2,4,B|160:192|160:96|384:96,1,255
224,128,163469,5,0,
256,128,163635,1,0,
352,128,163966,1,0,
352,160,164131,1,0,
352,192,164297,1,0,
288,192,164463,2,0,L|288:192|160:192,1,127.5
256,192,165623,12,4,168275
