osu file format v4

[General]
AudioFilename: Kotetsu_SHin_Jeeg_-_Stormbringer.mp3
AudioLeadIn: 0
AudioHash: e3f68f9c0887867d41fd3e6fa43285b6
PreviewTime: -1
SampleSet: Normal
EditorBookmarks: 44668,51098,72561,85572,91704,116219,118876,121283,147723

[Metadata]
Title:Stormbringer
Artist:Jam Project
Creator:Headbang
Version:Hard

[Difficulty]
HPDrainRate:6
CircleSize:5
OverallDifficulty:6
SliderMultiplier: 1.7
SliderTickRate: 2

[Events]
2,84280,93637
3,0,163,162,255

[TimingPoints]
9830,662.94991708126,4,1,1

[HitObjects]
256,192,9830,5,4,
96,320,10990,1,0,
96,192,11321,1,0,
96,192,11487,1,0,
192,256,11818,1,0,
256,192,12481,1,4,
256,192,13641,5,0,
352,192,13974,1,0,
352,192,14139,1,0,
448,192,14471,1,0,
256,192,15133,5,4,
416,320,16293,1,0,
416,192,16624,1,0,
416,192,16790,1,0,
320,256,17121,1,0,
256,192,17785,1,4,
256,192,18945,5,0,
160,192,19278,1,0,
160,192,19443,1,0,
64,192,19775,1,0,
320,224,20437,5,0,
320,160,20769,1,0,
320,96,21100,1,0,
192,96,21763,1,0,
192,160,22094,1,0,
192,224,22426,1,0,
256,192,23088,1,0,
256,256,23420,6,0,B|256:256|352:256,3,85
320,192,25658,5,0,
256,192,26072,1,0,
192,192,26404,1,0,
192,192,26570,1,0,
256,256,27066,2,0,C|256:256|256:352,1,85
192,96,28392,2,4,B|192:96|384:96|384:320|128:320|128:64,1,510
224,160,31376,5,0,
192,160,31542,1,0,
160,160,31707,1,0,
160,256,32039,1,0,
224,256,32204,2,4,B|224:256|320:256,1,85
288,160,34027,5,0,
320,160,34193,1,0,
352,160,34358,1,0,
352,256,34690,1,0,
288,256,34855,2,4,B|288:256|192:256,1,85
320,192,36348,5,0,
320,256,36680,1,0,
320,320,37011,1,0,
256,320,37343,1,0,
192,320,37674,1,0,
192,256,38005,1,0,
192,192,38337,1,0,
192,128,38668,1,0,
256,128,39000,2,4,B|256:128|352:128,3,85
256,160,41983,5,0,
288,160,42149,1,0,
320,160,42315,1,0,
320,256,42646,1,0,
320,256,42812,1,0,
224,256,43143,1,0,
224,256,43308,1,0,
96,256,43640,1,4,
256,160,44634,5,0,
224,160,44800,1,0,
192,160,44966,1,0,
192,256,45297,1,0,
192,256,45463,1,0,
288,256,45794,1,0,
288,256,45959,1,0,
416,256,46292,1,4,
256,192,46955,12,4,50269
160,192,51761,1,0,
192,192,51927,1,0,
224,192,52093,1,0,
256,192,52258,1,0,
384,192,52590,1,0,
416,192,52756,1,4,
192,192,53252,5,0,
192,192,53418,1,0,
128,192,53584,1,0,
128,192,53750,1,0,
64,192,53915,1,0,
64,192,54081,1,0,
256,192,54578,5,0,
256,192,54743,1,0,
256,192,54909,1,0,
256,96,55241,1,0,
256,96,55406,1,4,
320,192,55904,5,0,
320,192,56070,1,0,
384,192,56236,1,0,
384,192,56401,1,0,
448,192,56567,1,0,
448,192,56733,1,0,
96,64,57893,5,0,
96,64,58224,1,0,
128,128,58556,1,0,
160,192,58887,1,0,
192,256,59218,1,0,
224,320,59550,1,0,
288,352,59881,1,0,
352,320,60213,1,0,
416,288,60544,1,0,
416,288,60710,1,0,
448,224,61042,1,0,
448,192,61207,1,0,
448,160,61373,1,4,
192,288,62865,5,0,
224,224,63197,1,0,
224,224,63363,1,4,
256,128,63860,1,0,
256,128,64026,1,0,
192,128,64191,1,0,
192,128,64357,1,0,
192,128,64523,1,0,
192,128,64689,1,0,
320,288,65185,5,0,
288,288,65351,1,0,
256,288,65516,1,0,
256,224,65848,1,0,
256,224,66014,1,4,
256,128,66511,1,0,
256,128,66676,1,0,
320,128,66842,1,0,
320,128,67008,1,0,
320,128,67174,1,0,
320,128,67339,1,0,
416,64,68501,5,0,
416,64,68832,1,0,
384,128,69164,1,0,
352,192,69495,1,0,
320,256,69826,1,0,
288,320,70158,1,0,
224,352,70489,1,0,
160,320,70821,1,0,
96,288,71152,1,0,
96,288,71318,1,0,
64,224,71650,1,0,
64,192,71815,1,0,
64,160,71981,1,4,
256,32,73141,5,0,
256,32,73307,1,0,
256,32,73473,1,0,
256,128,73804,1,0,
256,128,73970,1,0,
256,224,74301,1,0,
288,224,74467,1,0,
320,224,74633,1,0,
352,224,74799,2,4,L|352:224|480:224,1,127.5
448,64,76124,5,0,
416,64,76290,1,0,
384,64,76456,1,0,
352,64,76622,1,0,
256,64,77119,1,0,
224,64,77284,1,4,
224,160,77616,1,0,
224,160,77782,1,0,
224,160,77947,1,4,
256,256,78611,5,0,
256,256,78776,1,0,
192,256,79108,1,0,
160,256,79274,1,0,
160,224,79439,1,0,
160,160,79688,1,0,
224,160,79854,2,0,L|224:160|288:160,1,63.75
256,192,80599,12,4,84080
256,192,94687,5,4,
96,320,95847,1,0,
96,192,96178,1,0,
96,192,96344,1,0,
192,256,96675,1,0,
256,192,97338,1,4,
256,192,98498,5,0,
352,192,98831,1,0,
352,192,98996,1,0,
448,192,99328,1,0,
256,192,99990,5,4,
416,320,101150,1,0,
416,192,101481,1,0,
416,192,101647,1,0,
320,256,101978,1,0,
256,192,102642,1,4,
256,192,103802,5,0,
160,192,104135,1,0,
160,192,104300,1,0,
64,192,104632,1,0,
192,352,105294,5,0,
256,320,105626,1,0,
320,256,105957,1,0,
288,224,106123,1,0,
256,192,106289,1,0,
256,96,106620,1,0,
256,96,106786,1,0,
256,96,106952,1,0,
352,64,107283,1,0,
352,64,107449,1,0,
352,64,107615,1,0,
256,192,108112,5,0,
256,192,108278,1,0,
256,192,108443,1,0,
256,192,108609,2,4,B|256:192|352:96|256:32|192:96|256:192|288:288,1,340
256,64,110598,5,0,
256,160,110929,1,0,
256,256,111261,2,0,B|256:256|256:320,1,42.5
160,320,111924,1,0,
160,320,112090,1,0,
160,320,112255,1,0,
64,288,112587,1,0,
64,288,112752,1,4,
64,192,113415,5,0,
160,192,113747,1,0,
192,192,113913,1,0,
224,192,114078,1,0,
256,192,114244,1,0,
352,192,114576,2,4,L|352:192|448:192,1,85
224,224,116233,5,0,
288,224,116399,1,0,
288,224,116564,1,0,
288,128,116896,1,0,
288,128,117062,1,0,
192,128,117393,1,0,
192,128,117559,1,0,
96,128,117890,1,4,
288,224,118885,5,0,
224,224,119050,1,0,
224,224,119216,1,0,
224,128,119548,1,0,
224,128,119713,1,0,
320,128,120045,1,0,
320,128,120211,1,0,
416,128,120542,1,4,
192,192,121205,5,0,
192,256,121537,1,0,
192,320,121868,1,0,
256,320,122200,1,0,
320,320,122531,1,0,
320,256,122862,1,0,
320,192,123194,1,0,
320,128,123525,1,0,
256,128,123857,2,4,B|256:128|160:128,3,85
288,224,126840,5,0,
224,224,127006,1,0,
224,224,127172,1,0,
224,128,127503,1,0,
224,128,127669,1,0,
320,128,128000,1,0,
320,128,128165,1,0,
416,128,128498,1,4,
224,224,129492,5,0,
288,224,129658,1,0,
288,224,129823,1,0,
288,128,130155,1,0,
288,128,130321,1,0,
192,128,130652,1,0,
192,128,130818,1,0,
96,128,131149,1,4,
256,192,131812,12,4,135790
160,32,136619,1,0,
160,64,136785,1,0,
160,96,136951,1,0,
160,128,137116,1,0,
160,192,137448,1,0,
192,192,137614,1,4,
320,192,138110,5,0,
320,192,138276,1,0,
384,192,138442,1,0,
384,192,138608,1,0,
448,192,138773,1,0,
448,192,138939,1,0,
256,192,139436,5,0,
256,192,139601,1,0,
256,192,139767,1,0,
256,288,140099,1,0,
256,288,140264,1,4,
192,192,140762,5,0,
192,192,140928,1,0,
128,192,141094,1,0,
128,192,141259,1,0,
64,192,141425,1,0,
64,192,141591,1,0,
96,64,142751,5,0,
96,64,143082,1,0,
128,128,143414,1,0,
160,192,143745,1,0,
192,256,144076,1,0,
224,320,144408,1,0,
288,352,144739,1,0,
352,320,145071,1,0,
416,288,145402,1,0,
416,288,145568,1,0,
448,192,145900,2,4,B|448:192|448:128,2,42.5
192,96,147723,5,0,
224,160,148055,1,0,
224,160,148221,1,4,
256,256,148718,1,0,
256,256,148884,1,0,
192,256,149049,1,0,
192,256,149215,1,0,
192,256,149381,1,0,
192,256,149547,1,0,
192,96,150043,5,0,
224,96,150209,1,0,
256,96,150374,1,0,
256,160,150706,1,0,
256,160,150872,1,4,
256,256,151369,1,0,
256,256,151534,1,0,
192,256,151700,1,0,
192,256,151866,1,0,
192,256,152032,1,0,
192,256,152197,1,0,
416,64,153358,5,0,
416,64,153689,1,0,
352,96,154021,1,0,
288,128,154352,1,0,
224,128,154683,1,0,
160,96,155015,1,0,
96,64,155346,1,0,
32,96,155678,1,0,
32,192,156009,1,0,
32,192,156175,1,0,
32,288,156507,2,4,B|32:288|32:352,2,42.5
256,352,157999,5,0,
256,352,158165,1,0,
256,352,158331,1,0,
256,256,158662,1,0,
256,256,158827,1,4,
256,160,159159,1,0,
224,160,159325,1,0,
192,160,159491,1,0,
160,160,159656,2,4,L|160:160|32:160,1,127.5
64,320,160982,5,0,
96,320,161148,1,0,
128,320,161314,1,0,
160,320,161480,1,0,
256,320,161977,1,0,
288,320,162142,1,4,
288,224,162474,1,0,
288,224,162640,1,0,
288,224,162805,1,0,
256,128,163469,5,0,
256,128,163634,1,0,
320,128,163966,1,0,
352,128,164132,1,0,
352,160,164297,1,0,
352,224,164546,1,0,
288,224,164712,2,0,L|288:224|224:224,1,63.75
256,192,165623,12,4,168275
