osu file format v3

[General]
AudioFilename: Jam Project - Fire Wars.mp3
AudioLeadIn: 0
AudioHash: e99f13a599070d65d8a88e15c0145995
PreviewTime: -1
SampleSet: Normal

[Metadata]
Title:Fire Wars
Artist:Jam Project
Creator:elzamxrai
Version:Normal

[Difficulty]
HPDrainRate:6
CircleSize:4
OverallDifficulty:6
SliderMultiplier: 1.4
SliderTickRate: 2

[Events]
1,0,"mag.avi"
2,49230,58570
2,88503,90513
2,119834,129174
3,0,163,162,255

[TimingPoints]
21230,441.273810399353

[HitObjects]
384,96,21229,1,0,
384,192,21671,2,0,B|384:192|384:288|288:288,1,140
224,288,22553,1,4,
128,288,22774,1,4,
128,192,23215,2,4,B|128:192|320:192,1,140
64,64,24980,6,0,B|64:64|64:224,1,140
160,192,25642,2,0,B|160:192|320:192,1,140
384,192,26304,1,4,
448,256,26524,1,4,
384,320,26966,2,0,B|384:320|96:320,1,280
32,256,28069,5,4,
96,192,28290,2,0,B|96:192|256:192,4,140
96,96,30496,1,4,
96,96,30717,1,4,
192,96,30938,2,0,B|192:96|352:96,4,140
64,320,33365,6,0,B|64:320|384:320,1,280
448,320,34909,1,2,
448,192,35350,6,0,B|448:192|448:32,3,140
352,192,37336,1,4,
352,192,37557,1,4,
352,192,37777,1,4,
160,128,39101,5,0,
160,128,39322,1,0,
96,192,39763,1,0,
96,192,39984,1,0,
32,256,40425,1,0,
96,320,40646,2,0,B|96:320|480:320,1,350
384,224,42190,5,0,
320,160,42411,2,0,B|320:160|160:160,4,140
384,224,44617,1,4,
384,224,44838,1,0,
320,288,45058,2,0,B|320:288|160:288,4,140
96,192,47485,5,2,
320,192,48368,1,2,
416,192,49030,1,2,
160,320,59620,5,4,
160,320,59841,1,4,
256,320,60062,1,4,
256,320,60282,1,4,
416,320,60724,1,4,
128,128,61827,5,4,
256,64,62268,1,4,
384,128,62709,1,4,
384,320,63812,5,0,
320,256,64033,2,0,B|320:256|160:256,2,140
384,192,65136,1,0,
320,128,65357,2,0,B|320:128|160:128,3,140
64,192,67563,5,0,
160,192,68005,2,0,B|160:192|320:192,2,140
448,192,69549,1,0,
448,192,69770,1,0,
384,256,70211,2,0,B|384:256|224:256,1,140
192,192,71314,1,2,
256,64,72417,5,4,
256,64,73079,1,4,
352,64,73741,5,4,
352,64,73962,1,4,
256,64,74183,1,4,
256,64,74403,1,4,
96,64,74845,1,4,
384,256,75948,5,4,
256,320,76389,1,4,
128,256,76830,1,4,
128,64,77933,5,0,
192,128,78154,2,0,B|192:128|352:128,2,140
128,192,79257,1,0,
192,256,79478,2,0,B|192:256|352:256,3,140
448,192,81684,5,0,
352,192,82125,2,0,B|352:192|256:192,3,70
192,192,83228,1,0,
192,192,83449,1,0,
192,192,83670,1,0,
256,64,84332,1,2,
256,192,84773,12,0,88303
128,288,91833,5,0,
128,192,92275,2,0,B|128:192|128:96|224:96,1,140
288,96,93157,1,4,
384,96,93378,1,4,
384,192,93819,2,4,B|384:192|192:192,1,140
448,320,95584,6,0,B|448:320|448:160,1,140
352,192,96246,2,0,B|352:192|192:192,1,140
128,192,96908,1,4,
64,128,97128,1,4,
128,64,97570,2,0,B|128:64|416:64,1,280
480,128,98673,5,4,
416,192,98894,2,0,B|416:192|256:192,4,140
416,288,101100,1,4,
416,288,101321,1,4,
320,288,101542,2,0,B|320:288|160:288,4,140
448,64,103969,6,0,B|448:64|128:64,1,280
64,64,105513,1,2,
64,192,105954,6,0,B|64:192|64:352,3,140
160,192,107940,1,4,
160,192,108161,1,4,
160,192,108381,1,4,
352,256,109705,5,0,
352,256,109926,1,0,
416,192,110367,1,0,
416,192,110588,1,0,
480,128,111029,1,0,
416,64,111250,2,0,B|416:64|32:64,1,350
128,160,112794,5,0,
192,224,113015,2,0,B|192:224|352:224,4,140
128,160,115221,1,4,
128,160,115442,1,0,
192,96,115662,2,0,B|192:96|352:96,4,140
416,192,118089,5,2,
192,192,118972,1,2,
96,192,119634,1,2,
352,64,130224,5,4,
352,64,130445,1,4,
256,64,130666,1,4,
256,64,130886,1,4,
96,64,131328,1,4,
384,256,132431,5,4,
256,320,132872,1,4,
128,256,133313,1,4,
128,64,134416,5,0,
192,128,134637,2,0,B|192:128|352:128,2,140
128,192,135740,1,0,
192,256,135961,2,0,B|192:256|352:256,3,140
448,192,138167,5,0,
352,192,138609,2,0,B|352:192|192:192,2,140
64,192,140153,1,0,
64,192,140374,1,0,
128,128,140815,2,0,B|128:128|288:128,1,140
320,192,141918,1,2,
256,320,143021,5,4,
256,320,143683,1,0,
160,320,144345,5,4,
160,320,144566,1,4,
256,320,144787,1,4,
256,320,145007,1,4,
416,320,145449,1,4,
128,128,146552,5,4,
256,64,146993,1,4,
384,128,147434,1,4,
384,320,148537,5,0,
320,256,148758,2,0,B|320:256|160:256,2,140
384,192,149861,1,0,
320,128,150082,2,0,B|320:128|160:128,3,140
64,192,152288,5,0,
160,192,152729,2,0,B|160:192|256:192,3,70
320,192,153832,1,0,
320,192,154053,1,0,
320,192,154274,1,0,
256,320,154936,1,2,
256,192,155377,12,0,162437
