osu file format v3

[General]
AudioFilename: Jam Project - Fire Wars.mp3
AudioLeadIn: 0
AudioHash: e99f13a599070d65d8a88e15c0145995
PreviewTime: -1
SampleSet: Normal

[Metadata]
Title:Fire Wars
Artist:Jam Project
Creator:elzamxrai
Version:Easy

[Difficulty]
HPDrainRate:4
CircleSize:4
OverallDifficulty:4
SliderMultiplier: 1
SliderTickRate: 2

[Events]
1,0,"mag.avi"
2,47023,58300
2,88503,90513
2,117627,128904
3,0,163,162,255

[TimingPoints]
21230,441.273810399353

[HitObjects]
160,64,21229,2,0,B|160:64|384:64,3,200
448,64,24980,6,0,B|448:64|448:224,1,150
384,288,26525,1,4,
320,224,26967,1,4,
384,160,27408,1,4,
320,96,28290,6,0,B|320:96|96:96,2,200
320,192,30496,1,4,
320,288,30938,2,0,B|320:288|96:288,2,200
352,352,33365,2,0,B|352:352|480:352|480:224,1,200
480,128,34909,1,2,
384,128,35350,6,0,B|384:128|384:256,3,100
288,224,37557,1,4,
224,160,37998,1,4,
96,288,39101,5,2,
160,352,39763,2,0,B|160:352|288:352,1,100
352,352,40646,1,4,
416,288,41087,1,4,
352,224,41528,1,4,
352,96,42411,6,0,B|352:96|128:96,2,200
352,192,44617,1,4,
352,288,45058,2,0,B|352:288|128:288,2,200
384,288,59620,5,0,
256,288,60062,1,0,
256,288,60282,1,0,
128,288,60724,1,0,
128,128,61827,5,4,
256,64,62268,1,4,
384,128,62709,1,4,
352,288,64033,6,0,B|352:288|128:288,3,200
64,192,67563,1,0,
160,96,68887,1,0,
352,96,70211,1,0,
448,192,71535,1,0,
320,288,72417,2,6,B|320:288|128:288,1,150
384,96,73741,5,0,
256,96,74183,1,0,
256,96,74403,1,0,
128,96,74845,1,0,
128,256,75948,5,4,
256,320,76389,1,4,
384,256,76830,1,4,
352,96,78154,6,0,B|352:96|128:96,3,200
64,192,81684,1,0,
256,192,83008,1,0,
448,192,84332,1,0,
256,192,84773,12,0,88303
352,320,91833,2,0,B|352:320|128:320,3,200
64,320,95584,6,0,B|64:320|64:160,1,150
128,96,97129,1,4,
192,160,97571,1,4,
128,224,98012,1,4,
192,288,98894,6,0,B|192:288|416:288,2,200
192,192,101100,1,4,
192,96,101542,2,0,B|192:96|416:96,2,200
160,32,103969,2,0,B|160:32|32:32|32:160,1,200
32,256,105513,1,2,
128,256,105954,6,0,B|128:256|128:128,3,100
224,160,108161,1,4,
288,224,108602,1,4,
416,96,109705,5,2,
352,32,110367,2,0,B|352:32|224:32,1,100
160,32,111250,1,4,
96,96,111691,1,4,
160,160,112132,1,4,
160,288,113015,6,0,B|160:288|384:288,2,200
160,192,115221,1,4,
160,96,115662,2,0,B|160:96|384:96,2,200
128,96,130224,5,0,
256,96,130666,1,0,
256,96,130886,1,0,
384,96,131328,1,0,
384,256,132431,5,4,
256,320,132872,1,4,
128,256,133313,1,4,
160,96,134637,6,0,B|160:96|384:96,3,200
448,192,138167,1,0,
352,288,139491,1,0,
160,288,140815,1,0,
64,192,142139,1,0,
192,96,143021,2,6,B|192:96|384:96,1,150
128,288,144345,5,0,
256,288,144787,1,0,
256,288,145007,1,0,
384,288,145449,1,0,
384,128,146552,5,4,
256,64,146993,1,4,
128,128,147434,1,4,
160,288,148758,6,0,B|160:288|384:288,3,200
448,192,152288,1,0,
256,192,153612,1,0,
64,192,154936,1,0,
256,192,155377,12,0,161996
