osu file format v9

[General]
AudioFilename: Jakob Bienenhalm - LOL, Internet.mp3
AudioLeadIn: 0
PreviewTime: 65743
Countdown: 1
SampleSet: Normal
StackLeniency: 0.7
Mode: 0
LetterboxInBreaks: 0

[Editor]
DistanceSpacing: 1.1
BeatDivisor: 4
GridSize: 4

[Metadata]
Title:LOL, Internet
Artist:Jakob Bienenhalm
Creator:Larto
Version:Simple
Source:
Tags:youtube

[Difficulty]
HPDrainRate:1
CircleSize:3
OverallDifficulty:2
ApproachRate:2
SliderMultiplier:1.12
SliderTickRate:2

[Events]
//Background and Video events
Video,-1050,"lol internet [www.keepvid.com] (1).flv"
0,0,"internet-matrix-wallpaper.jpg"
//Break Periods
2,96463,102573
//Storyboard Layer 0 (Background)
//Storyboard Layer 1 (Fail)
//Storyboard Layer 2 (Pass)
//Storyboard Layer 3 (Foreground)
//Storyboard Sound Samples
//Background Colour Transformations
3,100,163,162,255

[TimingPoints]
453,480,4,1,0,40,1,0
65623,-86.9565217391304,4,1,0,40,0,0
65743,-86.9565217391304,4,1,0,40,0,1
96463,-100,4,1,0,40,0,0
127063,-86.9565217391304,4,1,0,40,0,0
127183,-86.9565217391304,4,1,0,40,0,1
127303,-86.9565217391304,4,1,0,40,0,0
157783,-76.9230769230769,4,1,0,40,0,0
157903,-76.9230769230769,4,1,0,40,0,1
188623,-76.9230769230769,4,1,0,40,0,0

[HitObjects]
16,64,35013,5,6
136,128,35493,1,8
256,64,35973,1,2
256,192,36453,1,8
320,240,36693,2,0,B|424:256|496:192,1,168,2|8
480,96,37893,1,2
376,144,38373,1,8
392,256,38853,6,0,B|312:352,1,112,6|8
191,343,39813,2,0,B|79:208,1,168,6|2
168,64,41253,1,8
256,112,41733,1,2
344,64,42213,1,8
320,184,42693,5,6
192,184,43173,1,8
96,256,43653,2,2,B|80:344|144:376|208:368,2,168,2|2|8
192,200,45573,1,2
320,200,46053,1,6
432,192,46533,6,4,B|456:128|400:56|352:48|280:80,1,224,4|6
204,184,48213,2,0,B|199:220|232:239|256:252|280:239|312:220|308:184,1,168,2|8
256,96,49413,1,2
152,120,49893,1,6
56,176,50373,6,0,B|160:224|136:312|88:368,1,224,4|2
228,360,51813,1,8
260,288,52053,2,2,B|336:120,1,168
400,20,53253,1,6
512,80,53733,1,8
456,176,54213,6,0,B|352:224|376:312|424:368,1,224,6|2
296,336,55653,1,8
216,350,55893,2,2,B|144:304|184:213|256:192|327:170|367:79|295:33,1,392,2|8
180,16,58053,5,6
84,72,58533,1,8
56,176,59013,1,2
40,288,59493,2,8,B|256:352,2,224,8|2|8
128,216,61893,6,6,B|160:248|256:304|352:248|384:216,1,224,6|2
436,156,63333,1,0
384,96,63573,2,6,B|352:64|256:8|160:64|128:96,1,280,6|2
256,152,65253,1,8
256,280,65733,6,0,B|112:280,1,128.800004222393,6|8
8,232,66693,1,2
120,168,67173,1,8
264,168,67653,6,0,B|408:168,1,128.800004222393,6|8
512,120,68613,1,2
400,56,69093,1,8
256,56,69573,5,6
192,168,70053,1,8
320,168,70533,1,2
256,280,71013,1,8
152,240,71493,6,2,B|116:360|256:416|396:360|360:240,1,386.40001266718,2|8
320,112,73413,6,0,B|424:24,2,128.800004222393,6|8|2
256,24,74853,1,8
192,112,75333,6,0,B|88:24,2,128.800004222393,6|8|2
256,200,76773,1,8
376,152,77253,5,6
448,264,77733,1,8
376,376,78213,1,2
256,320,78693,1,8
136,376,79173,5,6
64,264,79653,1,8
136,152,80133,1,2
256,208,80613,1,8
376,152,81093,6,2,B|392:48|256:-32|120:48|136:152,1,386.40001266718,6|8
136,256,83013,6,2,B|120:360|256:440|392:360|376:256,1,386.40001266718,6|8
256,196,84933,6,0,B|184:128|76:168,2,193.20000633359,6|2|8
256,328,86853,6,0,B|328:396|436:356,2,193.20000633359,6|2|8
356,244,88773,6,0,B|348:160|432:116,1,128.800004222393,6|8
288,76,89733,1,2
256,192,90213,1,8
156,140,90693,6,0,B|164:224|80:268,1,128.800004222393,6|8
268,252,91653,1,2
244,132,92133,1,8
360,92,92613,6,4,B|444:140|460:236|404:324|316:356|232:320,1,386.40001266718,6|8
136,280,94533,6,4,B|52:232|36:136|92:48|180:16|264:52,1,386.40001266718,6|8
96,80,104133,38,0,B|212:200,1,168,6|0
300,200,105093,2,0,B|417:80,1,168,6|2
216,56,106533,1,8
328,124,107013,1,2
216,192,107493,1,8
144,308,107973,6,0,B|368:308,2,224,6|2|6
212,192,110373,1,8
256,60,110853,1,0
300,192,111333,1,8
256,320,111813,5,6
388,332,112293,1,8
468,224,112773,1,2
416,76,113253,2,2,B|372:12|276:-4|200:52,1,224,2|8
328,148,114693,1,6
188,228,115173,1,8
256,368,115653,6,4,B|492:368,2,224,4|6|6
120,296,118053,1,8
256,220,118533,1,0
392,296,119013,1,8
472,160,119493,5,6
328,80,119973,1,8
184,160,120453,1,6
40,80,120933,1,8
40,240,121413,5,6
184,160,121893,1,8
328,240,122373,1,6
472,160,122853,1,8
256,192,123333,12,8,125253
256,328,126693,5,8
328,192,127173,2,0,B|320:248|256:256|192:248|184:192,1,193.20000633359,6|0
256,136,128133,2,2,B|207:78|104:88|62:168|93:237,2,257.600008444786
200,264,130533,1,8
296,368,131013,6,6,B|464:224,2,193.20000633359,6|6|8
208,264,132933,2,6,B|40:120,2,193.20000633359,6|6|8
328,192,134853,5,6
416,80,135333,1,8
416,192,135813,1,2
328,80,136293,1,8
184,80,136773,1,6
96,192,137253,1,8
96,80,137733,1,2
184,192,138213,1,8
62,281,138693,6,0,B|462:281,1,386.40001266718,6|8
448,139,140613,2,0,B|48:139,1,386.40001266718,6|8
44,280,142533,6,0,B|72:360|104:380|204:368,1,193.20000633359,6|0
160,292,143493,2,2,B|352:292,1,193.20000633359,2|0
320,369,144453,2,0,B|408:380|440:360|468:280,1,193.20000633359,6|0
500,204,145413,5,2
384,124,145893,1,8
248,88,146373,2,2,B|199:106|210:165|299:158|311:217|262:236,2,193.20000633359,2|2|8
188,212,148293,5,6
256,336,148773,1,8
324,212,149253,1,2
256,88,149733,1,8
120,124,150213,22,2,B|56:140|52:192|56:244|120:260,1,193.20000633359,2|0
200,260,151173,2,2,B|264:244|268:192|264:140|200:124,1,193.20000633359,2|0
160,192,152133,1,2
60,332,152613,6,8,B|320:332,1,257.600008444786
452,332,154053,1,6
256,192,154533,12,6,156933
78,45,157893,38,6,B|82:93|125:156|192:124|196:57|256:33|315:57|319:124|382:156|429:93|433:45,1,436.799992189408,6|8
396,192,159813,6,2,B|376:252|324:288|256:324|188:288|136:252|116:192,1,363.999993491173,2|0
184,152,161253,1,8
296,40,161733,6,0,B|460:40,1,145.599997396469,6|2
328,152,162693,2,0,B|164:152,1,145.599997396469,6|8
108,260,163653,6,0,B|419:260,1,291.199994792938,6|2
332,360,165093,1,8
188,327,165573,6,6,B|117:327|76:360|92:140|101:208|188:327|194:182|196:204|188:56|101:175|92:244|76:24|117:56|188:56,1,436.799992189408,6|8
323,56,167493,6,6,B|394:56|436:24|420:244|410:175|323:56|317:201|316:180|323:327|410:208|420:140|436:360|394:327|323:327,1,436.799992189408,6|8
176,384,169413,5,6
336,384,169893,1,8
336,224,170373,1,6
176,224,170853,1,8
52,152,171333,6,0,B|68:32|208:32|236:32,1,218.399996094704,6|0
300,32,172293,2,0,B|304:32|444:32|460:152,1,218.399996094704,6|0
420,224,173253,6,6,B|360:244|272:192|452:128|328:120|256:84|184:120|60:128|236:192|152:244|92:224,1,436.799992189408,6|8
200,316,175173,6,0,B|216:359|256:360|296:360|312:316,3,145.599997396469,6|8|6|8
440,216,177093,6,2,B|412:128|320:120,1,145.599997396469,2|0
260,164,177813,2,2,B|297:281|419:291,1,218.399996094704,2|8
256,352,179013,5,6
256,192,179493,1,8
256,32,179973,1,6
396,108,180453,1,8
424,268,180933,6,2,B|332:336|332:336|312:276|256:256|200:276|180:336|180:336|88:268,1,436.799992189408,2|8
72,148,182853,6,2,B|163:226|163:226|200:200|259:179|312:200|349:226|349:226|440:148,1,436.799992189408,2|8
256,192,184773,12,6,188613
