osu file format v14

[General]
AudioFilename: Jake Kaufman - Shantae and the Pirate's Curse OST - 25 The Nightmare Woods (Run Run Rottytops!).mp3
AudioLeadIn: 0
PreviewTime: 0
Countdown: 1
SampleSet: Normal
StackLeniency: 0.7
Mode: 0
LetterboxInBreaks: 1
WidescreenStoryboard: 0

[Editor]
DistanceSpacing: 1
BeatDivisor: 4
GridSize: 4
TimelineZoom: 1.3

[Metadata]
Title:The Nightmare Woods (Run Run Rottytops!)
TitleUnicode:The Nightmare Woods (Run Run Rottytops!)
Artist:Jake Kaufman
ArtistUnicode:Jake Kaufman
Creator:Davidozzo
Version:Hyper
Source:Shantae and the Pirate's Curse
Tags:Mowtendo Bodywash DT
BeatmapID:871187
BeatmapSetID:400392

[Difficulty]
HPDrainRate:6
CircleSize:4
OverallDifficulty:6.5
ApproachRate:8
SliderMultiplier:1.4
SliderTickRate:1

[Events]
//Background and Video events
//Break Periods
2,36773,39133
//Storyboard Layer 0 (Background)
//Storyboard Layer 1 (Fail)
//Storyboard Layer 2 (Pass)
//Storyboard Layer 3 (Foreground)
//Storyboard Sound Samples

[TimingPoints]
0,-100,4,1,0,80,0,0
1815,413.793103448276,4,1,0,100,1,0
18366,-100,4,1,0,100,0,1
27677,-100,4,1,0,100,0,0
32952,-100,4,1,0,60,0,0
39780,-100,4,1,0,100,0,0
53125,-100,4,1,0,100,0,1
62435,-100,4,1,0,100,0,0

[HitObjects]
208,44,1815,5,0,0:0:0:0:
76,96,2021,1,0,0:0:0:0:
84,128,2125,1,0,0:0:0:0:
104,152,2228,2,0,P|140:176|196:168,1,70
304,140,2642,2,0,P|300:180|272:216,1,70
192,292,3056,2,0,P|220:324|272:324,1,70
404,260,3470,5,0,0:0:0:0:
348,132,3677,1,0,0:0:0:0:
324,112,3780,1,0,0:0:0:0:
292,108,3883,1,0,0:0:0:0:
196,204,4090,1,0,0:0:0:0:
120,92,4297,2,0,L|48:20,1,70
296,92,4711,2,0,L|384:40,1,70
396,212,5125,5,0,0:0:0:0:
280,284,5332,1,0,0:0:0:0:
251,292,5435,1,0,0:0:0:0:
220,283,5539,1,0,0:0:0:0:
120,200,5746,5,0,0:0:0:0:
80,96,5952,1,0,0:0:0:0:
204,200,6159,1,0,0:0:0:0:
140,44,6366,1,0,0:0:0:0:
40,168,6573,1,0,0:0:0:0:
200,108,6780,2,0,P|232:96|276:52,1,70
380,48,7194,5,0,0:0:0:0:
404,72,7297,1,0,0:0:0:0:
416,104,7401,1,0,0:0:0:0:
412,140,7504,1,0,0:0:0:0:
399,172,7608,1,0,0:0:0:0:
304,256,7815,1,0,0:0:0:0:
172,252,8021,2,0,P|136:236|108:200,1,70
88,48,8435,6,0,P|120:60|160:96,1,70
172,104,8746,1,0,0:0:0:0:
192,128,8849,1,0,0:0:0:0:
256,216,9056,1,0,0:0:0:0:
360,156,9263,2,0,L|432:112,1,70
264,60,9677,6,0,L|256:24,2,35
140,120,10090,2,0,P|108:136|76:176,1,70
72,188,10401,1,0,0:0:0:0:
76,220,10504,1,0,0:0:0:0:
200,304,10711,1,0,0:0:0:0:
296,212,10918,2,0,P|304:172|292:136,1,70
252,48,11332,1,0,0:0:0:0:
72,320,11746,6,0,P|83:284|114:251,1,70
123,236,12056,1,0,0:0:0:0:
149,221,12159,1,0,0:0:0:0:
280,244,12366,1,0,0:0:0:0:
220,112,12573,1,0,0:0:0:0:
368,128,12780,2,0,P|400:120|444:128,2,70
256,188,13401,2,0,L|204:244,1,70
85,147,13815,5,0,0:0:0:0:
116,133,13918,1,0,0:0:0:0:
147,118,14021,1,0,0:0:0:0:
179,103,14125,1,0,0:0:0:0:
210,87,14228,2,0,P|230:55|226:11,2,70
156,23,14849,1,0,0:0:0:0:
148,185,15056,5,0,0:0:0:0:
310,255,15263,1,0,0:0:0:0:
299,92,15470,1,0,0:0:0:0:
244,196,15677,2,0,L|232:293,2,70
250,193,16297,1,0,0:0:0:0:
198,97,16711,5,0,0:0:0:0:
315,77,16918,1,0,0:0:0:0:
388,162,17125,1,0,0:0:0:0:
177,199,17332,1,0,0:0:0:0:
297,256,17539,2,0,P|299:222|285:184,1,70
249,91,17952,1,0,0:0:0:0:
241,85,18366,5,0,0:0:0:0:
375,63,18573,5,0,0:0:0:0:
395,91,18677,1,0,0:0:0:0:
404,124,18780,1,0,0:0:0:0:
405,158,18883,1,0,0:0:0:0:
392,191,18987,1,0,0:0:0:0:
372,220,19090,1,0,0:0:0:0:
346,241,19194,2,0,P|310:239|270:214,1,70
205,114,19608,2,0,P|235:96|269:93,1,70
367,131,20021,1,0,0:0:0:0:
248,208,20228,5,0,0:0:0:0:
213,214,20332,1,0,0:0:0:0:
178,206,20435,1,0,0:0:0:0:
145,192,20539,1,0,0:0:0:0:
117,170,20642,1,0,0:0:0:0:
102,139,20746,1,0,0:0:0:0:
98,105,20849,2,0,L|96:12,2,70
51,209,21470,2,0,P|76:226|116:230,1,70
209,128,21883,5,0,0:0:0:0:
225,96,21987,1,0,0:0:0:0:
254,77,22090,1,0,0:0:0:0:
290,73,22194,1,0,0:0:0:0:
320,89,22297,1,0,0:0:0:0:
336,120,22401,1,0,0:0:0:0:
349,151,22504,2,0,P|364:191|395:232,1,70
260,254,22918,2,0,P|248:286|207:324,1,70
113,184,23332,5,0,0:0:0:0:
131,154,23435,1,0,0:0:0:0:
151,125,23539,1,0,0:0:0:0:
175,100,23642,1,0,0:0:0:0:
205,81,23746,1,0,0:0:0:0:
238,71,23849,1,0,0:0:0:0:
273,74,23952,1,0,0:0:0:0:
305,88,24056,1,0,0:0:0:0:
329,108,24159,2,0,P|359:113|408:108,2,70
253,171,24780,1,0,0:0:0:0:
171,284,24987,6,0,P|136:285|98:266,1,70
147,182,25401,2,0,P|111:169|83:125,1,70
209,100,25815,2,0,P|188:65|194:24,1,70
324,117,26228,2,0,P|329:75|371:48,1,70
411,185,26642,1,0,0:0:0:0:
322,265,26849,5,0,0:0:0:0:
299,291,26952,1,0,0:0:0:0:
265,302,27056,1,0,0:0:0:0:
230,300,27159,1,0,0:0:0:0:
200,280,27263,1,0,0:0:0:0:
184,248,27366,1,0,0:0:0:0:
190,213,27470,2,0,L|223:215,3,23.3333333333333
118,124,27883,2,0,P|92:101|46:115,1,70
275,42,28297,6,0,P|284:78|312:125,1,70
462,103,28711,2,0,P|453:146|427:178,1,70
322,247,29125,1,0,0:0:0:0:
184,200,29332,1,0,0:0:0:0:
293,114,29539,1,0,0:0:0:0:
198,110,29952,5,0,0:0:0:0:
220,137,30056,1,0,0:0:0:0:
243,163,30159,1,0,0:0:0:0:
367,136,30366,1,0,0:0:0:0:
350,167,30470,1,0,0:0:0:0:
330,196,30573,1,0,0:0:0:0:
257,270,30780,2,0,L|248:348,2,70
304,148,31608,5,0,0:0:0:0:
320,116,31712,1,0,0:0:0:0:
337,85,31815,1,0,0:0:0:0:
224,87,32022,1,0,0:0:0:0:
189,78,32126,1,0,0:0:0:0:
156,66,32229,1,0,0:0:0:0:
68,129,32436,2,0,P|89:155|135:174,1,70
256,192,32849,1,4,0:0:0:0:
256,192,33263,12,0,36573,0:0:0:0:
116,212,39883,5,0,0:0:0:0:
232,284,40090,1,0,0:0:0:0:
261,292,40193,1,0,0:0:0:0:
292,283,40297,1,0,0:0:0:0:
392,200,40504,5,0,0:0:0:0:
432,96,40710,1,0,0:0:0:0:
308,200,40917,1,0,0:0:0:0:
372,44,41124,1,0,0:0:0:0:
472,168,41331,1,0,0:0:0:0:
312,108,41538,2,0,P|280:96|236:52,1,70
132,48,41952,5,0,0:0:0:0:
108,72,42055,1,0,0:0:0:0:
96,104,42159,1,0,0:0:0:0:
100,140,42262,1,0,0:0:0:0:
113,172,42366,1,0,0:0:0:0:
208,256,42573,1,0,0:0:0:0:
340,252,42779,2,0,P|376:236|404:200,1,70
424,48,43193,6,0,P|392:60|352:96,1,70
340,104,43504,1,0,0:0:0:0:
320,128,43607,1,0,0:0:0:0:
256,216,43814,1,0,0:0:0:0:
152,156,44021,2,0,L|80:112,1,70
248,60,44435,6,0,L|256:24,2,35
372,120,44848,2,0,P|404:136|436:176,1,70
440,188,45159,1,0,0:0:0:0:
436,220,45262,1,0,0:0:0:0:
312,304,45469,1,0,0:0:0:0:
216,212,45676,2,0,P|208:172|220:136,1,70
260,48,46090,1,0,0:0:0:0:
440,320,46504,6,0,P|428:284|397:251,1,70
389,236,46814,1,0,0:0:0:0:
363,221,46917,1,0,0:0:0:0:
232,244,47124,1,0,0:0:0:0:
292,112,47331,1,0,0:0:0:0:
144,128,47538,2,0,P|112:120|68:128,2,70
256,188,48159,2,0,L|308:244,1,70
427,147,48573,5,0,0:0:0:0:
396,133,48676,1,0,0:0:0:0:
365,118,48779,1,0,0:0:0:0:
333,103,48883,1,0,0:0:0:0:
302,87,48986,2,0,P|282:55|286:11,2,70
356,23,49607,1,0,0:0:0:0:
364,185,49814,5,0,0:0:0:0:
202,255,50021,1,0,0:0:0:0:
213,92,50228,1,0,0:0:0:0:
268,196,50435,2,0,L|280:293,2,70
262,193,51055,1,0,0:0:0:0:
314,97,51469,5,0,0:0:0:0:
197,77,51676,1,0,0:0:0:0:
124,162,51883,1,0,0:0:0:0:
335,199,52090,1,0,0:0:0:0:
215,256,52297,2,0,P|212:222|227:184,1,70
263,91,52710,1,0,0:0:0:0:
271,85,53124,5,0,0:0:0:0:
137,63,53331,5,0,0:0:0:0:
117,91,53435,1,0,0:0:0:0:
108,124,53538,1,0,0:0:0:0:
107,158,53641,1,0,0:0:0:0:
120,191,53745,1,0,0:0:0:0:
140,220,53848,1,0,0:0:0:0:
166,241,53952,2,0,P|202:239|242:214,1,70
307,114,54366,2,0,P|276:96|242:93,1,70
145,131,54779,1,0,0:0:0:0:
264,208,54986,5,0,0:0:0:0:
299,214,55090,1,0,0:0:0:0:
334,206,55193,1,0,0:0:0:0:
367,192,55297,1,0,0:0:0:0:
395,170,55400,1,0,0:0:0:0:
410,139,55504,1,0,0:0:0:0:
414,105,55607,2,0,L|416:12,2,70
461,209,56228,2,0,P|436:226|396:230,1,70
303,128,56641,5,0,0:0:0:0:
287,96,56745,1,0,0:0:0:0:
258,77,56848,1,0,0:0:0:0:
222,73,56952,1,0,0:0:0:0:
192,89,57055,1,0,0:0:0:0:
176,120,57159,1,0,0:0:0:0:
163,151,57262,2,0,P|148:191|117:232,1,70
252,254,57676,2,0,P|264:286|305:324,1,70
399,184,58090,5,0,0:0:0:0:
381,154,58193,1,0,0:0:0:0:
361,125,58297,1,0,0:0:0:0:
337,100,58400,1,0,0:0:0:0:
307,81,58504,1,0,0:0:0:0:
274,71,58607,1,0,0:0:0:0:
239,74,58710,1,0,0:0:0:0:
207,88,58814,1,0,0:0:0:0:
183,108,58917,2,0,P|153:113|104:108,2,70
259,171,59538,1,0,0:0:0:0:
341,284,59745,6,0,P|376:285|414:266,1,70
365,182,60159,2,0,P|401:169|429:125,1,70
303,100,60573,2,0,P|324:65|318:24,1,70
188,117,60986,2,0,P|183:75|141:48,1,70
101,185,61400,1,0,0:0:0:0:
190,265,61607,5,0,0:0:0:0:
213,291,61710,1,0,0:0:0:0:
247,302,61814,1,0,0:0:0:0:
282,300,61917,1,0,0:0:0:0:
312,280,62021,1,0,0:0:0:0:
328,248,62124,1,0,0:0:0:0:
322,213,62228,2,0,L|289:215,3,23.3333333333333
394,124,62641,2,0,P|420:101|466:115,1,70
237,42,63055,6,0,P|228:78|200:125,1,70
50,103,63469,2,0,P|59:146|85:178,1,70
190,247,63883,1,0,0:0:0:0:
328,200,64090,1,0,0:0:0:0:
219,114,64297,1,0,0:0:0:0:
314,110,64710,5,0,0:0:0:0:
292,137,64814,1,0,0:0:0:0:
269,163,64917,1,0,0:0:0:0:
145,136,65124,1,0,0:0:0:0:
162,167,65228,1,0,0:0:0:0:
182,196,65331,1,0,0:0:0:0:
255,270,65538,2,0,L|264:348,2,70
208,148,66366,5,0,0:0:0:0:
192,116,66470,1,0,0:0:0:0:
175,85,66573,1,0,0:0:0:0:
288,87,66780,1,0,0:0:0:0:
323,78,66884,1,0,0:0:0:0:
356,66,66987,1,0,0:0:0:0:
444,129,67194,2,0,P|423:155|377:174,1,70
256,192,67607,1,4,0:0:0:0:
256,192,68021,12,0,71332,0:0:0:0:
