osu file format v13

[General]
AudioFilename: In the Halls of the Usurper.mp3
AudioLeadIn: 1500
PreviewTime: 40
Countdown: 0
SampleSet: Soft
StackLeniency: 0.7
Mode: 0
LetterboxInBreaks: 0
WidescreenStoryboard: 1

[Editor]
DistanceSpacing: 0.8
BeatDivisor: 4
GridSize: 4
TimelineZoom: 3.299998

[Metadata]
Title:In the Halls of the Usurper
TitleUnicode:In the Halls of the Usurper
Artist:Jake Kaufman
ArtistUnicode:Jake Kaufman
Creator:Krisom
Version:Courtier
Source:Shovel Knight
Tags:Pridemoor Keep King Knight
BeatmapID:449197
BeatmapSetID:188471

[Difficulty]
HPDrainRate:6
CircleSize:3.7
OverallDifficulty:6
ApproachRate:7
SliderMultiplier:2.2
SliderTickRate:2

[Events]
//Background and Video events
0,0,"BG.png",0,0
//Break Periods
//Storyboard Layer 0 (Background)
//Storyboard Layer 1 (Fail)
//Storyboard Layer 2 (Pass)
//Storyboard Layer 3 (Foreground)
//Storyboard Sound Samples
//Background Colour Transformations
3,100,163,162,255

[TimingPoints]
40,400,4,2,0,70,1,0
15240,400,4,2,0,70,1,0

[Colours]
Combo1 : 41,10,46
Combo2 : 0,202,0
Combo3 : 18,124,255
Combo4 : 242,24,57
Combo5 : 237,18,232

[HitObjects]
172,356,40,5,4,1:2:0:0:
128,276,240,1,2,0:0:0:0:
216,276,440,1,8,0:1:0:0:
172,200,640,1,0,0:0:0:0:
212,120,840,2,0,P|164:84|112:92,1,110,0|2,0:0|0:0,0:0:0:0:
300,120,1240,2,0,P|348:84|400:92,1,110,8|0,0:1|0:0,0:0:0:0:
424,172,1640,2,0,P|376:208|324:200,1,110,0|0,3:0|0:0,0:0:0:0:
256,252,2040,1,8,0:1:0:0:
308,324,2240,1,0,0:0:0:0:
396,324,2440,2,0,L|428:376,2,55,2|2|2,0:0|0:0|0:0,0:0:0:0:
456,260,2840,1,4,0:0:0:0:
472,104,3240,6,0,B|452:56|452:56|396:28,1,110,0|2,1:0|0:0,0:0:0:0:
344,92,3640,1,8,0:1:0:0:
256,92,3840,1,0,0:0:0:0:
168,92,4040,1,0,3:0:0:0:
212,168,4240,1,2,0:0:0:0:
300,168,4440,1,8,0:1:0:0:
256,244,4640,1,0,0:0:0:0:
164,240,4840,2,0,B|164:304|164:304|144:348,1,110,2|2,0:1|0:0,0:0:0:0:
84,280,5240,1,8,0:1:0:0:
348,240,5640,2,0,B|348:304|348:304|368:348,1,110,2|2,0:1|0:0,0:0:0:0:
428,280,6040,1,0,3:0:0:0:
340,28,6440,5,4,1:2:0:0:
384,108,6640,1,2,0:0:0:0:
296,108,6840,1,8,0:1:0:0:
340,184,7040,1,0,3:0:0:0:
296,260,7240,2,0,P|308:316|296:376,1,110,0|2,0:0|0:0,0:0:0:0:
213,367,7640,2,0,P|204:313|216:260,1,110,8|0,0:1|0:0,0:0:0:0:
164,188,8040,2,0,P|256:136|348:188,1,220,0|8,3:0|0:1,0:0:0:0:
328,284,8640,1,2,0:0:0:0:
256,336,8840,2,0,L|256:396,2,55,0|0|2,3:0|3:0|0:0,0:0:0:0:
184,284,9240,1,4,0:0:0:0:
124,104,9640,6,0,P|172:80|220:104,1,110,0|2,1:0|0:0,0:0:0:0:
304,180,10040,2,0,P|256:204|208:180,1,110,8|0,0:1|0:0,0:0:0:0:
292,104,10440,2,0,P|340:81|388:105,1,110,0|2,3:0|0:0,0:0:0:0:
388,192,10840,1,8,0:1:0:0:
340,268,11040,1,0,0:0:0:0:
256,296,11240,1,2,3:1:0:0:
172,268,11440,2,0,L|136:320,2,55,2|2|8,0:0|0:0|0:1,0:0:0:0:
124,192,11840,1,0,3:0:0:0:
52,120,12040,38,2,B|136:64|216:96|192:144|232:176|256:112|280:176|320:144|296:96|376:64|460:120,1,440,2|2,0:1|0:0,0:0:0:0:
256,192,13040,12,2,14840,0:0:0:0:
88,360,15240,54,0,P|37:347|29:296,1,110,4|2,0:1|0:0,0:0:0:0:
100,244,15640,2,0,B|168:204|204:244|240:284|308:244,1,220,0|0,1:0|3:0,0:0:0:0:
372,184,16240,1,2,0:0:0:0:
408,104,16440,2,0,P|360:8|260:32,1,220,0|0,1:0|3:0,0:0:0:0:
212,96,17040,1,2,0:0:0:0:
192,96,17140,1,0,0:0:0:0:
176,96,17240,1,0,1:0:0:0:
256,172,17440,2,0,B|300:172|300:172|320:160|320:160|364:160,2,110,2|0|2,0:0|3:0|0:0,0:0:0:0:
256,260,18040,1,0,1:0:0:0:
340,316,18240,1,2,0:0:0:0:
424,360,18440,6,0,P|475:347|483:296,1,110,4|2,3:0|0:0,0:0:0:0:
412,244,18840,2,0,B|344:204|308:244|272:284|204:244,1,220,0|0,1:0|3:0,0:0:0:0:
140,184,19440,1,2,0:0:0:0:
104,104,19640,2,0,P|152:8|252:32,1,220,0|0,1:0|3:0,0:0:0:0:
320,104,20240,2,0,L|372:68,2,55,2|0|0,0:0|0:0|1:0,0:0:0:0:
316,204,20640,2,0,B|360:204|360:204|388:216|388:216|432:216,2,110,2|0|2,0:0|3:0|0:0,0:0:0:0:
256,292,21240,2,0,L|144:292,1,110,0|2,1:0|0:0,0:0:0:0:
56,288,21640,6,0,P|8:192|56:96,1,220,4|0,3:0|1:0,0:0:0:0:
116,36,22240,1,2,3:1:0:0:
152,116,22440,2,0,B|220:156|256:116|292:76|360:116,1,220,2|0,0:3|1:0,0:0:0:0:
440,80,23040,1,2,0:0:0:0:
436,168,23240,1,0,3:0:0:0:
356,200,23440,2,0,L|356:264,2,55,2|0|0,0:0|0:0|1:0,0:0:0:0:
268,220,23840,2,0,P|228:252|168:252,1,110,2|0,0:0|3:0,0:0:0:0:
196,166,24240,2,0,P|142:166|100:200,1,110,2|0,0:0|1:0,0:0:0:0:
88,288,24640,1,2,0:0:0:0:
160,348,24840,6,0,B|212:376|256:322|256:322|300:376|352:348,1,220,4|0,3:0|1:0,0:0:0:0:
380,264,25440,1,2,0:0:0:0:
396,176,25640,1,0,3:0:0:0:
332,116,25840,2,0,B|336:60|336:60|300:20,1,110,2|0,0:0|1:0,0:0:0:0:
212,20,26240,2,0,B|176:60|176:60|180:116,1,110,2|0,0:0|3:0,0:0:0:0:
256,160,26640,1,2,0:0:0:0:
316,224,26840,2,0,P|356:276|404:288,1,110,0|2,1:0|0:0,0:0:0:0:
256,272,27240,2,0,L|256:392,1,110,0|2,3:0|0:0,0:0:0:0:
196,224,27640,2,0,P|156:276|108:288,1,110,0|2,1:0|0:0,0:0:0:0:
60,216,28040,21,4,1:2:0:0:
20,140,28240,1,2,0:0:0:0:
72,68,28440,2,0,B|144:32|144:32|232:32,1,165,0|8,1:0|0:3,0:0:0:0:
272,32,28840,2,0,P|316:104|436:76,1,220,8|0,0:3|1:0,0:0:0:0:
456,168,29440,2,0,L|516:168,2,55,2|0|0,0:0|0:0|3:0,0:0:0:0:
416,240,29840,1,2,0:0:0:0:
364,312,30040,2,0,B|256:332|256:332|148:312,1,220,0|0,1:0|3:0,0:0:0:0:
64,284,30640,1,2,0:0:0:0:
96,200,30840,1,0,1:0:0:0:
24,148,31040,1,2,0:0:0:0:
60,48,31240,6,0,P|96:104|140:100,1,110,4|2,3:0|0:0,0:0:0:0:
188,40,31640,2,0,P|216:96|196:152,1,110,0|2,1:0|0:0,0:0:0:0:
306,139,32040,2,0,P|297:86|324:39,1,110,0|2,3:0|0:0,0:0:0:0:
452,48,32440,2,0,P|416:104|372:100,1,110,0|2,1:0|0:0,0:0:0:0:
256,184,32840,1,0,3:0:0:0:
256,272,33040,1,2,0:0:0:0:
256,288,33140,1,0,0:0:0:0:
256,304,33240,1,0,1:0:0:0:
176,344,33440,1,2,0:0:0:0:
104,296,33640,2,0,P|40:284|0:328,1,110,0|2,3:0|0:0,0:0:0:0:
104,296,34040,2,0,L|44:200,1,110,0|2,1:0|0:0,0:0:0:0:
4,124,34440,6,0,P|40:72|96:80,1,110,4|2,3:0|0:0,0:0:0:0:
148,132,34840,2,0,P|256:286|364:132,1,440,2|2,1:1|0:0,0:0:0:0:
292,80,35840,1,2,0:3:0:0:
222,170,36040,2,0,P|258:204|291:169,1,110,0|2,3:0|0:0,0:0:0:0:
220,80,36440,1,2,1:0:0:0:
172,252,36840,1,0,3:0:0:0:
256,276,37040,1,2,0:0:0:0:
340,252,37240,1,2,0:1:0:0:
352,252,37340,1,2,0:1:0:0:
364,252,37440,1,0,3:3:0:0:
428,192,37640,6,0,P|380:160|384:112,1,110,0|2,3:0|0:0,0:0:0:0:
256,32,38040,2,0,P|304:64|300:112,1,110,0|2,1:0|0:0,0:0:0:0:
256,260,38440,2,0,P|208:228|212:180,1,110,0|2,3:0|0:0,0:0:0:0:
80,120,38840,2,0,P|128:152|124:200,1,110,0|2,1:0|0:0,0:0:0:0:
48,240,39240,1,0,3:0:0:0:
112,304,39440,1,2,0:0:0:0:
180,372,39640,2,0,P|256:306|332:372,1,220,0|0,1:0|3:0,0:0:0:0:
400,304,40240,1,2,0:0:0:0:
464,240,40440,1,0,1:0:0:0:
464,240,40840,22,0,P|480:160|464:80,1,165,6|2,0:1|0:0,0:0:0:0:
444,52,41240,2,0,P|396:84|340:76,1,110,8|0,0:1|0:0,0:0:0:0:
272,128,41640,1,8,0:3:0:0:
256,140,41740,1,8,0:3:0:0:
240,152,41840,1,8,0:3:0:0:
224,164,41940,1,8,0:3:0:0:
208,176,42040,1,8,0:3:0:0:
136,228,42240,1,8,0:3:0:0:
48,240,42440,6,0,P|32:160|48:80,1,165,2|2,0:1|0:0,0:0:0:0:
68,52,42840,2,0,P|116:84|172:76,1,110,8|0,0:1|0:0,0:0:0:0:
240,128,43240,1,2,0:3:0:0:
256,140,43340,1,2,0:3:0:0:
272,152,43440,1,2,0:3:0:0:
288,164,43540,1,2,0:3:0:0:
304,176,43640,1,2,0:3:0:0:
376,228,43840,1,8,0:3:0:0:
336,308,44040,6,0,P|256:324|176:308,1,165,2|2,0:1|0:0,0:0:0:0:
168,264,44440,2,0,P|148:224|88:204,1,110,8|0,0:1|0:0,0:0:0:0:
136,96,44840,2,0,P|156:136|216:156,1,110,0|2,3:0|0:0,0:0:0:0:
300,76,45240,1,8,0:1:0:0:
212,76,45440,1,0,0:0:0:0:
297,156,45640,2,0,P|349:142|376:96,1,110,0|2,3:0|0:0,0:0:0:0:
424,203,46040,2,0,P|372:217|344:264,1,110,8|0,0:1|0:0,0:0:0:0:
336,352,46440,1,0,3:0:0:0:
260,312,46640,1,2,0:0:0:0:
176,352,46840,1,8,0:1:0:0:
88,336,47040,1,2,0:0:0:0:
104,252,47240,6,0,B|124:172|124:172|104:92,1,165,2|2,1:0|0:0,0:0:0:0:
80,56,47640,2,0,P|120:12|184:44,1,110,8|0,0:1|0:0,0:0:0:0:
236,72,48040,2,0,L|216:144,4,55,8|8|8|8|8,0:3|0:3|0:3|0:3|0:3,0:0:0:0:
288,0,48640,1,8,0:3:0:0:
348,72,48840,2,0,B|380:140|380:140|348:232,1,165,2|2,0:1|0:0,0:0:0:0:
336,264,49240,2,0,P|392:264|436:296,1,110,8|0,0:1|0:0,0:0:0:0:
364,344,49640,2,0,L|320:388,4,55,8|8|8|8|8,0:3|0:3|0:3|0:3|0:3,0:0:0:0:
244,360,50240,1,2,0:3:0:0:
188,288,50440,22,0,P|112:316|56:260,1,165,2|2,0:1|0:0,0:0:0:0:
36,224,50840,2,0,B|60:176|60:176|44:116,1,110,8|0,0:1|0:0,0:0:0:0:
96,48,51240,2,0,B|126:92|126:92|180:107,1,110,0|2,3:0|0:0,0:0:0:0:
216,188,51640,2,0,B|163:191|163:191|123:231,1,110,8|0,0:1|0:0,0:0:0:0:
56,296,52040,53,4,1:0:0:0:
456,296,52440,1,4,1:0:0:0:
256,216,52840,2,0,L|256:272,4,55,0|0|0|0|0,0:0|0:0|0:0|0:0|0:0,0:0:0:0:
256,196,53340,1,0,0:0:0:0:
256,176,53440,1,0,0:0:0:0:
256,156,53540,1,0,0:0:0:0:
256,136,53640,1,4,0:0:0:0:
144,76,54040,6,0,P|112:120|56:120,1,110,8|0,1:1|0:0,1:0:0:0:
28,204,54440,2,0,L|8:264,2,55,0|0|0,3:0|3:0|3:0,0:0:0:0:
112,232,54840,1,8,0:1:0:0:
172,296,55040,1,0,0:0:0:0:
172,296,55240,2,0,P|256:356|340:296,1,220,0|8,1:0|0:1,0:0:0:0:
400,232,55840,1,0,0:0:0:0:
484,204,56040,2,0,L|504:264,2,55,0|0|0,3:0|3:0|3:0,0:0:0:0:
451,121,56440,2,0,P|398:119|368:76,1,110,8|0,0:1|0:0,0:0:0:0:
256,36,56840,6,0,B|204:96|256:136|308:176|256:236,1,220,0|8,1:0|0:1,0:0:0:0:
168,236,57440,1,2,0:0:0:0:
212,312,57640,2,0,L|212:376,2,55,0|0|0,3:0|3:0|3:0,0:0:0:0:
300,312,58040,2,0,L|300:376,2,55,8|2|2,0:1|0:0|0:0,0:0:0:0:
344,236,58440,1,0,1:0:0:0:
388,160,58640,1,0,0:0:0:0:
332,92,58840,2,0,L|368:40,2,55,8|2|2,0:1|0:0|0:0,0:0:0:0:
256,32,59240,1,0,3:0:0:0:
256,32,59440,1,0,3:0:0:0:
180,92,59640,2,0,L|144:40,2,55,8|2|2,0:1|0:0|0:0,0:0:0:0:
124,160,60040,6,8,L|64:160,2,55,8|8|8,0:0|0:0|0:0,0:0:0:0:
104,244,60440,2,0,P|116:296|172:296,1,110,8|8,0:0|3:0,0:0:0:0:
200,272,60740,1,8,0:0:0:0:
276,316,60940,1,8,0:0:0:0:
348,364,61140,1,8,3:0:0:0:
396,368,61240,2,0,P|448:344|444:284,1,110,8|8,0:0|3:0,0:0:0:0:
388,224,61640,6,0,L|448:224,2,55,8|8|8,0:0|0:0|0:0,0:0:0:0:
408,140,62040,2,0,P|396:88|340:88,1,110,8|8,0:0|3:0,0:0:0:0:
312,112,62340,1,8,0:0:0:0:
236,68,62540,1,8,0:0:0:0:
164,20,62740,1,8,3:0:0:0:
120,8,62840,2,0,P|68:32|72:92,1,110,8|4,0:0|0:0,0:0:0:0:
256,192,63140,12,2,64640,0:0:0:0:
256,104,65040,6,0,L|256:24,4,55,2|2|0|2|2,0:0|0:0|3:0|0:0|0:0,0:0:0:0:
256,192,65640,1,0,3:0:0:0:
256,208,65740,1,0,0:0:0:0:
256,224,65840,1,2,0:0:0:0:
256,240,65940,1,2,0:0:0:0:
256,256,66040,1,0,3:0:0:0:
256,272,66140,1,0,3:0:0:0:
256,288,66240,1,8,0:0:0:0:
256,304,66340,1,8,0:0:0:0:
256,320,66440,1,4,1:2:0:0:
