osu file format v10

[General]
AudioFilename: Karoshi_Factory_In_Game.mp3
AudioLeadIn: 0
PreviewTime: 63629
Countdown: 0
SampleSet: Normal
StackLeniency: 0.7
Mode: 0
LetterboxInBreaks: 1

[Editor]
Bookmarks: 15907,31814,47721,63628,79039,95443,111350,127257,143165,159072,174979,182933,198840,214747
DistanceSpacing: 0.8
BeatDivisor: 2
GridSize: 4

[Metadata]
Title:Karoshi Factory In Game
TitleUnicode:Karoshi Factory In Game
Artist:Jake Almond
ArtistUnicode:Jake Almond
Creator:Madball
Version:Suicide
Source:Karoshi Factory
Tags:videogame soundtrack
BeatmapID:138856
BeatmapSetID:44312

[Difficulty]
HPDrainRate:1
CircleSize:3
OverallDifficulty:1
ApproachRate:1
SliderMultiplier:0.999999999999999
SliderTickRate:1

[Events]
//Background and Video events
0,0,"BG.jpg"
//Break Periods
2,47721,61948
2,127457,141485
//Storyboard Layer 0 (Background)
//Storyboard Layer 1 (Fail)
//Storyboard Layer 2 (Pass)
//Storyboard Layer 3 (Foreground)
//Storyboard Sound Samples
//Background Colour Transformations
3,100,163,162,255

[TimingPoints]
0.147540983606632,497.100248550124,4,1,0,100,1,0
15907,-100,4,1,0,60,0,0
31814,-100,4,1,0,100,0,0
95443,-100,4,1,0,100,0,1
111350,-100,4,1,0,100,0,0
143165,-117.647058823529,4,1,0,40,0,0
157083,-117.647058823529,4,1,0,70,0,0
159072,-100,4,1,0,100,0,0
182933,-100,4,1,0,100,0,1
198840,-100,4,1,0,100,0,0

[Colours]
Combo1 : 96,70,32
Combo2 : 32,96,32
Combo3 : 32,32,96
Combo4 : 96,32,32

[HitObjects]
72,192,15907,6,0,B|88:80|208:64,1,200,8|0,0:0|0:0,0:0:0
360,88,17895,1,8,0:0:0
328,244,18890,1,0,0:0:0
168,256,19884,6,0,B|88:296|32:184|112:144,1,200,8|0,0:0|0:0,0:0:0
256,80,21872,1,8,0:0:0
416,80,22866,1,0,0:0:0
360,136,23363,2,0,B|399:175,2,50,8|8|8,0:0|0:0|0:0,0:0:0
208,192,24855,5,0,0:0:0
112,320,25849,2,0,B|208:366|304:320,1,200,8|0,0:0|0:0,0:0:0
444,240,27837,6,0,B|468:192|444:144,2,99.9999999999999,8|0|0,0:0|0:0|0:0,0:0:0
304,320,29826,1,8,0:0:0
320,160,30820,1,0,0:0:0
208,48,31814,6,0,B|152:-8|56:88|112:144,2,200,8|0|8,0:0|0:0|0:0,0:0:0
192,128,34300,2,0,B|182:195|153:214|124:224|105:243|95:243|76:224|95:204|105:204|124:224|153:233|182:252|192:320,1,300,0|8,0:0|0:0,0:0:0
256,184,36785,1,0,0:0:0
320,318,37779,2,0,B|329:252|358:233|387:224|406:204|416:204|435:224|416:243|406:243|387:224|358:214|329:195|320:128,1,300,8|0,0:0|0:0,0:0:0
304,48,39768,6,0,B|360:-8|456:88|400:144,2,200,8|0|8,0:0|0:0|0:0,0:0:0
240,192,42750,1,0,0:0:0
160,200,43247,1,0,0:0:0
96,152,43744,5,8,0:0:0
248,96,44739,2,0,P|304:84|352:84,1,99.9999999999999
420,112,45733,1,8,0:0:0
420,272,46727,1,0,0:0:0
128,144,63628,6,0,B|108:192|128:240,1,99.9999999999999,8|0,0:0|0:0,0:0:0
192,208,64623,2,0,P|230:114|164:62,2,200,0|8|0,0:0|0:0|0:0,0:0:0
176,368,67605,5,8,0:0:0
336,368,68599,1,0,0:0:0
320,208,69594,2,0,P|282:114|348:62,2,200,8|0|8,0:0|0:0|0:0,0:0:0
356,140,72079,6,0,B|308:108|260:92|212:84|164:92|116:108|68:140,1,300,0|8,0:0|0:0,0:0:0
128,192,74068,2,0,P|200:272|288:264,1,200
352,224,75559,5,8,0:0:0
256,352,76553,1,0,0:0:0
160,224,77547,2,0,P|160:175|272:96,1,200,8|0,0:0|0:0,0:0:0
312,160,79039,1,0,0:0:0
272,96,79536,6,0,B|252:32|132:32|112:96,1,200,4|0,0:0|0:0,0:0:0
80,256,81524,2,2,B|104:304|160:304,3,99.9999999999999,0|0|0|2,0:0|0:0|0:0|0:0,0:0:0
232,272,83512,5,4,0:0:0
280,112,84507,1,0,0:0:0
350,79,85004,2,0,B|408:80|432:128,1,99.9999999999999,0|2,0:0|0:0,0:0:0
352,152,85998,2,2,B|256:200|160:152,1,200
208,88,87489,6,0,B|256:112|304:88,2,99.9999999999999,4|0|0,0:0|0:0|0:0,0:0:0
256,24,88981,1,0,0:0:0
336,40,89478,2,2,B|440:72|488:192|440:312|336:344,1,400,2|6,0:0|0:0,0:0:0
256,208,92460,5,0,0:0:0
256,128,92957,1,0,0:0:0
256,192,93454,12,0,94946,0:0:0
104,144,95940,6,0,B|80:192|104:240,1,99.9999999999999,0|8,0:0|0:0,0:0:0
256,192,97431,1,8,0:0:0
408,144,98425,2,0,B|432:192|408:240,1,99.9999999999999,8|0,0:0|0:0,0:0:0
364,302,99420,6,0,P|272:292|208:212,1,200,8|8,0:0|0:0,0:0:0
360,164,101408,2,0,P|296:84|204:74,1,200,8|8,0:0|0:0,0:0:0
96,192,103396,5,8,0:0:0
224,280,104390,2,0,B|256:260|267:224|256:192|241:160|256:124|288:104,1,200,8|8,0:0|0:0,0:0:0
416,192,106379,1,8,0:0:0
268,132,107373,6,2,B|204:112|148:192|184:260|256:288|312:256|320:192,1,300,2|2,0:0|0:0,0:0:0
256,192,109362,12,8,111350,0:0:0
208,56,112344,6,0,P|120:80|64:167,1,200,0|8,0:0|0:0,0:0:0
216,216,114333,1,0,0:0:0
136,352,115327,6,0,B|192:352|232:328|240:312|256:279|256:279|272:312|280:328|320:352|376:352,1,300,8|0,0:0|0:0,0:0:0
408,280,117315,1,8,0:0:0
296,168,118310,1,0,0:0:0
168,72,119304,6,0,B|192:120|168:168,1,99.9999999999999,8|0,0:0|0:0,0:0:0
104,120,120298,2,0,B|80:168|104:216,1,99.9999999999999
176,248,121292,1,8,0:0:0
328,296,122286,1,0,0:0:0
448,192,123281,6,0,B|472:144|448:96,1,99.9999999999999,8|0,0:0|0:0,0:0:0
384,144,124275,2,0,B|360:96|384:48,1,99.9999999999999
256,192,125269,12,4,127257,0:0:0
256,32,143165,6,0,P|398:112|395:272,1,340.000006484985
117,272,147141,6,0,P|114:112|256:32,1,340.000006484985
394,272,151118,6,0,P|257:354|117:272,1,340.000006484985
272,120,155095,6,0,B|336:144|352:216|328:256|272:304|192:272|168:216|192:160,2,340.000006484985,2|8|8,0:0|0:0|0:0,0:0:0
112,144,160066,6,0,B|88:192|112:240,1,99.9999999999999
176,192,161060,2,0,B|176:160|192:120|240:120|256:160|256:192|256:192|256:224|272:264|320:264|336:224|336:192,1,300,8|0,0:0|0:0,0:0:0
400,240,163049,6,0,B|424:192|400:144,1,99.9999999999999,8|0,0:0|0:0,0:0:0
336,96,164043,1,0,0:0:0
176,96,165037,1,8,0:0:0
256,112,165534,2,0,B|280:136|280:182|256:206|232:230|232:276|256:300,1,200
336,304,167025,6,0,B|432:240|376:128,1,200,8|0,0:0|0:0,0:0:0
216,128,169014,1,8,0:0:0
192,200,169511,2,0,B|192:256|256:296|320:256|320:200,1,200
296,128,171002,5,8,0:0:0
136,128,171996,2,0,B|80:240|176:304,1,200,0|8,0:0|0:0,0:0:0
256,300,173488,2,0,B|280:276|280:230|256:206|232:182|232:136|256:112,1,200
176,88,174979,5,8,0:0:0
336,88,175973,1,8,0:0:0
352,248,176967,2,8,B|256:300|160:248,1,200,12|12,0:0|0:0,0:0:0
148,88,178956,5,0,0:0:0
304,60,179950,1,0,0:0:0
420,172,180944,2,0,P|344:220|236:216,1,200
144,88,182933,6,0,B|64:80|32:184|104:224,1,200,4|0,0:0|0:0,0:0:0
256,192,184921,2,2,B|296:160|348:160,1,99.9999999999999
320,232,185915,2,2,B|280:264|228:264,1,99.9999999999999
158,224,186909,5,4,0:0:0
160,64,187904,2,0,B|256:16|352:64,1,200,0|2,0:0|0:0,0:0:0
312,136,189395,1,2,0:0:0
256,192,189892,1,2,0:0:0
200,136,190389,1,2,0:0:0
256,80,190886,5,4,0:0:0
304,232,191880,2,0,B|256:256|208:232,1,99.9999999999999
256,168,192875,2,2,B|256:136|216:108|216:72,1,99.9999999999999
295,77,193869,2,2,B|296:108|256:136|256:168,1,99.9999999999999
328,208,194863,6,0,B|256:248|184:208,2,150,4|8|8,0:0|0:0|0:0,0:0:0
256,192,196851,12,4,198840,0:0:0
