osu file format v10

[General]
AudioFilename: Karoshi_Factory_In_Game.mp3
AudioLeadIn: 0
PreviewTime: 63629
Countdown: 0
SampleSet: Normal
StackLeniency: 0.7
Mode: 0
LetterboxInBreaks: 1

[Editor]
Bookmarks: 15907,31814,47721,63628,79536,95443,111350,127257,143165,159072,174979,182933,198840,214747
DistanceSpacing: 0.8
BeatDivisor: 2
GridSize: 4

[Metadata]
Title:Karoshi Factory In Game
TitleUnicode:Karoshi Factory In Game
Artist:Jake Almond
ArtistUnicode:Jake Almond
Creator:Madball
Version:Seppuku
Source:Karoshi Factory
Tags:videogame soundtrack
BeatmapID:138855
BeatmapSetID:44312

[Difficulty]
HPDrainRate:4
CircleSize:3
OverallDifficulty:4
ApproachRate:4
SliderMultiplier:1.5
SliderTickRate:1

[Events]
//Background and Video events
0,0,"BG.jpg"
//Break Periods
2,47672,62308
2,127457,141845
//Storyboard Layer 0 (Background)
//Storyboard Layer 1 (Fail)
//Storyboard Layer 2 (Pass)
//Storyboard Layer 3 (Foreground)
//Storyboard Sound Samples
//Background Colour Transformations
3,100,163,162,255

[TimingPoints]
0.147540983606632,497.100248550124,4,1,0,100,1,0
15907,-100,4,1,0,60,0,0
31814,-100,4,1,0,100,0,0
95443,-100,4,1,0,100,0,1
111350,-100,4,1,0,100,0,0
143165,-100,4,1,0,40,0,0
157083,-100,4,1,0,70,0,0
159072,-100,4,1,0,100,0,0
182933,-100,4,1,0,100,0,1
198840,-100,4,1,0,100,0,0

[Colours]
Combo1 : 96,70,32
Combo2 : 32,96,32
Combo3 : 32,32,96
Combo4 : 96,32,32

[HitObjects]
96,48,15907,6,0,P|61:192|96:336,1,300,8|0,0:0|0:0,0:0:0
196,272,17398,1,0,0:0:0
316,272,17895,1,8,0:0:0
416,336,18392,2,0,P|451:192|416:48,1,300
304,80,19884,6,0,P|192:192,1,150,8|0,0:0|0:0,0:0:0
120,280,20878,1,0,0:0:0
120,160,21375,1,0,0:0:0
208,80,21872,2,0,P|320:192,1,150,8|0,0:0|0:0,0:0:0
384,280,22866,2,0,P|328:320|248:328,1,150,0|8,0:0|0:0,0:0:0
192,312,23612,1,8,0:0:0
152,264,23860,6,0,P|135:192|152:120,1,150,8|0,0:0|0:0,0:0:0
256,176,24855,1,0,0:0:0
360,120,25352,2,0,P|377:192|360:264,1,150,0|8,0:0|0:0,0:0:0
240,288,26346,2,0,P|184:240|168:168,1,150
272,96,27340,2,0,P|328:144|344:216,1,150,0|8,0:0|0:0,0:0:0
256,296,28334,5,0,0:0:0
176,208,28831,2,0,P|144:136|136:64,1,150
256,96,29826,1,8,0:0:0
376,65,30323,2,0,P|368:136|336:208,1,150
256,296,31317,1,0,0:0:0
144,256,31814,6,0,P|208:184|256:168,1,150,8|0,0:0|0:0,0:0:0
376,136,32808,2,0,P|256:60|136:136,1,300,0|8,0:0|0:0,0:0:0
256,192,34300,1,0,0:0:0
344,256,34797,2,0,P|377:192|344:128,1,150
224,128,35791,6,0,P|224:176|200:200|176:224|176:272,1,150,8|0,0:0|0:0,0:0:0
288,304,36785,2,0,P|368:288|424:248,1,150
416,128,37779,1,8,0:0:0
304,96,38276,1,0,0:0:0
256,208,38773,2,0,P|256:288,2,75
208,96,39768,5,8,0:0:0
96,128,40265,1,0,0:0:0
89,249,40762,2,0,P|144:288|224:304,1,150
335,267,41756,2,0,P|336:224|312:200|288:176|288:128,1,150,8|0,0:0|0:0,0:0:0
184,72,42750,2,0,P|104:72,2,75
256,168,43744,6,0,P|200:210|120:224,1,150,8|0,0:0|0:0,0:0:0
196,320,44739,1,0,0:0:0
316,320,45236,1,0,0:0:0
389,224,45733,2,0,P|312:210|256:168,1,150,8|0,0:0|0:0,0:0:0
328,72,46727,2,0,P|408:72,3,75,0|0|0|4,0:0|0:0|0:0|0:0,0:0:0
136,64,63628,6,0,P|104:136|120:208,1,150,0|8,0:0|0:0,0:0:0
160,248,64374,1,0,0:0:0
216,256,64623,2,0,P|288:224|328:168,1,150,0|8,0:0|0:0,0:0:0
328,48,65617,2,0,P|256:80|216:136,1,150,0|8,0:0|0:0,0:0:0
392,96,66860,1,0,0:0:0
424,144,67108,2,0,P|458:208|424:272,1,150,8|0,0:0|0:0,0:0:0
368,288,67854,5,0,0:0:0
316,256,68102,2,0,P|316:104,1,150,8|0,0:0|0:0,0:0:0
196,128,69097,2,0,P|196:280,1,150,8|0,0:0|0:0,0:0:0
232,328,69842,2,0,P|276:320|300:304,1,75,0|8,0:0|0:0,0:0:0
348,264,70339,2,0,P|364:144|296:76,1,225,0|8,0:0|0:0,0:0:0
176,64,71582,6,0,P|159:136|176:208,1,150,0|8,0:0|0:0,0:0:0
296,240,72576,2,0,P|376:224|432:184,1,150,0|8,0:0|0:0,0:0:0
368,80,73570,2,0,P|296:63|224:80,1,150,0|8,0:0|0:0,0:0:0
256,132,74316,2,0,P|304:204|208:276|256:348,1,225,0|8,0:0|0:0,0:0:0
168,264,75559,5,0,0:0:0
152,208,75807,2,0,P|88:168,2,75,0|8|0,0:0|0:0|0:0,0:0:0
208,200,76553,2,0,P|280:200|368:232,1,150,0|8,0:0|0:0,0:0:0
288,328,77547,1,0,0:0:0
176,288,78044,1,8,0:0:0
172,228,78293,2,0,P|188:172|260:116,1,150
316,120,79039,1,8,0:0:0
412,192,79536,6,0,P|332:192,1,75,4|0,0:0|0:0,0:0:0
276,192,80033,1,8,0:0:0
328,84,80530,2,0,P|256:67|184:84,1,150,0|8,0:0|0:0,0:0:0
120,188,81524,2,2,P|188:244|256:188|256:188|324:244|392:188,2,300,2|2|6,0:0|0:0|0:0,0:0:0
200,96,84010,5,8,0:0:0
320,96,84507,1,0,0:0:0
256,200,85004,1,8,0:0:0
144,156,85501,2,2,P|256:72|368:156,2,300,2|2|6,0:0|0:0|0:0,0:0:0
200,320,88235,5,0,0:0:0
256,344,88483,2,0,P|336:336|392:296,1,150,0|8,0:0|0:0,0:0:0
448,192,89478,2,2,P|416:128|360:128|328:192|296:256|240:256|208:192,2,300,2|2|6,0:0|0:0|0:0,0:0:0
288,120,92212,2,0,P|349:79|423:70,2,150
256,192,93454,12,0,94946,0:0:0
244,42,95443,5,2,0:0:0
125,61,95940,1,8,0:0:0
106,179,96437,1,2,0:0:0
213,234,96934,1,8,0:0:0
298,149,97431,1,2,0:0:0
405,204,97928,1,8,0:0:0
386,322,98425,1,2,0:0:0
272,344,98923,1,8,0:0:0
184,256,99420,6,0,P|120:296,2,75,2|0|8,0:0|0:0|0:0,0:0:0
220,144,100414,1,2,0:0:0
316,64,100911,1,8,0:0:0
196,64,101408,1,2,0:0:0
292,144,101905,1,8,0:0:0
328,256,102402,2,0,P|392:296,2,75,2|0|8,0:0|0:0|0:0,0:0:0
216,296,103396,6,0,P|168:232|152:160,1,150,2|8,0:0|0:0,0:0:0
200,56,104391,1,2,0:0:0
256,40,104639,1,0,0:0:0
312,56,104888,1,8,0:0:0
359,164,105385,2,0,P|344:232|296:296,1,150,2|8,0:0|0:0,0:0:0
184,256,106379,2,0,P|151:192|184:128,1,150,2|8,0:0|0:0,0:0:0
304,96,107373,5,2,0:0:0
352,240,107870,1,2,0:0:0
208,288,108368,1,2,0:0:0
160,144,108865,1,2,0:0:0
256,192,109362,12,0,110853,0:0:0
128,96,111350,6,0,P|111:168|128:240,1,150,0|8,0:0|0:0,0:0:0
224,312,112344,1,0,0:0:0
320,240,112841,2,0,P|344:200|340:96,1,150,8|0,0:0|0:0,0:0:0
286,80,113587,1,0,0:0:0
226,80,113836,1,8,0:0:0
170,99,114084,2,0,P|168:200|192:240,1,150
248,264,114830,1,8,0:0:0
368,272,115327,6,0,P|351:200|368:128,1,150,0|8,0:0|0:0,0:0:0
256,80,116321,1,0,0:0:0
144,128,116818,2,0,P|161:200|144:272,1,150,8|0,0:0|0:0,0:0:0
256,312,117812,1,8,0:0:0
312,288,118061,2,0,P|344:216|232:176,1,225,0|8,0:0|0:0,0:0:0
112,152,119304,6,0,P|104:80|160:32,1,150,0|8,0:0|0:0,0:0:0
256,104,120298,1,0,0:0:0
353,32,120795,2,0,P|408:80|400:152,1,150,8|0,0:0|0:0,0:0:0
278,174,121789,2,0,P|168:216|200:288,1,225,8|0,0:0|0:0,0:0:0
256,312,122784,1,8,0:0:0
376,312,123281,6,0,P|452:192|376:72,1,300
256,96,124772,1,8,0:0:0
184,192,125269,1,0,0:0:0
256,288,125766,1,8,0:0:0
136,312,126263,2,0,P|60:192|136:72,1,300,0|4,0:0|0:0,0:0:0
80,96,143165,6,0,P|136:56|216:40,1,150,8|0,0:0|0:0,0:0:0
184,160,144159,1,0,0:0:0
192,280,144656,2,0,P|256:313|320:280,1,150,0|8,0:0|0:0,0:0:0
328,160,145650,1,0,0:0:0
297,39,146147,2,0,P|376:56|432:96,1,150
384,208,147141,5,8,0:0:0
296,288,147639,2,0,P|232:280|200:208,1,150
312,176,148633,2,0,P|280:104|216:96,1,150,0|8,0:0|0:0,0:0:0
128,176,149627,1,0,0:0:0
80,288,150124,2,0,P|136:328|214:344,1,150
328,296,151118,6,0,P|328:232|368:216|368:152,1,150,8|0,0:0|0:0,0:0:0
320,40,152112,1,0,0:0:0
192,40,152609,1,0,0:0:0
144,153,153107,2,0,P|144:216|184:232|184:296,1,150,8|0,0:0|0:0,0:0:0
297,344,154101,2,0,P|376:328|432:288,1,150
344,208,155095,6,0,P|324:136|264:96,1,150,8|0,0:0|0:0,0:0:0
168,176,156089,2,0,P|188:248|248:288,1,150
344,208,157083,1,8,0:0:0
272,104,157580,1,0,0:0:0
168,176,158078,1,8,0:0:0
240,280,158575,1,0,0:0:0
360,280,159072,6,0,P|424:232|440:160,1,150,0|8,0:0|0:0,0:0:0
416,112,159817,1,0,0:0:0
368,72,160066,2,0,P|288:64|232:104,2,150,0|8|0,0:0|0:0|0:0,0:0:0
336,192,161557,1,8,0:0:0
256,280,162054,1,0,0:0:0
176,192,162551,1,8,0:0:0
256,104,163049,6,0,P|328:96|400:136,1,150,0|8,0:0|0:0,0:0:0
408,192,163794,1,0,0:0:0
394,253,164043,2,0,P|328:288|256:280,1,150,0|8,0:0|0:0,0:0:0
240,160,165037,2,0,P|288:16,1,150,0|8,0:0|0:0,0:0:0
224,17,165782,2,0,P|272:160,1,150
296,216,166528,1,8,0:0:0
416,200,167025,6,0,P|368:136|312:96,1,150,0|8,0:0|0:0,0:0:0
272,144,167771,1,0,0:0:0
248,200,168020,2,0,P|216:272|152:296,1,150,0|8,0:0|0:0,0:0:0
72,208,169014,2,0,P|104:136|168:112,1,150,0|8,0:0|0:0,0:0:0
224,96,169759,2,0,P|304:88|360:44,1,150
404,88,170505,2,0,P|360:144|352:224,1,150,8|0,0:0|0:0,0:0:0
232,240,171499,5,8,0:0:0
128,184,171996,2,0,P|96:112|136:64,1,150,0|8,0:0|0:0,0:0:0
256,96,172991,1,0,0:0:0
376,64,173488,2,0,P|416:112|384:184,2,150,8|0|8,0:0|0:0|0:0,0:0:0
256,72,174979,6,0,P|176:48|128:160,1,225,0|8,0:0|0:0,0:0:0
176,192,175973,1,0,0:0:0
351,246,176967,5,4,0:0:0
256,81,177340,1,4,0:0:0
159,246,177713,1,0,0:0:0
256,192,177962,1,4,0:0:0
312,136,178956,6,0,P|376:96,2,75,0|0|0,0:0|0:0|0:0,0:0:0
256,160,179701,1,0,0:0:0
200,136,179950,2,0,P|136:96,2,75,0|0|0,0:0|0:0|0:0,0:0:0
112,224,180944,6,0,P|152:280|224:312,1,150,0|8,0:0|0:0,0:0:0
288,312,181690,2,0,P|360:280|400:224,1,150
400,160,182435,1,8,0:0:0
416,40,182933,6,0,P|360:40|288:96,1,150,4|8,0:0|0:0,0:0:0
256,152,183678,1,0,0:0:0
224,96,183927,2,0,P|152:40|96:40,1,150,0|8,0:0|0:0,0:0:0
152,144,184921,2,2,P|256:234|360:144,2,300,2|2|6,0:0|0:0|0:0,0:0:0
256,80,187406,5,8,0:0:0
376,96,187904,2,0,P|416:160|408:232,1,150,0|8,0:0|0:0,0:0:0
304,288,188898,2,2,P|220:280|206:192|206:192|220:104|304:96,2,300,2|2|6,0:0|0:0|0:0,0:0:0
360,256,191135,5,0,0:0:0
360,128,191632,1,0,0:0:0
344,72,191880,2,0,P|280:32|208:40,1,150,0|8,0:0|0:0,0:0:0
128,128,192875,2,2,P|188:232|324:152|384:256,2,300,2|2|6,0:0|0:0|0:0,0:0:0
304,104,195609,2,0,P|344:168,1,75
304,280,196354,2,0,P|344:216,1,75
256,192,196851,12,4,198840,0:0:0
