osu file format v10

[General]
AudioFilename: Karoshi_Factory_In_Game.mp3
AudioLeadIn: 0
PreviewTime: 63629
Countdown: 0
SampleSet: Normal
StackLeniency: 0.7
Mode: 0
LetterboxInBreaks: 1

[Editor]
Bookmarks: 15907,31814,47721,63628,79536,95443,111350,127257,143165,159072,174979,182933,198840,214747
DistanceSpacing: 1
BeatDivisor: 4
GridSize: 4

[Metadata]
Title:Karoshi Factory In Game
TitleUnicode:Karoshi Factory In Game
Artist:Jake Almond
ArtistUnicode:Jake Almond
Creator:Madball
Version:Harakiri
Source:Karoshi Factory
Tags:videogame soundtrack
BeatmapID:194981
BeatmapSetID:44312

[Difficulty]
HPDrainRate:7
CircleSize:3
OverallDifficulty:6
ApproachRate:7
SliderMultiplier:1.5
SliderTickRate:1

[Events]
//Background and Video events
0,0,"BG.jpg"
//Break Periods
2,47846,62728
2,126960,142265
//Storyboard Layer 0 (Background)
//Storyboard Layer 1 (Fail)
//Storyboard Layer 2 (Pass)
//Storyboard Layer 3 (Foreground)
//Storyboard Sound Samples
//Background Colour Transformations
3,100,163,162,255

[TimingPoints]
0.147540983606632,497.100248550124,4,1,0,100,1,0
15907,-133.333333333333,4,1,0,60,0,0
31814,-100,4,1,0,100,0,0
95443,-100,4,1,0,100,0,1
111350,-100,4,1,0,100,0,0
143165,-133.333333333333,4,1,0,40,0,0
157083,-100,4,1,0,70,0,0
159072,-100,4,1,0,100,0,0
182933,-100,4,1,0,100,0,1
198840,-100,4,1,0,100,0,0

[Colours]
Combo1 : 96,70,32
Combo2 : 32,96,32
Combo3 : 32,32,96
Combo4 : 96,32,32

[HitObjects]
128,56,15907,6,0,P|104:112|120:224,1,168.750006437302,8|0,0:0|0:0,0:0:0
160,268,16901,2,0,P|216:300|272:304,2,112.500004291535,8|0|8,0:0|0:0|0:0,0:0:0
172,200,18144,1,0,0:0:0
212,144,18392,1,0,0:0:0
264,100,18641,1,0,0:0:0
388,200,19884,6,0,P|372:256|272:288,1,168.750006437302,8|0,0:0|0:0,0:0:0
212,248,20878,2,0,P|203:304|236:352,2,112.500004291535,8|0|8,0:0|0:0|0:0,0:0:0
256,192,22121,1,0,0:0:0
304,144,22369,2,0,P|336:112|344:100,1,56.2500021457673
144,144,23363,1,8,0:0:0
144,144,23612,1,8,0:0:0
144,144,23860,6,0,P|152:196|200:232,1,112.500004291535,8|0,0:0|0:0,0:0:0
256,200,24606,1,0,0:0:0
314,231,24855,2,0,P|360:196|368:144,1,112.500004291535,8|0,0:0|0:0,0:0:0
252,76,25849,1,8,0:0:0
200,120,26097,1,0,0:0:0
136,140,26346,1,0,0:0:0
84,184,26594,1,0,0:0:0
344,296,27837,6,0,P|296:328|240:336,2,112.500004291535,8|0|8,0:0|0:0|0:0,0:0:0
452,216,29329,1,0,0:0:0
364,112,29826,1,8,0:0:0
316,64,30074,1,0,0:0:0
252,40,30323,1,0,0:0:0
184,36,30571,1,0,0:0:0
400,120,31814,6,0,P|400:192|432:192|432:265,2,150,0|8|0,0:0|0:0|0:0,0:0:0
256,40,33305,1,8,0:0:0
124,140,33802,1,0,0:0:0
108,220,34051,1,0,0:0:0
156,288,34300,1,8,0:0:0
240,292,34548,1,0,0:0:0
312,248,34797,2,0,P|344:212|352:188,2,75,0|0|8,0:0|0:0|0:0,0:0:0
204,124,35791,6,0,P|144:180|136:244,1,150,0|8,0:0|0:0,0:0:0
196,300,36537,1,0,0:0:0
272,272,36785,2,0,P|344:272|348:288|420:288,2,150,0|8|0,0:0|0:0|0:0,0:0:0
200,232,38028,1,0,0:0:0
252,168,38276,1,8,0:0:0
216,92,38525,1,0,0:0:0
136,72,38773,1,0,0:0:0
300,48,39271,1,8,0:0:0
448,124,39768,6,0,P|416:200|368:248,1,150,0|8,0:0|0:0,0:0:0
300,292,40513,1,0,0:0:0
244,232,40762,2,0,P|188:192|108:168,2,150,0|8|0,0:0|0:0|0:0,0:0:0
232,312,42005,2,0,P|200:320|156:324,1,75,0|8,0:0|0:0,0:0:0
88,280,42502,2,0,P|56:208|60:128,1,150
76,60,43247,1,8,0:0:0
240,48,43744,6,0,P|308:80|352:140,1,150,0|8,0:0|0:0,0:0:0
368,220,44490,1,0,0:0:0
312,280,44739,1,0,0:0:0
176,188,45236,2,0,P|212:120|268:76,1,150,8|0,0:0|0:0,0:0:0
344,112,45981,1,0,0:0:0
400,172,46230,1,8,0:0:0
416,252,46479,1,0,0:0:0
108,216,47224,1,8,0:0:0
64,144,47473,2,0,P|100:128,1,37.5,0|4,0:0|0:0,0:0:0
100,68,63628,5,0,0:0:0
76,148,63877,1,0,0:0:0
116,220,64126,2,0,P|136:248|168:272,1,75,8|0,0:0|0:0,0:0:0
228,216,64623,2,0,P|240:176|256:148,1,75
336,160,65120,2,0,P|324:236|292:300,1,150,8|0,0:0|0:0,0:0:0
208,288,65865,1,0,0:0:0
160,220,66114,1,8,0:0:0
180,140,66363,2,0,P|224:76|292:52,1,150
372,68,67108,1,8,0:0:0
352,232,67605,6,0,P|384:256|408:280,1,75
332,308,68102,2,0,P|264:324|260:324,1,75,8|0,0:0|0:0,0:0:0
224,252,68599,1,0,0:0:0
172,188,68848,1,0,0:0:0
128,116,69097,2,0,P|172:52|240:48,1,150,8|0,0:0|0:0,0:0:0
256,128,69842,2,0,P|264:164|264:204,1,75,0|8,0:0|0:0,0:0:0
292,280,70339,2,0,P|220:304|144:308,1,150
64,300,71085,1,8,0:0:0
112,144,71582,6,0,P|144:160|184:172,1,75
256,208,72079,1,8,0:0:0
336,224,72328,1,0,0:0:0
404,176,72576,2,0,P|428:152|452:120,1,75
400,56,73073,2,0,P|324:40|252:48,1,150,8|0,0:0|0:0,0:0:0
188,100,73819,2,0,P|184:140|192:176,2,75,0|8|0,0:0|0:0|0:0,0:0:0
312,212,74813,1,0,0:0:0
328,292,75062,1,8,0:0:0
168,248,75559,5,0,0:0:0
188,168,75807,1,0,0:0:0
272,168,76056,2,0,P|304:164|344:152,1,75,8|0,0:0|0:0,0:0:0
384,80,76553,1,0,0:0:0
464,104,76802,1,0,0:0:0
436,180,77050,2,0,P|380:236|348:300,1,150,8|0,0:0|0:0,0:0:0
268,316,77796,2,0,P|228:304|196:288,1,75,0|8,0:0|0:0,0:0:0
184,208,78293,2,0,P|264:232|328:264,1,150
384,316,79039,1,8,0:0:0
364,152,79536,6,0,P|320:84|260:56,1,150,4|8,0:0|0:0,0:0:0
176,60,80281,1,0,0:0:0
116,120,80530,2,0,P|100:156|92:192,1,75
152,248,81027,2,0,P|168:212|176:176,1,75,8|0,0:0|0:0,0:0:0
252,148,81524,2,0,P|280:124,3,37.5,8|0|2|0,0:0|0:0|0:0|0:0,0:0:0
320,116,82021,2,0,P|360:112,3,37.5,8|0|2|0,0:0|0:0|0:0|0:0,0:0:0
400,116,82518,2,0,P|436:128,3,37.5,8|0|2|0,0:0|0:0|0:0|0:0,0:0:0
464,160,83015,2,0,P|488:196,3,37.5,8|0|2|0,0:0|0:0|0:0|0:0,0:0:0
492,232,83512,6,0,P|472:272|388:336,1,150,4|8,0:0|0:0,0:0:0
344,264,84258,1,0,0:0:0
260,264,84507,2,0,P|272:224|288:196,1,75
356,148,85004,2,0,P|328:132|288:120,1,75,8|0,0:0|0:0,0:0:0
204,116,85501,2,0,P|164:108,3,37.5,8|0|2|0,0:0|0:0|0:0|0:0,0:0:0
160,148,85998,2,0,P|123:129,3,37.5,8|0|2|0,0:0|0:0|0:0|0:0,0:0:0
109,167,86495,2,0,P|78:140,3,37.5,8|0|2|0,0:0|0:0|0:0|0:0,0:0:0
54,172,86992,2,0,P|31:138,3,37.5,8|0|2|0,0:0|0:0|0:0|0:0,0:0:0
28,100,87489,5,4,0:0:0
104,68,87738,2,0,P|184:76|248:100,1,150,0|0,0:0|0:0,0:0:0
188,156,88483,1,0,0:0:0
144,224,88732,1,0,0:0:0
144,308,88981,2,0,P|184:324|216:328,1,75,8|0,0:0|0:0,0:0:0
296,312,89478,2,0,P|336:320,3,37.5,8|0|2|0,0:0|0:0|0:0|0:0,0:0:0
304,280,89975,2,0,P|344:280,3,37.5,8|0|2|0,0:0|0:0|0:0|0:0,0:0:0
306,247,90472,2,0,P|346:240,3,37.5,8|0|2|0,0:0|0:0|0:0|0:0,0:0:0
302,214,90969,2,0,P|340:200,3,37.5,8|0|2|0,0:0|0:0|0:0|0:0,0:0:0
293,182,91466,5,4,0:0:0
80,56,92212,6,0,P|80:104|84:136,1,75,8|0,0:0|0:0,0:0:0
124,144,92585,2,0,P|168:164|196:164,1,75,8|0,0:0|0:0,0:0:0
216,196,92957,2,0,P|240:232|248:264,1,75,8|0,0:0|0:0,0:0:0
256,192,93454,12,0,94946,0:0:0
88,60,95443,6,0,P|72:104|72:132,1,75,2|0,0:0|0:0,0:0:0
120,208,95940,2,0,P|164:224|192:224,1,75,8|0,0:0|0:0,0:0:0
252,156,96437,1,2,0:0:0
332,112,96686,1,0,0:0:0
420,132,96934,1,8,0:0:0
388,216,97183,2,0,P|404:292,1,75,0|2,0:0|0:0,0:0:0
324,248,97680,2,0,P|319:325,1,75,0|8,0:0|0:0,0:0:0
253,262,98177,2,0,P|228:335,2,75,0|2|0,0:0|0:0|0:0,0:0:0
256,172,98923,1,8,0:0:0
396,56,99420,5,2,0:0:0
408,144,99668,1,0,0:0:0
316,148,99917,2,0,P|320:180|332:220,1,75,8|0,0:0|0:0,0:0:0
264,280,100414,2,0,P|224:276|188:280,2,75,2|0|8,0:0|0:0|0:0,0:0:0
356,276,101160,2,0,P|392:288|428:288,1,75,0|2,0:0|0:0,0:0:0
444,200,101657,1,0,0:0:0
380,136,101905,1,8,0:0:0
304,84,102154,2,0,P|256:76|228:76,1,75,0|2,0:0|0:0,0:0:0
140,80,102651,2,0,P|144:116|156:152,1,75,0|8,0:0|0:0,0:0:0
320,224,103396,5,2,0:0:0
296,136,103645,1,0,0:0:0
208,160,103894,2,0,P|192:196|188:232,1,75,8|0,0:0|0:0,0:0:0
100,204,104391,2,0,P|71:230|53:262,1,75,2|0,0:0|0:0,0:0:0
104,336,104888,1,8,0:0:0
188,300,105136,2,0,P|224:276|244:252,1,75,0|2,0:0|0:0,0:0:0
328,288,105633,2,0,P|325:244|314:215,1,75,0|8,0:0|0:0,0:0:0
384,160,106131,2,0,P|345:140|314:135,1,75,0|2,0:0|0:0,0:0:0
303,44,106628,2,0,P|267:68|247:91,1,75,0|8,0:0|0:0,0:0:0
228,180,107125,1,0,0:0:0
156,234,107373,6,2,P|203:290|276:298,1,150
344,238,108119,1,0,0:0:0
355,149,108368,2,2,P|308:93|235:85,1,150
167,145,109113,1,0,0:0:0
256,192,109362,12,0,110853,0:0:0
140,128,111350,5,0,0:0:0
112,212,111599,1,0,0:0:0
176,276,111847,2,0,P|216:264|244:248,1,75,8|0,0:0|0:0,0:0:0
312,188,112344,2,0,P|344:180|388:176,1,75
396,264,112841,2,0,P|352:320|284:356,1,150,8|0,0:0|0:0,0:0:0
200,320,113587,1,0,0:0:0
144,248,113836,1,8,0:0:0
148,160,114084,2,0,P|184:92|248:60,1,150
332,88,114830,1,8,0:0:0
368,264,115327,5,0,0:0:0
288,304,115575,1,0,0:0:0
208,264,115824,2,0,P|200:224|200:188,1,75,8|0,0:0|0:0,0:0:0
288,168,116321,2,0,P|272:124|256:96,1,75
172,76,116818,2,0,P|120:112|100:192,1,150,8|0,0:0|0:0,0:0:0
188,208,117564,2,0,P|220:232|244:256,1,75,0|8,0:0|0:0,0:0:0
256,348,118061,2,0,P|332:332|380:280,1,150
400,192,118807,1,8,0:0:0
252,88,119304,6,0,P|220:112|200:140,1,75
148,216,119801,1,8,0:0:0
220,268,120049,1,0,0:0:0
304,232,120298,2,0,P|336:200|368:188,2,75,0|0|8,0:0|0:0|0:0,0:0:0
148,324,121292,2,0,P|108:308|84:288,1,75
52,204,121789,1,8,0:0:0
72,116,122038,2,0,P|132:72|204:44,1,150
276,96,122783,1,8,0:0:0
452,128,123281,6,0,P|428:160|416:196,1,75,0|0,0:0|0:0,0:0:0
328,172,123778,2,0,P|316:204|292:236,1,75,8|0,0:0|0:0,0:0:0
224,296,124275,1,0,0:0:0
136,300,124523,1,0,0:0:0
64,244,124772,2,0,P|32:168|32:96,1,150,8|0,0:0|0:0,0:0:0
116,132,125517,2,0,P|156:156|176:184,1,75,0|8,0:0|0:0,0:0:0
224,104,126015,2,0,P|265:178|271:241,1,150
260,332,126760,1,8,0:0:0
108,104,143165,6,0,P|84:156|84:216,1,112.500004291535,8|0,0:0|0:0,0:0:0
188,244,144159,2,0,P|248:252|300:236,2,112.500004291535,8|0|8,0:0|0:0|0:0,0:0:0
180,132,145650,1,0,0:0:0
348,136,146396,2,0,P|376:148|400:164,1,56.2500021457673,0|0,0:0|0:0,0:0:0
356,268,147141,6,0,P|304:308|260:328,1,112.500004291535,8|0,0:0|0:0,0:0:0
180,248,148136,2,0,P|136:204|112:160,2,112.500004291535,8|0|8,0:0|0:0|0:0,0:0:0
284,204,149627,1,0,0:0:0
464,72,150621,1,0,0:0:0
352,52,151118,6,0,P|292:72|208:148,1,168.750006437302,8|0,0:0|0:0,0:0:0
208,196,152112,2,0,P|216:256|244:300,2,112.500004291535,8|0|8,0:0|0:0|0:0,0:0:0
128,48,153852,1,0,0:0:0
296,64,154598,1,0,0:0:0
352,160,155095,6,0,P|372:216|372:268,1,112.500004291535,8|0,0:0|0:0,0:0:0
260,288,156089,2,0,P|204:284|152:260,1,112.500004291535,8|0,0:0|0:0,0:0:0
152,148,157083,1,8,0:0:0
212,80,157332,2,0,P|244:84|284:104,1,75
348,164,157829,2,0,P|320:236|280:296,1,150,0|0,0:0|0:0,0:0:0
200,336,158575,1,0,0:0:0
120,176,159072,5,0,0:0:0
180,108,159320,1,0,0:0:0
268,120,159569,2,0,P|300:144|324:168,1,75,8|0,0:0|0:0,0:0:0
280,248,160066,2,0,P|320:272|348:280,1,75
404,208,160563,2,0,P|424:104|408:68,1,150,8|0,0:0|0:0,0:0:0
324,100,161309,2,0,P|316:128|292:172,1,75,0|8,0:0|0:0,0:0:0
212,204,161806,2,0,P|244:276|284:336,1,150
372,316,162551,1,8,0:0:0
368,136,163049,6,0,P|324:160|304:176,1,75
216,192,163546,1,8,0:0:0
128,180,163794,1,0,0:0:0
144,92,164043,2,0,P|160:56|188:32,1,75
256,92,164540,2,0,P|264:168|256:240,1,150,8|0,0:0|0:0,0:0:0
180,292,165285,1,0,0:0:0
260,332,165534,1,8,0:0:0
352,328,165783,2,0,P|420:304|484:256,1,150
508,172,166528,1,8,0:0:0
352,80,167025,5,0,0:0:0
272,124,167274,2,0,P|280:164|296:196,2,75,0|8|0,0:0|0:0|0:0,0:0:0
196,76,168020,2,0,P|152:80|120:92,1,75
80,172,168517,2,0,P|88:252|136:300,1,150,8|0,0:0|0:0,0:0:0
216,332,169262,1,0,0:0:0
272,260,169511,1,8,0:0:0
360,276,169759,2,0,P|404:212|424:144,1,150
404,56,170505,1,8,0:0:0
224,76,171002,6,0,P|216:116|216:152,1,75
240,236,171499,1,8,0:0:0
172,292,171748,1,0,0:0:0
96,240,171996,2,0,P|72:204|64:172,1,75
116,100,172493,2,0,P|156:144|188:228,1,150,8|0,0:0|0:0,0:0:0
148,308,173239,2,0,P|172:340|200:360,1,75,0|8,0:0|0:0,0:0:0
288,348,173736,2,0,P|352:308|392:244,1,150
400,156,174482,1,8,0:0:0
256,48,174979,5,8,0:0:0
256,320,175725,1,0,0:0:0
256,336,175973,1,8,0:0:0
128,64,176967,5,4,0:0:0
384,64,177340,1,4,0:0:0
344,320,177713,1,0,0:0:0
168,320,177962,1,4,0:0:0
164,60,178956,5,0,0:0:0
112,132,179204,1,0,0:0:0
156,212,179453,2,0,P|184:240|200:272,1,75,0|0,0:0|0:0,0:0:0
184,360,179950,2,0,P|152:336|128:312,1,75
100,224,180447,2,0,P|112:148|152:88,1,150,0|0,0:0|0:0,0:0:0
232,44,181193,1,0,0:0:0
320,56,181441,2,0,P|332:96|332:128,1,75,8|0,0:0|0:0,0:0:0
424,284,182186,2,0,P|412:244|412:212,1,75,0|8,0:0|0:0,0:0:0
252,124,182933,6,0,P|228:196|228:276,1,150,4|8,0:0|0:0,0:0:0
316,264,183678,1,0,0:0:0
388,208,183927,2,0,P|412:192|444:156,1,75
360,124,184424,2,0,P|336:140|304:176,1,75,8|0,0:0|0:0,0:0:0
248,244,184921,2,0,P|256:284,3,37.5,8|0|2|0,0:0|0:0|0:0|0:0,0:0:0
212,272,185418,2,0,P|172:280,3,37.5,8|0|2|0,0:0|0:0|0:0|0:0,0:0:0
184,236,185915,2,0,P|176:196,3,37.5,8|0|2|0,0:0|0:0|0:0|0:0,0:0:0
220,208,186412,2,0,P|260:200,3,37.5,8|0|2|0,0:0|0:0|0:0|0:0,0:0:0
232,164,186909,6,0,P|272:120|352:80,1,150,4|8,0:0|0:0,0:0:0
372,168,187655,1,0,0:0:0
304,228,187904,2,0,P|252:252|236:264,1,75
148,248,188401,2,0,P|112:220|92:196,1,75,8|0,0:0|0:0,0:0:0
156,132,188898,2,0,P|190:112,3,37.5,8|0|2|0,0:0|0:0|0:0|0:0,0:0:0
145,101,189395,2,0,P|184:94,3,37.5,8|0|2|0,0:0|0:0|0:0|0:0,0:0:0
145,70,189892,2,0,P|184:76,3,37.5,8|0|2|0,0:0|0:0|0:0|0:0,0:0:0
156,40,190389,2,0,P|190:60,3,37.5,8|0|2|0,0:0|0:0|0:0|0:0,0:0:0
232,76,190886,5,4,0:0:0
300,136,191135,2,0,P|316:176|316:212,1,75,0|8,0:0|0:0,0:0:0
236,252,191632,2,0,P|184:256|160:252,2,75
312,304,192377,1,8,0:0:0
392,260,192626,1,0,0:0:0
388,172,192875,2,0,P|388:132,3,37.5,8|0|2|0,0:0|0:0|0:0|0:0,0:0:0
344,144,193372,2,0,P|344:104,3,37.5,8|0|2|0,0:0|0:0|0:0|0:0,0:0:0
300,116,193869,2,0,P|300:76,3,37.5,8|0|2|0,0:0|0:0|0:0|0:0,0:0:0
256,88,194366,2,0,P|256:48,3,37.5,8|0|2|0,0:0|0:0|0:0|0:0,0:0:0
212,60,194863,5,4,0:0:0
148,216,195609,2,0,P|184:240|216:248,1,75,8|0,0:0|0:0,0:0:0
256,232,195981,2,0,P|284:208|300:172,1,75,8|0,0:0|0:0,0:0:0
308,128,196354,2,0,P|332:100|364:80,1,75,8|0,0:0|0:0,0:0:0
256,192,196851,12,4,198840,0:0:0
