osu file format v5

[General]
AudioFilename: Jakazid-Cillit Bang Remix.MP3
AudioLeadIn: 0
PreviewTime: -1
Countdown: 1
SampleSet: Normal
StackLeniency: 0.7
Mode: 0

[Metadata]
Title:Cillit Bang (Hardcore Mix)
Artist:Jakazid
Creator:neo@lex
Version:JAMES DIFFICULTY!!
Source:
Tags:

[Difficulty]
HPDrainRate:3
CircleSize:5
OverallDifficulty:7
SliderMultiplier:2
SliderTickRate:2

[Events]
//Background and Video events
//Break Periods
//Storyboard Layer 0 (Background)
//Storyboard Layer 1 (Failing)
//Storyboard Layer 2 (Passing)
//Storyboard Layer 3 (Foreground)
//Storyboard Sound Samples
//Background Colour Transformations
3,100,0,0,0

[TimingPoints]
1280,315.822718180861,4,2,0,60
8859,315.822718180861,4,1,0,60

[Colours]
Combo1 : 255,150,0
Combo2 : 5,240,5
Combo3 : 5,5,240
Combo4 : 240,5,5

[HitObjects]
56,56,1280,1,0
176,56,1595,1,0
112,152,1911,1,0
232,152,2227,1,0
176,256,2543,1,0
296,256,2859,1,0
232,360,3174,1,0
112,360,3490,1,0
48,256,3806,5,0
168,256,4122,1,0
112,152,4438,1,0
232,152,4754,1,0
184,40,5069,1,0
304,40,5385,1,0
240,144,5701,1,0
360,144,6017,1,0
304,248,6333,5,4
424,248,6648,1,0
360,352,6964,1,0
240,352,7280,1,0
304,248,7596,1,0
184,248,7912,1,0
240,144,8228,1,0
120,144,8543,1,0
216,96,8859,5,0
216,96,8938,1,0
216,96,9017,1,0
216,96,9096,1,0
216,96,9175,1,0
216,96,9254,1,0
216,96,9333,1,0
216,96,9412,1,0
216,96,9491,1,0
216,96,9570,1,0
216,96,9649,1,0
216,96,9728,1,0
216,96,9807,1,0
216,96,9886,1,0
216,96,9965,1,0
216,96,10044,1,0
216,96,10123,1,0
464,72,10754,5,4
464,72,11070,1,4
464,72,11386,2,0,B|344:72,1,100
304,72,11702,1,2
184,72,12017,2,0,B|72:72,1,100
24,72,12333,1,2
40,192,12649,2,2,B|152:192,1,100
200,192,12965,2,2,B|304:192,1,100
360,192,13281,2,2,B|472:192,1,100
464,192,13597,1,2
480,312,13912,6,0,B|352:312,1,100
320,312,14228,1,2
200,312,14544,2,0,B|56:312,1,100
40,312,14860,1,2
48,192,15176,2,2,B|152:192,1,100
208,192,15492,2,2,B|312:192,1,100
368,192,15807,2,2,B|472:192,1,100
464,192,16123,1,2
464,72,16439,6,2,B|464:200,2,100
344,72,17071,2,2,B|344:200,2,100
224,72,17702,2,2,B|88:72,1,100
128,128,18018,2,2,B|256:128,1,100
224,184,18334,2,2,B|96:184,2,100
232,304,18966,6,2,B|104:304,1,100
72,304,19281,1,0
72,184,19597,2,2,B|200:184,1,100
232,184,19913,1,0
352,184,20229,2,2,B|496:184,1,100
448,120,20545,2,2,B|336:120,1,100
352,56,20861,2,2,B|464:56,2,100
232,56,21492,6,0,L|152:56|152:120|88:120,2,200
352,56,22440,1,2
352,176,22755,2,0,L|352:304|264:304,2,200
232,176,23703,1,2
112,176,24019,2,0,L|112:288,1,100
168,280,24335,2,2,L|168:160,1,100
224,176,24650,2,0,L|224:312,1,100
280,280,24966,2,2,L|280:160,1,100
336,176,25282,2,0,L|336:312,5,100
392,280,26229,2,2,L|392:144,1,100
392,120,26545,6,0,L|280:120|280:56|320:56,2,200
392,240,27493,1,2
272,240,27809,2,0,L|184:240|184:296|264:296,2,200
280,120,28756,1,2
176,120,29072,2,2,L|96:120|96:176,1,100
96,192,29388,2,2,L|96:272|72:272,1,100
24,272,29704,1,0
120,296,30019,1,2
216,272,30335,1,0
312,248,30651,1,2
400,296,30967,1,0
480,240,31283,1,2
384,200,31598,6,2,L|488:24,1,200
432,32,32072,1,0
384,32,32230,2,2,L|136:40,1,200
136,48,32704,1,0
144,96,32861,2,2,L|168:296,3,200
176,344,33967,1,0
224,336,34125,2,2,L|440:304,1,200
472,296,34599,1,0
432,264,34757,2,2,L|240:128,1,200
224,120,35230,1,0
192,160,35388,2,2,L|128:256,1,100
112,288,35704,2,2,L|216:344,1,100
240,360,36020,2,2,L|304:256,1,100
312,232,36336,1,4
400,176,36652,5,2
400,176,36731,1,0
400,176,36810,1,2
400,176,36889,1,0
400,176,36967,1,2
344,96,37283,1,0
248,128,37599,1,2
152,96,37915,1,2
152,96,37994,1,0
152,96,38072,1,2
152,96,38151,1,0
152,96,38230,1,2
96,176,38546,1,2
176,232,38862,1,0
272,192,39178,5,0
272,192,39257,1,0
272,192,39336,1,0
272,192,39415,1,0
272,192,39494,1,0
272,192,39573,1,0
272,192,39652,1,0
272,192,39731,1,0
272,192,39810,1,0
272,192,39889,1,0
272,192,39968,1,0
272,192,40047,1,0
272,192,40126,1,0
272,192,40205,1,0
272,192,40284,1,0
272,192,40363,1,0
264,192,40442,1,4
256,72,41073,5,0
256,312,41389,1,0
256,192,41705,1,0
152,136,42021,1,2
152,136,42179,1,0
88,232,42494,1,0
88,232,42652,1,2
160,320,42968,1,0
280,296,43284,1,2
280,296,43442,1,0
400,320,43758,1,0
400,320,43916,1,2
456,216,44231,6,0,L|232:176,1,200
200,184,44705,2,0,L|400:144,1,200
456,128,45179,1,2
344,88,45495,2,0,L|128:80,1,200
168,24,45968,2,0,L|88:232,1,200
72,264,46442,1,2
176,320,46758,2,2,L|392:304,1,200
408,352,47232,2,0,L|288:168,1,200
264,136,47705,1,2
376,88,48021,5,0
312,88,48179,1,0
248,88,48337,1,2
184,88,48495,1,0
64,88,48811,1,0
64,88,48968,1,2
40,208,49285,6,0,L|224:328,1,200
248,280,49758,2,0,L|400:128,1,200
432,96,50232,1,2
320,64,50547,1,0
200,64,50864,1,2
176,120,51022,2,0,L|80:320,1,200
64,352,51495,1,2
176,312,51811,5,0
288,280,52127,1,2
336,312,52285,1,0
432,240,52601,1,0
448,184,52759,1,2
392,80,53074,6,0,L|280:80,1,100
232,80,53390,1,2
248,24,53548,2,0,L|192:224,1,200
176,272,54022,1,2
104,176,54337,6,2,L|240:176,1,100
264,176,54653,1,2
312,144,54811,1,2
360,112,54969,1,2
360,168,55127,2,2,L|360:288,1,100
328,320,55443,1,2
272,296,55601,2,2,L|152:224,1,100
216,192,55917,2,2,L|336:264,1,100
336,192,56233,2,2,L|248:136,2,100
456,184,56864,6,0,L|456:264,4,50
456,120,57338,1,0
392,120,57496,1,0
328,120,57654,2,2,L|224:120,1,100
168,120,57970,1,0
104,120,58128,2,0,L|24:120,4,50
168,120,58601,2,0,L|168:224,1,100
168,280,58917,1,0
168,336,59075,1,2
224,336,59233,1,2
280,336,59391,6,0,L|384:336,2,100
280,272,59864,1,0
336,272,60023,2,0,L|440:272,3,100
256,192,60654,12,0,61286
152,104,61602,1,0
256,160,61917,2,2,L|256:48,2,100
256,216,62391,1,0
200,216,62549,2,2,L|88:216,2,100
256,216,63023,1,0
312,216,63181,2,2,L|416:216,1,100
408,272,63497,2,2,L|408:136,1,100
464,176,63812,2,2,L|344:176,1,100
304,176,64128,1,2
240,176,64286,1,0
176,176,64444,6,2,L|64:176,2,100
240,176,64918,1,0
240,232,65076,2,2,L|240:360,2,100
240,176,65549,1,0
240,112,65707,2,2,L|360:112,1,100
344,48,66023,2,2,L|344:176,1,100
344,208,66339,2,2,L|472:208,1,100
444,208,66655,1,2
472,328,66971,6,0,L|336:328,1,100
312,328,67286,1,2
192,328,67602,2,0,L|80:328,1,100
32,328,67918,1,2
32,208,68234,2,2,L|32:80,1,100
24,48,68550,2,2,L|144:48,1,100
184,48,68866,2,2,L|184:176,1,100
184,208,69181,1,2
304,208,69497,6,2,L|424:208,1,100
464,208,69813,1,0
464,264,69971,1,0
464,208,70129,2,2,L|464:88,1,100
464,48,70445,1,0
464,104,70603,1,0
400,104,70760,2,2,L|288:104,1,100
296,40,71076,2,2,L|296:176,1,100
352,144,71392,2,2,L|224:144,1,100
192,144,71708,1,2
72,144,72024,5,0
72,144,72103,1,0
72,144,72182,1,0
72,144,72261,1,0
72,144,72340,1,0
120,256,72655,1,0
232,216,72971,1,2
328,288,73287,1,0
328,288,73366,1,0
328,288,73445,1,0
328,288,73524,1,0
328,288,73603,1,0
432,232,73918,1,2
344,144,74235,1,0
432,64,74550,5,0
432,64,74629,1,0
432,64,74708,1,0
432,64,74787,1,0
432,64,74866,1,0
312,40,75182,1,0
216,112,75498,1,2
312,184,75813,1,0
312,184,75893,1,0
312,184,75972,1,0
312,184,76051,1,0
312,184,76129,1,0
208,240,76445,1,2
296,320,76761,1,0
408,288,77076,5,2
360,48,77709,1,2
120,96,78340,1,2
256,288,78972,1,2
440,216,79604,1,2
304,184,79919,1,0
168,216,80235,1,2
40,152,80551,1,0
72,248,80867,5,2
120,248,81025,1,0
168,248,81183,1,2
216,248,81341,1,0
264,248,81498,1,2
312,248,81656,1,0
360,248,81814,1,2
408,248,81972,1,0
456,248,82130,1,6
