osu file format v5

[General]
AudioFilename: Jakazid-Cillit Bang Remix.MP3
AudioLeadIn: 0
PreviewTime: -1
Countdown: 1
SampleSet: Soft
StackLeniency: 0.7
Mode: 0
LetterboxInBreaks: 1
WidescreenStoryboard: 0

[Editor]
DistanceSpacing: 0.8
BeatDivisor: 4
GridSize: 4

[Metadata]
Title:Cillit Bang (Hardcore Mix)
TitleUnicode:
Artist:Jakazid
ArtistUnicode:
Creator:neo@lex
Version:Easy
Source:
Tags:
BeatmapID:14818
BeatmapSetID:917

[Difficulty]
HPDrainRate:4
CircleSize:3
OverallDifficulty:4
ApproachRate:4
SliderMultiplier:1.4
SliderTickRate:1

[Events]
//Background and Video events
//Break Periods
2,21060,30278
2,41273,50491
//Storyboard Layer 0 (Background)
//Storyboard Layer 1 (Fail)
//Storyboard Layer 2 (Pass)
//Storyboard Layer 3 (Foreground)
//Storyboard Sound Samples
//Background Colour Transformations
3,100,0,0,0

[TimingPoints]
1280,315.822718180861,4,2,0,100,1,0

[Colours]
Combo1 : 255,150,0
Combo2 : 5,240,5
Combo3 : 5,5,240
Combo4 : 240,5,5

[HitObjects]
192,64,11386,1,0,0:0:0:0:
320,64,12017,1,0,0:0:0:0:
320,192,12649,1,0,0:0:0:0:
256,192,12965,1,0,0:0:0:0:
192,192,13280,1,0,0:0:0:0:
192,320,13912,5,0,0:0:0:0:
320,320,14543,1,0,0:0:0:0:
320,192,15176,2,0,C|176:192,2,140
320,64,16439,5,0,0:0:0:0:
192,64,17070,1,0,0:0:0:0:
192,192,17702,1,0,0:0:0:0:
256,192,18018,1,0,0:0:0:0:
320,192,18333,1,0,0:0:0:0:
320,320,18966,5,0,0:0:0:0:
192,320,19597,1,0,0:0:0:0:
112,208,20229,2,2,C|400:208,1,280
256,192,31598,5,0,0:0:0:0:
256,192,32230,1,0,0:0:0:0:
256,192,32862,2,0,C|112:192,2,140
256,192,34125,5,0,0:0:0:0:
256,192,34757,1,0,0:0:0:0:
256,192,35389,2,0,C|400:192,2,140
256,192,36652,5,0,0:0:0:0:
256,64,37283,1,0,0:0:0:0:
256,192,37915,1,0,0:0:0:0:
256,320,38547,1,0,0:0:0:0:
256,192,39178,12,4,41073,0:0:0:0:
320,192,51811,5,0,0:0:0:0:
320,128,52127,1,0,0:0:0:0:
256,128,52443,1,0,0:0:0:0:
256,256,53074,5,0,0:0:0:0:
192,256,53390,1,0,0:0:0:0:
192,192,53706,1,0,0:0:0:0:
320,192,54338,5,0,0:0:0:0:
192,192,54969,1,0,0:0:0:0:
256,192,55601,12,0,56233,0:0:0:0:
192,192,56864,5,2,0:0:0:0:
192,128,57180,1,2,0:0:0:0:
256,128,57496,1,2,0:0:0:0:
256,256,58127,5,2,0:0:0:0:
320,256,58443,1,2,0:0:0:0:
320,192,58759,1,2,0:0:0:0:
192,192,59391,5,0,0:0:0:0:
320,192,60023,1,0,0:0:0:0:
256,192,60654,12,0,61286,0:0:0:0:
128,256,61917,5,0,0:0:0:0:
128,128,62548,1,0,0:0:0:0:
256,128,63180,1,0,0:0:0:0:
256,192,63496,1,0,0:0:0:0:
256,256,63811,1,0,0:0:0:0:
384,256,64444,5,0,0:0:0:0:
384,128,65074,1,0,0:0:0:0:
256,128,65707,2,0,C|256:272,2,140
128,128,66970,5,2,0:0:0:0:
128,256,67601,1,2,0:0:0:0:
256,256,68233,1,4,0:0:0:0:
256,192,68549,1,4,0:0:0:0:
256,128,68864,1,4,0:0:0:0:
384,128,69497,5,2,0:0:0:0:
384,256,70128,1,2,0:0:0:0:
272,336,70760,2,6,C|272:48,1,280
256,192,72024,5,0,0:0:0:0:
256,192,72656,1,0,0:0:0:0:
256,192,73288,2,0,C|256:336,2,140
256,192,74551,5,0,0:0:0:0:
256,192,75183,1,0,0:0:0:0:
256,192,75815,2,0,C|256:48,2,140
256,192,77077,5,4,0:0:0:0:
384,192,77709,1,2,0:0:0:0:
256,192,78340,1,4,0:0:0:0:
128,192,78972,1,2,0:0:0:0:
256,192,79604,5,6,0:0:0:0:
256,192,79919,1,6,0:0:0:0:
256,192,80235,1,6,0:0:0:0:
256,192,80551,1,6,0:0:0:0:
256,192,80867,12,4,82130,0:0:0:0:
