osu file format v5

[General]
AudioFilename: Jakazid-Cillit Bang Remix.MP3
AudioLeadIn: 0
PreviewTime: -1
Countdown: 1
SampleSet: Soft

[Metadata]
Title:Cillit Bang (Hardcore Mix)
Artist:Jakazid
Creator:neo@lex
Version:Normal

[Difficulty]
HPDrainRate:6
CircleSize:4
OverallDifficulty:7
SliderMultiplier:1.4
SliderTickRate:1

[Events]
//Background and Video events
//Break Periods
2,21376,30698
2,41273,50911
//Storyboard Layer 0 (Background)
//Storyboard Layer 1 (Failing)
//Storyboard Layer 2 (Passing)
//Storyboard Layer 3 (Foreground)
//Storyboard Sound Samples
//Background Colour Transformations
3,100,0,0,0

[TimingPoints]
1280,315.822718180861,4,2,0,100

[Colours]
Combo1 : 255,150,0
Combo2 : 5,240,5
Combo3 : 5,5,240
Combo4 : 240,5,5

[HitObjects]
96,128,11386,6,0,B|192:128|192:32,1,140
128,64,12017,1,0
192,128,12333,1,0
256,192,12649,2,0,B|416:192,3,140
416,256,13912,6,0,B|320:256|320:352,1,140
384,320,14544,1,0
320,256,14860,1,0
256,192,15176,2,0,B|96:192,3,140
96,256,16439,6,0,B|192:256|192:352,1,140
128,320,17071,1,0
192,256,17386,1,0
256,192,17702,2,0,B|416:192,3,140
416,128,18966,6,0,B|320:128|320:32,1,140
384,64,19597,1,0
320,128,19913,1,0
256,192,20229,2,0,B|96:192,3,140
128,256,31598,6,0,B|128:96,1,140
192,128,32230,1,0
256,128,32546,1,0
320,128,32862,2,0,B|320:288,3,140
384,256,34125,6,0,B|384:96,1,140
320,128,34757,1,0
256,128,35073,1,0
192,128,35388,2,0,B|192:288,3,140
128,256,36652,6,0,B|128:96,3,140
192,128,37915,2,0,B|192:288,3,140
256,192,39178,12,4,40442
256,192,40599,12,4,41073
96,256,51811,2,0,C|192:192|128:128|64:192|160:256,1,420
224,256,53074,2,0,C|320:192|256:128|192:192|288:256,1,420
352,256,54338,6,0,C|352:96,1,140
288,128,54969,2,0,C|288:288,1,140
224,256,55601,2,0,C|64:256,3,140
96,256,56864,6,2,C|192:192|128:128|64:192|160:256,1,420
224,256,58128,2,2,C|320:192|256:128|192:192|288:256,1,420
384,256,59391,1,0
384,160,59707,1,0
288,160,60023,1,0
288,256,60338,1,0
256,192,60654,12,0,61286
96,128,61917,6,2,B|192:128|192:32,1,140
128,64,62549,1,0
192,128,62865,1,0
256,192,63181,2,2,B|416:192,3,140
416,256,64444,6,2,B|320:256|320:352,1,140
384,320,65076,1,0
320,256,65392,1,0
256,192,65707,2,2,B|96:192,3,140
96,256,66971,6,2,B|192:256|192:352,1,140
128,320,67602,1,0
192,256,67918,1,0
256,192,68234,2,2,B|416:192,3,140
416,128,69497,6,2,B|320:128|320:32,1,140
384,64,70129,1,0
320,128,70445,1,0
256,192,70760,2,2,B|96:192,3,140
128,256,72024,6,2,B|128:96,1,140
192,128,72655,1,4
256,128,72971,1,4
320,128,73287,2,2,B|320:288,3,140
384,256,74550,6,2,B|384:96,1,140
320,128,75182,1,4
256,128,75498,1,4
192,128,75814,2,2,B|192:288,3,140
128,256,77077,6,2,B|128:96,3,140
192,128,78340,2,4,B|192:288,3,140
256,256,79604,1,2
320,256,79919,1,4
320,192,80235,1,2
256,192,80551,1,4
256,192,80867,12,4,82130
