osu file format v13

[General]
AudioFilename: insomnia spada funkot.mp3
AudioLeadIn: 0
PreviewTime: 94971
Countdown: 0
SampleSet: Soft
StackLeniency: 0.7
Mode: 3
LetterboxInBreaks: 0
SpecialStyle: 0
WidescreenStoryboard: 0

[Editor]
DistanceSpacing: 0.8
BeatDivisor: 4
GridSize: 4
TimelineZoom: 1.7

[Metadata]
Title:INSOMNIA
TitleUnicode:INSOMNIA
Artist:Jakarta Funk Brothers
ArtistUnicode:Jakarta Funk Brothers
Creator:bilqiscutee
Version:Hyper
Source:beatmania IIDX 21 SPADA
Tags:Nekomata Master DJ TOTTO BEMANI Namahousou konami
BeatmapID:460901
BeatmapSetID:194043

[Difficulty]
HPDrainRate:7
CircleSize:4
OverallDifficulty:8
ApproachRate:5
SliderMultiplier:1.4
SliderTickRate:1

[Events]
//Background and Video events
0,0,"INSOMNIA.jpg",0,0
//Break Periods
//Storyboard Layer 0 (Background)
//Storyboard Layer 1 (Fail)
//Storyboard Layer 2 (Pass)
//Storyboard Layer 3 (Foreground)
//Storyboard Sound Samples
//Background Colour Transformations
3,100,163,162,255

[TimingPoints]
4048,307.692307692308,4,2,0,40,1,0
17624,-33.3333333333333,4,2,0,40,0,0
17740,-200,4,2,0,40,0,0
17817,-1000,4,2,0,40,0,0
17894,-100,4,2,0,40,0,0
28817,-100,4,2,0,40,0,1
36048,-100,4,2,0,40,0,0
38509,-100,4,2,0,40,0,1
43124,-100,4,2,0,40,0,0
43509,-1000,4,2,0,40,0,0
43586,-200,4,2,0,40,0,0
43663,-100,4,2,0,40,0,0
43740,-100,4,2,0,40,0,1
48355,-100,4,2,0,40,0,0
48509,-1000,4,2,0,40,0,0
48817,-200,4,2,0,40,0,0
48932,-100,4,2,0,40,0,0
49124,-1000,4,2,0,40,0,0
49432,-200,4,2,0,40,0,0
49548,-100,4,2,0,40,0,0
49740,-1000,4,2,0,40,0,0
50048,-200,4,2,0,40,0,0
50163,-100,4,2,0,40,0,0
50355,-1000,4,2,0,40,0,0
50663,-200,4,2,0,40,0,0
50778,-100,4,2,0,40,0,0
95124,-100,4,2,0,40,0,1
104971,-100,4,2,0,40,0,0

[HitObjects]
64,192,4047,128,0,8971:0:0:0:0:
320,192,6509,5,0,0:0:0:0:
320,192,7124,1,0,0:0:0:0:
320,192,7740,1,0,0:0:0:0:
320,192,8048,1,0,0:0:0:0:
320,192,8355,1,0,0:0:0:0:
448,192,8971,1,0,0:0:0:0:
320,192,9124,1,0,0:0:0:0:
192,192,9278,1,0,0:0:0:0:
64,192,9586,1,0,0:0:0:0:
320,192,9586,1,0,0:0:0:0:
448,192,9586,1,0,0:0:0:0:
64,192,9894,1,0,0:0:0:0:
320,192,9894,1,0,0:0:0:0:
448,192,9894,1,0,0:0:0:0:
64,192,10201,1,0,0:0:0:0:
448,192,10201,1,0,0:0:0:0:
192,192,10355,1,0,0:0:0:0:
320,192,10509,1,0,0:0:0:0:
192,192,10817,1,0,0:0:0:0:
448,192,10817,1,0,0:0:0:0:
64,192,10817,1,0,0:0:0:0:
192,192,11124,1,0,0:0:0:0:
448,192,11124,1,0,0:0:0:0:
64,192,11124,1,0,0:0:0:0:
64,192,11432,1,0,0:0:0:0:
448,192,11432,1,0,0:0:0:0:
320,192,11586,1,0,0:0:0:0:
192,192,11740,1,0,0:0:0:0:
192,192,12048,1,0,0:0:0:0:
448,192,12048,1,0,0:0:0:0:
64,192,12048,1,0,0:0:0:0:
320,192,12355,1,0,0:0:0:0:
64,192,12355,1,0,0:0:0:0:
448,192,12355,1,0,0:0:0:0:
64,192,12663,1,0,0:0:0:0:
448,192,12663,1,0,0:0:0:0:
192,192,12817,1,0,0:0:0:0:
320,192,12971,1,0,0:0:0:0:
64,192,13278,1,0,0:0:0:0:
320,192,13278,1,0,0:0:0:0:
448,192,13278,1,0,0:0:0:0:
192,192,13586,1,0,0:0:0:0:
448,192,13586,1,0,0:0:0:0:
64,192,13586,1,0,0:0:0:0:
64,192,13894,1,0,0:0:0:0:
448,192,13894,1,0,0:0:0:0:
320,192,14048,1,0,0:0:0:0:
192,192,14201,1,0,0:0:0:0:
320,192,14355,1,0,0:0:0:0:
64,192,14509,1,0,0:0:0:0:
448,192,14509,1,0,0:0:0:0:
320,192,14663,1,0,0:0:0:0:
192,192,14817,1,0,0:0:0:0:
192,192,14971,1,0,0:0:0:0:
64,192,15124,1,0,0:0:0:0:
448,192,15124,1,0,0:0:0:0:
192,192,15278,1,0,0:0:0:0:
320,192,15432,1,0,0:0:0:0:
64,192,15432,1,0,0:0:0:0:
192,192,15586,1,0,0:0:0:0:
448,192,15740,1,0,0:0:0:0:
64,192,15740,1,0,0:0:0:0:
192,192,15894,1,0,0:0:0:0:
64,192,16048,1,0,0:0:0:0:
448,192,16048,1,0,0:0:0:0:
192,192,16124,1,0,0:0:0:0:
320,192,16201,1,0,0:0:0:0:
192,192,16278,1,0,0:0:0:0:
64,192,16355,1,0,0:0:0:0:
448,192,16355,1,0,0:0:0:0:
320,192,16509,1,0,0:0:0:0:
448,192,16663,1,0,0:0:0:0:
64,192,16663,1,0,0:0:0:0:
320,192,16817,1,0,0:0:0:0:
192,192,16971,1,0,0:0:0:0:
448,192,16971,1,0,0:0:0:0:
320,192,17124,1,0,0:0:0:0:
64,192,17278,1,0,0:0:0:0:
192,192,17432,1,0,0:0:0:0:
320,192,17586,1,0,0:0:0:0:
320,192,17894,128,0,18201:0:0:0:0:
448,192,18817,1,0,0:0:0:0:
320,192,18971,1,0,0:0:0:0:
64,192,19124,1,0,0:0:0:0:
192,192,19124,1,0,0:0:0:0:
320,192,19278,1,0,0:0:0:0:
448,192,19432,1,0,0:0:0:0:
320,192,19586,1,0,0:0:0:0:
192,192,19740,1,0,0:0:0:0:
64,192,19740,1,0,0:0:0:0:
320,192,19894,1,0,0:0:0:0:
192,192,20048,1,0,0:0:0:0:
64,192,20201,1,0,0:0:0:0:
320,192,20355,1,0,0:0:0:0:
448,192,20355,1,0,0:0:0:0:
192,192,20509,1,0,0:0:0:0:
64,192,20663,1,0,0:0:0:0:
192,192,20817,1,0,0:0:0:0:
320,192,20971,1,0,0:0:0:0:
448,192,20971,1,0,0:0:0:0:
64,192,21278,1,0,0:0:0:0:
192,192,21432,1,0,0:0:0:0:
64,192,21586,1,0,0:0:0:0:
320,192,21586,1,0,0:0:0:0:
448,192,21894,1,0,0:0:0:0:
320,192,22048,1,0,0:0:0:0:
192,192,22201,1,0,0:0:0:0:
448,192,22201,1,0,0:0:0:0:
320,192,22509,1,0,0:0:0:0:
192,192,22663,1,0,0:0:0:0:
64,192,22817,1,0,0:0:0:0:
448,192,22817,1,0,0:0:0:0:
192,192,23124,1,0,0:0:0:0:
320,192,23278,1,0,0:0:0:0:
64,192,23432,1,0,0:0:0:0:
448,192,23432,1,0,0:0:0:0:
320,192,23586,1,0,0:0:0:0:
448,192,23740,1,0,0:0:0:0:
320,192,23894,1,0,0:0:0:0:
64,192,24048,1,0,0:0:0:0:
192,192,24048,1,0,0:0:0:0:
320,192,24201,1,0,0:0:0:0:
192,192,24355,1,0,0:0:0:0:
64,192,24509,1,0,0:0:0:0:
320,192,24663,1,0,0:0:0:0:
448,192,24663,1,0,0:0:0:0:
192,192,24817,1,0,0:0:0:0:
64,192,24971,1,0,0:0:0:0:
448,192,25124,1,0,0:0:0:0:
192,192,25278,1,0,0:0:0:0:
320,192,25278,1,0,0:0:0:0:
64,192,25432,1,0,0:0:0:0:
320,192,25586,1,0,0:0:0:0:
64,192,25740,1,0,0:0:0:0:
192,192,25894,1,0,0:0:0:0:
320,192,25894,1,0,0:0:0:0:
64,192,26201,1,0,0:0:0:0:
192,192,26355,1,0,0:0:0:0:
320,192,26509,1,0,0:0:0:0:
448,192,26509,1,0,0:0:0:0:
320,192,26817,1,0,0:0:0:0:
192,192,26817,1,0,0:0:0:0:
64,192,26817,1,0,0:0:0:0:
192,192,27124,1,0,0:0:0:0:
64,192,27124,1,0,0:0:0:0:
448,192,27124,1,0,0:0:0:0:
320,192,27278,1,0,0:0:0:0:
448,192,27432,1,0,0:0:0:0:
192,192,27586,1,0,0:0:0:0:
64,192,27740,1,0,0:0:0:0:
192,192,27894,1,0,0:0:0:0:
64,192,28048,1,0,0:0:0:0:
320,192,28048,1,0,0:0:0:0:
192,192,28201,1,0,0:0:0:0:
448,192,28355,128,0,28663:0:0:0:0:
192,192,28663,1,0,0:0:0:0:
320,192,28971,1,0,0:0:0:0:
448,192,28971,1,0,0:0:0:0:
64,192,29124,1,0,0:0:0:0:
192,192,29278,1,0,0:0:0:0:
320,192,29432,1,0,0:0:0:0:
192,192,29586,1,0,0:0:0:0:
448,192,29586,1,0,0:0:0:0:
320,192,29740,1,0,0:0:0:0:
64,192,29894,1,0,0:0:0:0:
320,192,30048,1,0,0:0:0:0:
192,192,30201,1,0,0:0:0:0:
64,192,30201,1,0,0:0:0:0:
448,192,30355,1,0,0:0:0:0:
192,192,30509,1,0,0:0:0:0:
320,192,30663,1,0,0:0:0:0:
64,192,30817,1,0,0:0:0:0:
448,192,30817,1,0,0:0:0:0:
320,192,30971,1,0,0:0:0:0:
192,192,31124,1,0,0:0:0:0:
448,192,31278,1,0,0:0:0:0:
320,192,31432,1,0,0:0:0:0:
64,192,31432,1,0,0:0:0:0:
192,192,31586,1,0,0:0:0:0:
64,192,31740,1,0,0:0:0:0:
320,192,31894,1,0,0:0:0:0:
192,192,32048,1,0,0:0:0:0:
448,192,32048,1,0,0:0:0:0:
320,192,32201,1,0,0:0:0:0:
448,192,32355,1,0,0:0:0:0:
320,192,32509,1,0,0:0:0:0:
64,192,32663,1,0,0:0:0:0:
448,192,32663,1,0,0:0:0:0:
192,192,32817,1,0,0:0:0:0:
64,192,32971,1,0,0:0:0:0:
448,192,32971,1,0,0:0:0:0:
320,192,33124,1,0,0:0:0:0:
192,192,33278,1,0,0:0:0:0:
64,192,33278,128,0,33586:0:0:0:0:
448,192,33278,1,0,0:0:0:0:
320,192,33586,1,0,0:0:0:0:
448,192,33894,1,0,0:0:0:0:
64,192,33894,1,0,0:0:0:0:
192,192,34048,1,0,0:0:0:0:
320,192,34201,1,0,0:0:0:0:
64,192,34355,1,0,0:0:0:0:
320,192,34509,1,0,0:0:0:0:
448,192,34509,1,0,0:0:0:0:
192,192,34663,1,0,0:0:0:0:
448,192,34817,1,0,0:0:0:0:
192,192,34971,1,0,0:0:0:0:
320,192,35124,1,0,0:0:0:0:
448,192,35124,1,0,0:0:0:0:
64,192,35278,1,0,0:0:0:0:
192,192,35432,1,0,0:0:0:0:
320,192,35586,1,0,0:0:0:0:
64,192,35740,1,0,0:0:0:0:
192,192,35740,1,0,0:0:0:0:
448,192,35894,1,0,0:0:0:0:
320,192,36048,1,0,0:0:0:0:
64,192,36201,1,0,0:0:0:0:
320,192,36355,1,0,0:0:0:0:
448,192,36355,1,0,0:0:0:0:
192,192,36509,1,0,0:0:0:0:
64,192,36663,1,0,0:0:0:0:
320,192,36817,1,0,0:0:0:0:
448,192,36971,1,0,0:0:0:0:
192,192,36971,1,0,0:0:0:0:
320,192,37124,1,0,0:0:0:0:
64,192,37278,1,0,0:0:0:0:
192,192,37586,1,0,0:0:0:0:
320,192,37740,1,0,0:0:0:0:
448,192,37740,1,0,0:0:0:0:
64,192,37740,1,0,0:0:0:0:
192,192,37894,1,0,0:0:0:0:
320,192,38048,1,0,0:0:0:0:
64,192,38048,1,0,0:0:0:0:
448,192,38048,1,0,0:0:0:0:
192,192,38201,1,0,0:0:0:0:
320,192,38355,1,0,0:0:0:0:
448,192,38509,128,0,40971:0:0:0:0:
64,192,38509,1,0,0:0:0:0:
192,192,38663,1,0,0:0:0:0:
64,192,38817,1,0,0:0:0:0:
320,192,38817,1,0,0:0:0:0:
320,192,39124,1,0,0:0:0:0:
192,192,39278,1,0,0:0:0:0:
64,192,39432,1,0,0:0:0:0:
320,192,39432,1,0,0:0:0:0:
192,192,39740,1,0,0:0:0:0:
320,192,39894,1,0,0:0:0:0:
192,192,40048,1,0,0:0:0:0:
64,192,40048,1,0,0:0:0:0:
192,192,40355,1,0,0:0:0:0:
64,192,40509,1,0,0:0:0:0:
192,192,40663,1,0,0:0:0:0:
320,192,40663,1,0,0:0:0:0:
64,192,40817,1,0,0:0:0:0:
320,192,40971,1,0,0:0:0:0:
192,192,40971,128,0,43432:0:0:0:0:
64,192,41124,1,0,0:0:0:0:
320,192,41278,1,0,0:0:0:0:
448,192,41278,1,0,0:0:0:0:
64,192,41586,1,0,0:0:0:0:
448,192,41740,1,0,0:0:0:0:
320,192,41894,1,0,0:0:0:0:
64,192,41894,1,0,0:0:0:0:
448,192,42201,1,0,0:0:0:0:
320,192,42355,1,0,0:0:0:0:
448,192,42509,1,0,0:0:0:0:
64,192,42509,1,0,0:0:0:0:
320,192,42817,1,0,0:0:0:0:
64,192,42971,1,0,0:0:0:0:
448,192,43124,1,0,0:0:0:0:
320,192,43124,1,0,0:0:0:0:
448,192,43740,1,0,0:0:0:0:
64,192,43740,1,0,0:0:0:0:
192,192,43894,1,0,0:0:0:0:
320,192,44048,1,0,0:0:0:0:
64,192,44201,1,0,0:0:0:0:
320,192,44355,1,0,0:0:0:0:
448,192,44355,1,0,0:0:0:0:
192,192,44509,1,0,0:0:0:0:
448,192,44663,1,0,0:0:0:0:
192,192,44817,1,0,0:0:0:0:
320,192,44971,1,0,0:0:0:0:
64,192,44971,1,0,0:0:0:0:
192,192,45124,1,0,0:0:0:0:
448,192,45278,1,0,0:0:0:0:
320,192,45432,1,0,0:0:0:0:
192,192,45586,1,0,0:0:0:0:
448,192,45586,1,0,0:0:0:0:
320,192,45740,1,0,0:0:0:0:
64,192,45894,1,0,0:0:0:0:
448,192,45894,1,0,0:0:0:0:
192,192,46048,1,0,0:0:0:0:
448,192,46201,1,0,0:0:0:0:
320,192,46355,1,0,0:0:0:0:
64,192,46509,1,0,0:0:0:0:
192,192,46509,1,0,0:0:0:0:
320,192,46663,1,0,0:0:0:0:
448,192,46817,1,0,0:0:0:0:
192,192,46971,1,0,0:0:0:0:
64,192,47124,1,0,0:0:0:0:
320,192,47278,1,0,0:0:0:0:
64,192,47432,1,0,0:0:0:0:
192,192,47586,1,0,0:0:0:0:
448,192,47740,1,0,0:0:0:0:
320,192,47740,1,0,0:0:0:0:
192,192,47894,1,0,0:0:0:0:
320,192,48048,1,0,0:0:0:0:
64,192,48201,1,0,0:0:0:0:
320,192,48355,1,0,0:0:0:0:
320,192,48971,1,0,0:0:0:0:
320,192,49586,1,0,0:0:0:0:
320,192,50201,1,0,0:0:0:0:
320,192,50817,1,0,0:0:0:0:
320,192,51124,1,0,0:0:0:0:
320,192,51432,1,0,0:0:0:0:
320,192,51740,1,0,0:0:0:0:
320,192,52048,1,0,0:0:0:0:
320,192,52201,1,0,0:0:0:0:
320,192,52355,1,0,0:0:0:0:
320,192,52509,1,0,0:0:0:0:
320,192,52663,1,0,0:0:0:0:
192,192,52740,1,0,0:0:0:0:
64,192,52817,1,0,0:0:0:0:
320,192,52971,128,0,53278:0:0:0:0:
192,192,53278,1,0,0:0:0:0:
448,192,53432,1,0,0:0:0:0:
320,192,53586,1,0,0:0:0:0:
64,192,53586,1,0,0:0:0:0:
192,192,53740,1,0,0:0:0:0:
320,192,53894,1,0,0:0:0:0:
64,192,54048,1,0,0:0:0:0:
192,192,54201,1,0,0:0:0:0:
448,192,54201,1,0,0:0:0:0:
320,192,54355,1,0,0:0:0:0:
64,192,54509,1,0,0:0:0:0:
320,192,54663,1,0,0:0:0:0:
192,192,54817,1,0,0:0:0:0:
448,192,54817,1,0,0:0:0:0:
64,192,54971,1,0,0:0:0:0:
320,192,55124,1,0,0:0:0:0:
192,192,55278,1,0,0:0:0:0:
64,192,55432,1,0,0:0:0:0:
320,192,55432,1,0,0:0:0:0:
448,192,55586,1,0,0:0:0:0:
320,192,55740,128,0,56355:0:0:0:0:
192,192,55740,1,0,0:0:0:0:
64,192,55894,1,0,0:0:0:0:
192,192,56048,1,0,0:0:0:0:
448,192,56048,1,0,0:0:0:0:
64,192,56201,1,0,0:0:0:0:
192,192,56355,128,0,58201:0:0:0:0:
448,192,56355,1,0,0:0:0:0:
320,192,56509,1,0,0:0:0:0:
448,192,56663,1,0,0:0:0:0:
64,192,56663,1,0,0:0:0:0:
320,192,56817,1,0,0:0:0:0:
64,192,56971,1,0,0:0:0:0:
320,192,57124,1,0,0:0:0:0:
448,192,57278,1,0,0:0:0:0:
64,192,57278,1,0,0:0:0:0:
320,192,57432,1,0,0:0:0:0:
64,192,57586,128,0,58201:0:0:0:0:
448,192,58201,1,0,0:0:0:0:
320,192,58355,1,0,0:0:0:0:
192,192,58509,1,0,0:0:0:0:
448,192,58509,1,0,0:0:0:0:
64,192,58663,1,0,0:0:0:0:
192,192,58817,1,0,0:0:0:0:
320,192,58971,1,0,0:0:0:0:
192,192,59124,1,0,0:0:0:0:
448,192,59124,1,0,0:0:0:0:
320,192,59278,1,0,0:0:0:0:
192,192,59432,1,0,0:0:0:0:
320,192,59586,1,0,0:0:0:0:
64,192,59740,1,0,0:0:0:0:
448,192,59740,1,0,0:0:0:0:
192,192,59894,1,0,0:0:0:0:
320,192,60048,1,0,0:0:0:0:
192,192,60201,1,0,0:0:0:0:
64,192,60355,1,0,0:0:0:0:
448,192,60355,1,0,0:0:0:0:
192,192,60509,1,0,0:0:0:0:
320,192,60663,128,0,61278:0:0:0:0:
64,192,60663,1,0,0:0:0:0:
448,192,60817,1,0,0:0:0:0:
192,192,60971,1,0,0:0:0:0:
64,192,60971,1,0,0:0:0:0:
192,192,61278,128,0,63124:0:0:0:0:
448,192,61278,1,0,0:0:0:0:
64,192,61432,1,0,0:0:0:0:
320,192,61586,1,0,0:0:0:0:
448,192,61586,1,0,0:0:0:0:
448,192,61894,1,0,0:0:0:0:
320,192,62048,1,0,0:0:0:0:
64,192,62201,1,0,0:0:0:0:
448,192,62201,1,0,0:0:0:0:
448,192,62509,1,0,0:0:0:0:
320,192,62509,1,0,0:0:0:0:
448,192,62817,1,0,0:0:0:0:
320,192,62817,1,0,0:0:0:0:
448,192,63124,1,0,0:0:0:0:
320,192,63278,1,0,0:0:0:0:
192,192,63432,1,0,0:0:0:0:
64,192,63432,1,0,0:0:0:0:
64,192,63740,1,0,0:0:0:0:
192,192,63894,1,0,0:0:0:0:
448,192,64048,1,0,0:0:0:0:
320,192,64048,1,0,0:0:0:0:
320,192,64355,1,0,0:0:0:0:
192,192,64509,1,0,0:0:0:0:
448,192,64663,1,0,0:0:0:0:
64,192,64663,1,0,0:0:0:0:
320,192,64971,1,0,0:0:0:0:
192,192,65124,1,0,0:0:0:0:
320,192,65278,1,0,0:0:0:0:
64,192,65278,1,0,0:0:0:0:
64,192,65586,128,0,66201:0:0:0:0:
192,192,65586,1,0,0:0:0:0:
320,192,65740,1,0,0:0:0:0:
192,192,65894,1,0,0:0:0:0:
448,192,65894,1,0,0:0:0:0:
320,192,66201,128,0,68048:0:0:0:0:
448,192,66201,1,0,0:0:0:0:
192,192,66355,1,0,0:0:0:0:
64,192,66509,1,0,0:0:0:0:
448,192,66509,1,0,0:0:0:0:
192,192,66817,1,0,0:0:0:0:
64,192,66971,1,0,0:0:0:0:
192,192,67124,1,0,0:0:0:0:
448,192,67124,1,0,0:0:0:0:
64,192,67432,1,0,0:0:0:0:
192,192,67432,128,0,68048:0:0:0:0:
64,192,67740,1,0,0:0:0:0:
448,192,67740,1,0,0:0:0:0:
448,192,68048,1,0,0:0:0:0:
64,192,68048,128,0,69278:0:0:0:0:
448,192,68201,1,0,0:0:0:0:
192,192,68355,1,0,0:0:0:0:
320,192,68355,1,0,0:0:0:0:
192,192,68663,1,0,0:0:0:0:
192,192,68817,1,0,0:0:0:0:
320,192,68971,1,0,0:0:0:0:
448,192,68971,1,0,0:0:0:0:
448,192,69278,128,0,70509:0:0:0:0:
320,192,69278,1,0,0:0:0:0:
192,192,69432,1,0,0:0:0:0:
320,192,69586,1,0,0:0:0:0:
64,192,69586,1,0,0:0:0:0:
192,192,69740,1,0,0:0:0:0:
64,192,69894,1,0,0:0:0:0:
192,192,70048,1,0,0:0:0:0:
64,192,70201,1,0,0:0:0:0:
320,192,70201,1,0,0:0:0:0:
320,192,70509,128,0,71124:0:0:0:0:
192,192,70509,1,0,0:0:0:0:
64,192,70663,1,0,0:0:0:0:
192,192,70817,1,0,0:0:0:0:
448,192,70817,1,0,0:0:0:0:
64,192,70971,1,0,0:0:0:0:
192,192,71124,128,0,72355:0:0:0:0:
320,192,71432,1,0,0:0:0:0:
448,192,71432,1,0,0:0:0:0:
320,192,71740,128,0,72355:0:0:0:0:
448,192,72201,1,0,0:0:0:0:
64,192,72201,1,0,0:0:0:0:
64,192,72355,128,0,72971:0:0:0:0:
448,192,72509,1,0,0:0:0:0:
192,192,72509,1,0,0:0:0:0:
192,192,72663,1,0,0:0:0:0:
448,192,72663,1,0,0:0:0:0:
448,192,72971,128,0,74201:0:0:0:0:
320,192,72971,1,0,0:0:0:0:
320,192,73586,1,0,0:0:0:0:
320,192,74201,128,0,75432:0:0:0:0:
192,192,74201,1,0,0:0:0:0:
192,192,74817,1,0,0:0:0:0:
192,192,75432,1,0,0:0:0:0:
64,192,75432,128,0,76048:0:0:0:0:
320,192,76048,128,0,77278:0:0:0:0:
448,192,76048,1,0,0:0:0:0:
192,192,77278,1,0,0:0:0:0:
64,192,77278,128,0,77894:0:0:0:0:
192,192,77894,128,0,79124:0:0:0:0:
448,192,77894,1,0,0:0:0:0:
320,192,78201,1,0,0:0:0:0:
64,192,78509,1,0,0:0:0:0:
320,192,78817,1,0,0:0:0:0:
320,192,79124,128,0,80355:0:0:0:0:
448,192,79124,1,0,0:0:0:0:
192,192,79432,1,0,0:0:0:0:
64,192,79740,1,0,0:0:0:0:
448,192,80048,1,0,0:0:0:0:
192,192,80355,128,0,80971:0:0:0:0:
448,192,80355,1,0,0:0:0:0:
64,192,80663,1,0,0:0:0:0:
64,192,80971,128,0,82201:0:0:0:0:
320,192,80971,1,0,0:0:0:0:
192,192,82201,128,0,82817:0:0:0:0:
320,192,82817,128,0,84048:0:0:0:0:
448,192,82817,1,0,0:0:0:0:
192,192,83124,1,0,0:0:0:0:
448,192,83432,1,0,0:0:0:0:
64,192,83740,1,0,0:0:0:0:
448,192,83740,1,0,0:0:0:0:
64,192,83894,1,0,0:0:0:0:
448,192,83894,1,0,0:0:0:0:
192,192,84048,128,0,85278:0:0:0:0:
64,192,84048,1,0,0:0:0:0:
448,192,84355,1,0,0:0:0:0:
64,192,84663,1,0,0:0:0:0:
320,192,84817,1,0,0:0:0:0:
448,192,84971,1,0,0:0:0:0:
64,192,84971,1,0,0:0:0:0:
448,192,85124,1,0,0:0:0:0:
64,192,85124,1,0,0:0:0:0:
320,192,85201,1,0,0:0:0:0:
448,192,85278,1,0,0:0:0:0:
448,192,85432,1,0,0:0:0:0:
320,192,85586,1,0,0:0:0:0:
64,192,85740,1,0,0:0:0:0:
192,192,85894,1,0,0:0:0:0:
320,192,86048,1,0,0:0:0:0:
64,192,86201,1,0,0:0:0:0:
320,192,86201,1,0,0:0:0:0:
64,192,86355,1,0,0:0:0:0:
320,192,86355,1,0,0:0:0:0:
192,192,86509,1,0,0:0:0:0:
448,192,86663,1,0,0:0:0:0:
320,192,86817,1,0,0:0:0:0:
192,192,86971,1,0,0:0:0:0:
448,192,87124,1,0,0:0:0:0:
192,192,87278,1,0,0:0:0:0:
448,192,87278,1,0,0:0:0:0:
64,192,87432,1,0,0:0:0:0:
320,192,87432,1,0,0:0:0:0:
448,192,87586,1,0,0:0:0:0:
192,192,87586,1,0,0:0:0:0:
320,192,87663,1,0,0:0:0:0:
192,192,87740,1,0,0:0:0:0:
320,192,87894,1,0,0:0:0:0:
448,192,88048,1,0,0:0:0:0:
320,192,88201,1,0,0:0:0:0:
192,192,88355,1,0,0:0:0:0:
320,192,88509,1,0,0:0:0:0:
64,192,88663,1,0,0:0:0:0:
448,192,88663,1,0,0:0:0:0:
64,192,88817,1,0,0:0:0:0:
448,192,88817,1,0,0:0:0:0:
192,192,88971,1,0,0:0:0:0:
320,192,88971,1,0,0:0:0:0:
448,192,89124,1,0,0:0:0:0:
64,192,89278,1,0,0:0:0:0:
320,192,89278,1,0,0:0:0:0:
192,192,89432,1,0,0:0:0:0:
64,192,89586,1,0,0:0:0:0:
448,192,89586,1,0,0:0:0:0:
320,192,89740,1,0,0:0:0:0:
448,192,89894,1,0,0:0:0:0:
192,192,89894,1,0,0:0:0:0:
448,192,90048,1,0,0:0:0:0:
320,192,90099,1,0,0:0:0:0:
192,192,90150,1,0,0:0:0:0:
64,192,90201,1,0,0:0:0:0:
192,192,90355,1,0,0:0:0:0:
320,192,90432,1,0,0:0:0:0:
64,192,90509,1,0,0:0:0:0:
448,192,90509,1,0,0:0:0:0:
192,192,90663,1,0,0:0:0:0:
448,192,90817,1,0,0:0:0:0:
320,192,90817,1,0,0:0:0:0:
448,192,90971,1,0,0:0:0:0:
320,192,91048,1,0,0:0:0:0:
192,192,91124,1,0,0:0:0:0:
64,192,91124,1,0,0:0:0:0:
64,192,91278,1,0,0:0:0:0:
192,192,91278,1,0,0:0:0:0:
448,192,91432,1,0,0:0:0:0:
320,192,91432,1,0,0:0:0:0:
64,192,91509,1,0,0:0:0:0:
192,192,91509,1,0,0:0:0:0:
320,192,91586,1,0,0:0:0:0:
448,192,91586,1,0,0:0:0:0:
192,192,91663,1,0,0:0:0:0:
64,192,91663,1,0,0:0:0:0:
320,192,91740,1,0,0:0:0:0:
448,192,91740,1,0,0:0:0:0:
192,192,91817,1,0,0:0:0:0:
64,192,91817,1,0,0:0:0:0:
320,192,91894,1,0,0:0:0:0:
448,192,91894,1,0,0:0:0:0:
192,192,91971,1,0,0:0:0:0:
64,192,91971,1,0,0:0:0:0:
320,192,92048,1,0,0:0:0:0:
448,192,92048,1,0,0:0:0:0:
64,192,92124,1,0,0:0:0:0:
192,192,92201,1,0,0:0:0:0:
320,192,92278,1,0,0:0:0:0:
448,192,92355,1,0,0:0:0:0:
320,192,92432,1,0,0:0:0:0:
192,192,92509,1,0,0:0:0:0:
64,192,92586,1,0,0:0:0:0:
192,192,92663,128,0,93894:0:0:0:0:
320,192,95124,1,0,0:0:0:0:
192,192,95278,1,0,0:0:0:0:
448,192,95432,1,0,0:0:0:0:
64,192,95432,1,0,0:0:0:0:
192,192,95586,128,0,95740:0:0:0:0:
320,192,95740,128,0,95894:0:0:0:0:
192,192,95894,128,0,96048:0:0:0:0:
64,192,96048,1,0,0:0:0:0:
448,192,96048,1,0,0:0:0:0:
64,192,96201,128,0,96355:0:0:0:0:
192,192,96355,128,0,96509:0:0:0:0:
320,192,96509,128,0,96663:0:0:0:0:
448,192,96663,1,0,0:0:0:0:
64,192,96663,1,0,0:0:0:0:
192,192,96971,1,0,0:0:0:0:
320,192,97048,1,0,0:0:0:0:
448,192,97124,1,0,0:0:0:0:
320,192,97201,1,0,0:0:0:0:
192,192,97278,1,0,0:0:0:0:
64,192,97355,1,0,0:0:0:0:
192,192,97432,1,0,0:0:0:0:
320,192,97509,1,0,0:0:0:0:
448,192,97586,128,0,97894:0:0:0:0:
64,192,97586,1,0,0:0:0:0:
192,192,97740,1,0,0:0:0:0:
320,192,97894,1,0,0:0:0:0:
64,192,97894,1,0,0:0:0:0:
448,192,98048,1,0,0:0:0:0:
64,192,98201,128,0,98509:0:0:0:0:
320,192,98201,1,0,0:0:0:0:
192,192,98355,1,0,0:0:0:0:
320,192,98432,1,0,0:0:0:0:
448,192,98509,1,0,0:0:0:0:
192,192,98509,1,0,0:0:0:0:
320,192,98663,1,0,0:0:0:0:
448,192,98817,128,0,99124:0:0:0:0:
192,192,98817,1,0,0:0:0:0:
64,192,98971,1,0,0:0:0:0:
192,192,99048,1,0,0:0:0:0:
64,192,99124,1,0,0:0:0:0:
320,192,99124,1,0,0:0:0:0:
192,192,99278,1,0,0:0:0:0:
64,192,99432,128,0,99586:0:0:0:0:
192,192,99586,128,0,99740:0:0:0:0:
320,192,99740,128,0,99894:0:0:0:0:
448,192,99894,128,0,100048:0:0:0:0:
320,192,100048,1,0,0:0:0:0:
192,192,100201,1,0,0:0:0:0:
64,192,100355,1,0,0:0:0:0:
448,192,100355,1,0,0:0:0:0:
192,192,100509,1,0,0:0:0:0:
448,192,100663,1,0,0:0:0:0:
64,192,100663,1,0,0:0:0:0:
320,192,100817,1,0,0:0:0:0:
448,192,100971,1,0,0:0:0:0:
192,192,100971,1,0,0:0:0:0:
320,192,101124,1,0,0:0:0:0:
64,192,101278,1,0,0:0:0:0:
448,192,101278,1,0,0:0:0:0:
192,192,101432,1,0,0:0:0:0:
320,192,101586,1,0,0:0:0:0:
64,192,101586,1,0,0:0:0:0:
192,192,101740,1,0,0:0:0:0:
448,192,101894,128,0,102048:0:0:0:0:
64,192,101894,1,0,0:0:0:0:
320,192,102048,128,0,102201:0:0:0:0:
192,192,102201,128,0,102355:0:0:0:0:
448,192,102201,1,0,0:0:0:0:
64,192,102355,128,0,102817:0:0:0:0:
192,192,102509,1,0,0:0:0:0:
320,192,102663,1,0,0:0:0:0:
192,192,102817,1,0,0:0:0:0:
320,192,102817,128,0,102971:0:0:0:0:
448,192,102971,128,0,103432:0:0:0:0:
64,192,103124,1,0,0:0:0:0:
192,192,103278,1,0,0:0:0:0:
320,192,103432,1,0,0:0:0:0:
64,192,103432,1,0,0:0:0:0:
192,192,103586,1,0,0:0:0:0:
320,192,103740,1,0,0:0:0:0:
192,192,103894,1,0,0:0:0:0:
320,192,104048,1,0,0:0:0:0:
448,192,104201,1,0,0:0:0:0:
320,192,104201,1,0,0:0:0:0:
192,192,104355,1,0,0:0:0:0:
320,192,104509,1,0,0:0:0:0:
192,192,104663,1,0,0:0:0:0:
64,192,104663,1,0,0:0:0:0:
320,192,104817,1,0,0:0:0:0:
64,192,104971,1,0,0:0:0:0:
192,192,105124,1,0,0:0:0:0:
320,192,105278,1,0,0:0:0:0:
64,192,105278,1,0,0:0:0:0:
192,192,105432,1,0,0:0:0:0:
64,192,105586,1,0,0:0:0:0:
448,192,105586,1,0,0:0:0:0:
320,192,105740,1,0,0:0:0:0:
448,192,105894,1,0,0:0:0:0:
192,192,105894,1,0,0:0:0:0:
320,192,106048,1,0,0:0:0:0:
448,192,106201,1,0,0:0:0:0:
64,192,106201,1,0,0:0:0:0:
192,192,106355,1,0,0:0:0:0:
64,192,106509,1,0,0:0:0:0:
448,192,106509,1,0,0:0:0:0:
320,192,106663,1,0,0:0:0:0:
192,192,106817,1,0,0:0:0:0:
320,192,106894,1,0,0:0:0:0:
192,192,106971,1,0,0:0:0:0:
64,192,107124,1,0,0:0:0:0:
192,192,107201,1,0,0:0:0:0:
320,192,107278,1,0,0:0:0:0:
448,192,107355,1,0,0:0:0:0:
320,192,107432,1,0,0:0:0:0:
64,192,107586,1,0,0:0:0:0:
192,192,107740,1,0,0:0:0:0:
448,192,107740,1,0,0:0:0:0:
64,192,107894,1,0,0:0:0:0:
192,192,108048,1,0,0:0:0:0:
320,192,108201,1,0,0:0:0:0:
448,192,108355,1,0,0:0:0:0:
192,192,108355,1,0,0:0:0:0:
320,192,108432,1,0,0:0:0:0:
192,192,108509,1,0,0:0:0:0:
64,192,108586,1,0,0:0:0:0:
320,192,108663,1,0,0:0:0:0:
320,192,108817,1,0,0:0:0:0:
448,192,108971,1,0,0:0:0:0:
192,192,108971,1,0,0:0:0:0:
64,192,109048,1,0,0:0:0:0:
192,192,109124,1,0,0:0:0:0:
320,192,109201,1,0,0:0:0:0:
448,192,109278,1,0,0:0:0:0:
64,192,109432,1,0,0:0:0:0:
192,192,109586,1,0,0:0:0:0:
320,192,109740,1,0,0:0:0:0:
448,192,109894,1,0,0:0:0:0:
64,192,109894,1,0,0:0:0:0:
192,192,109894,1,0,0:0:0:0:
448,192,110201,1,0,0:0:0:0:
64,192,110201,1,0,0:0:0:0:
320,192,110201,1,0,0:0:0:0:
448,192,110509,1,0,0:0:0:0:
64,192,110509,1,0,0:0:0:0:
320,192,110509,1,0,0:0:0:0:
64,192,110817,5,0,0:0:0:0:
192,192,110817,1,0,0:0:0:0:
448,192,110971,1,0,0:0:0:0:
320,192,110971,1,0,0:0:0:0:
192,192,111124,1,0,0:0:0:0:
64,192,111124,1,0,0:0:0:0:
320,192,111278,1,0,0:0:0:0:
448,192,111432,1,0,0:0:0:0:
192,192,111432,1,0,0:0:0:0:
320,192,111586,1,0,0:0:0:0:
64,192,111740,128,0,111894:0:0:0:0:
192,192,111740,1,0,0:0:0:0:
448,192,111740,1,0,0:0:0:0:
192,192,111894,128,0,112048:0:0:0:0:
320,192,111894,1,0,0:0:0:0:
64,192,112048,128,0,112201:0:0:0:0:
320,192,112048,1,0,0:0:0:0:
448,192,112201,1,0,0:0:0:0:
192,192,112201,1,0,0:0:0:0:
320,192,112278,1,0,0:0:0:0:
192,192,112355,1,0,0:0:0:0:
64,192,112509,1,0,0:0:0:0:
448,192,112663,1,0,0:0:0:0:
192,192,112663,1,0,0:0:0:0:
320,192,112817,1,0,0:0:0:0:
448,192,112971,1,0,0:0:0:0:
64,192,112971,1,0,0:0:0:0:
192,192,112971,1,0,0:0:0:0:
320,192,113124,1,0,0:0:0:0:
448,192,113278,1,0,0:0:0:0:
192,192,113278,1,0,0:0:0:0:
64,192,113432,1,0,0:0:0:0:
320,192,113586,1,0,0:0:0:0:
448,192,113663,1,0,0:0:0:0:
320,192,113740,1,0,0:0:0:0:
64,192,113894,1,0,0:0:0:0:
192,192,113971,1,0,0:0:0:0:
320,192,114048,1,0,0:0:0:0:
192,192,114201,1,0,0:0:0:0:
320,192,114278,1,0,0:0:0:0:
448,192,114355,1,0,0:0:0:0:
320,192,114432,1,0,0:0:0:0:
192,192,114509,128,0,114663:0:0:0:0:
64,192,114663,128,0,114817:0:0:0:0:
320,192,114817,1,0,0:0:0:0:
448,192,115124,128,0,115278:0:0:0:0:
320,192,115278,128,0,115432:0:0:0:0:
192,192,115432,1,0,0:0:0:0:
192,192,115740,128,0,115894:0:0:0:0:
64,192,115894,128,0,116048:0:0:0:0:
320,192,116048,1,0,0:0:0:0:
192,192,116355,128,0,116509:0:0:0:0:
320,192,116509,128,0,116663:0:0:0:0:
448,192,116663,1,0,0:0:0:0:
192,192,116971,128,0,117278:0:0:0:0:
448,192,117278,5,0,0:0:0:0:
320,192,117278,1,0,0:0:0:0:
64,192,117278,1,0,0:0:0:0:
320,192,117586,1,0,0:0:0:0:
448,192,117586,1,0,0:0:0:0:
64,192,117586,1,0,0:0:0:0:
448,192,117894,1,0,0:0:0:0:
64,192,117894,1,0,0:0:0:0:
192,192,117894,1,0,0:0:0:0:
320,192,118201,1,0,0:0:0:0:
448,192,118201,1,0,0:0:0:0:
64,192,118201,1,0,0:0:0:0:
64,192,118509,1,0,0:0:0:0:
192,192,118509,1,0,0:0:0:0:
192,192,118663,1,0,0:0:0:0:
64,192,118663,1,0,0:0:0:0:
320,192,118817,1,0,0:0:0:0:
192,192,118817,1,0,0:0:0:0:
448,192,118971,1,0,0:0:0:0:
320,192,118971,1,0,0:0:0:0:
192,192,119124,1,0,0:0:0:0:
64,192,119124,1,0,0:0:0:0:
320,192,119201,1,0,0:0:0:0:
448,192,119278,1,0,0:0:0:0:
320,192,119355,1,0,0:0:0:0:
192,192,119432,128,0,119740:0:0:0:0:
