osu file format v14

[General]
AudioFilename: INSOMNIA.mp3
AudioLeadIn: 0
PreviewTime: 91629
Countdown: 1
SampleSet: Soft
StackLeniency: 0.7
Mode: 0
LetterboxInBreaks: 1
WidescreenStoryboard: 1

[Editor]
Bookmarks: 35014
DistanceSpacing: 1
BeatDivisor: 2
GridSize: 4
TimelineZoom: 1.4

[Metadata]
Title:INSOMNIA
TitleUnicode:INSOMNIA
Artist:Jakarta Funk Brothers
ArtistUnicode:ジャカルタファンクブラザーズ
Creator:Morbon
Version:Normal
Source:Beatmania IIDX 21 SPADA
Tags:Nekomata Master DJ TOTTO BluOxy
BeatmapID:776425
BeatmapSetID:336622

[Difficulty]
HPDrainRate:3
CircleSize:3
OverallDifficulty:4
ApproachRate:5
SliderMultiplier:1
SliderTickRate:1

[Events]
//Background and Video events
0,0,"707891.png",0,0
//Break Periods
//Storyboard Layer 0 (Background)
//Storyboard Layer 1 (Fail)
//Storyboard Layer 2 (Pass)
//Storyboard Layer 3 (Foreground)
//Storyboard Sound Samples

[TimingPoints]
553,307.692307692308,4,2,0,55,1,0
44860,-100,4,2,0,70,0,0
49783,-100,4,2,0,70,0,0
69476,-133.333333333333,4,2,0,70,0,0
79322,-100,4,2,0,70,0,0
89168,-100,4,2,0,45,0,0
91629,-79.3650793650794,4,1,0,70,0,1
111322,-100,4,2,0,70,0,0
115937,-79.3650793650794,4,2,0,70,0,0

[HitObjects]
256,192,553,12,0,2553,0:0:0:0:
100,96,3014,6,0,P|196:72|308:112,1,200,2|2,0:0|0:0,0:0:0:0:
292,300,4245,6,0,L|196:348,1,100,2|2,0:0|0:0,0:0:0:0:
112,304,4860,1,2,0:0:0:0:
48,228,5168,1,2,0:0:0:0:
88,136,5476,6,0,P|188:132|284:180,1,200,4|0,0:0|0:0,0:0:0:0:
332,256,6399,1,8,0:0:0:0:
400,328,6706,2,0,L|472:252,1,100,0|8,0:0|0:0,0:0:0:0:
396,188,7322,2,0,L|368:88,1,100,0|8,0:0|0:0,0:0:0:0:
276,52,7937,6,0,L|64:80,1,200,2|2,0:0|0:0,0:0:0:0:
48,176,8860,1,8,0:0:0:0:
124,240,9168,2,0,B|100:284|100:284|112:292|112:292|84:344,1,100,2|8,0:0|0:0,0:0:0:0:
196,308,9783,2,0,B|246:310|246:310|247:295|247:295|307:298,1,100,2|8,0:0|0:0,0:0:0:0:
376,336,10399,6,0,P|440:272|428:160,1,200,0|0,0:0|0:0,0:0:0:0:
336,196,11322,1,8,0:0:0:0:
244,232,11629,2,0,P|180:168|192:56,1,200,0|0,0:0|0:0,0:0:0:0:
288,56,12553,1,8,0:0:0:0:
368,116,12860,6,0,P|396:160|456:188,1,100,0|8,0:0|0:0,0:0:0:0:
460,88,13476,2,0,P|424:40|368:20,1,100,0|8,0:0|0:0,0:0:0:0:
288,56,14091,6,0,B|216:72|216:72|224:84|224:84|148:112|128:184,1,200,0|8,0:0|0:0,0:0:0:0:
244,324,15322,6,0,P|300:320|360:264,1,100,0|8,0:0|0:0,0:0:0:0:
420,240,15937,2,0,P|404:184|412:128,1,100,0|8,0:0|0:0,0:0:0:0:
364,52,16553,2,0,L|256:80,1,100,0|8,0:0|0:0,0:0:0:0:
216,164,17168,2,0,P|156:176|104:164,1,100,0|8,0:0|0:0,0:0:0:0:
80,76,17783,6,0,P|172:48|276:84,1,200,2|0,0:0|0:0,0:0:0:0:
320,164,18706,1,8,0:0:0:0:
272,252,19014,2,0,P|192:296|84:252,1,200,0|0,0:0|0:0,0:0:0:0:
40,180,19937,1,8,0:0:0:0:
72,84,20245,6,0,L|200:100,1,100,0|8,0:0|0:0,0:0:0:0:
232,176,20860,2,0,B|236:204|236:204|216:224,1,50,0|0,0:0|0:0,0:0:0:0:
176,240,21168,2,0,B|172:268|172:268|192:288,1,50,8|0,0:0|0:0,0:0:0:0:
232,308,21476,6,0,L|336:336,1,100,0|8,0:0|0:0,0:0:0:0:
364,244,22091,2,0,L|267:218,1,100,0|8,0:0|0:0,0:0:0:0:
176,240,22706,6,0,P|132:244|64:216,1,100,2|10,0:0|0:0,0:0:0:0:
140,148,23322,2,0,P|216:128|312:200,1,200,0|0,0:0|0:0,0:0:0:0:
308,296,24245,1,8,0:0:0:0:
212,328,24553,2,0,L|104:336,1,100,0|0,0:0|0:0,0:0:0:0:
48,260,25168,6,0,B|40:208|40:208|44:156,1,100,4|8,0:0|0:0,0:0:0:0:
132,116,25783,2,0,B|140:168|140:168|136:220,1,100,0|8,0:0|0:0,0:0:0:0:
164,256,26245,1,0,0:0:0:0:
192,296,26399,2,0,L|296:328,1,100,2|8,0:0|0:0,0:0:0:0:
352,248,27014,2,0,L|248:216,1,100,0|8,0:0|0:0,0:0:0:0:
228,176,27476,1,0,0:0:0:0:
224,128,27629,6,0,P|252:72|292:56,1,100,4|8,0:0|0:0,0:0:0:0:
379,81,28245,2,0,P|362:127|320:152,1,100,2|8,0:0|0:0,0:0:0:0:
280,180,28706,1,0,0:0:0:0:
252,224,28860,6,0,L|120:208,2,100,0|2|2,0:0|0:0|0:0,0:0:0:0:
328,288,29783,1,2,0:0:0:0:
408,348,30091,6,0,L|460:240,1,100,4|8,0:0|0:0,0:0:0:0:
460,160,30706,2,0,P|400:144|356:144,1,100,0|8,0:0|0:0,0:0:0:0:
316,164,31168,1,0,0:0:0:0:
268,152,31322,2,0,L|160:164,1,100,2|8,0:0|0:0,0:0:0:0:
112,244,31937,2,0,L|220:256,1,100,0|8,0:0|0:0,0:0:0:0:
252,284,32399,1,0,0:0:0:0:
304,284,32553,6,0,B|344:252|344:252|352:200,1,100,4|8,0:0|0:0,0:0:0:0:
268,152,33168,2,0,B|228:120|228:120|220:68,1,100,2|8,0:0|0:0,0:0:0:0:
264,52,33629,1,0,0:0:0:0:
312,36,33783,6,0,L|424:48,2,100,2|10|0,0:0|0:0|0:0,0:0:0:0:
212,24,34706,1,8,0:0:0:0:
116,52,35014,5,4,0:0:0:0:
116,52,35322,1,8,0:0:0:0:
40,116,35629,2,0,L|68:224,1,100,0|8,0:0|0:0,0:0:0:0:
104,248,36091,1,0,0:0:0:0:
152,264,36245,1,2,0:0:0:0:
152,264,36553,1,8,0:0:0:0:
232,324,36860,2,0,P|280:312|328:288,1,100,0|8,0:0|0:0,0:0:0:0:
348,244,37322,1,0,0:0:0:0:
344,196,37476,5,4,0:0:0:0:
344,196,37783,1,8,0:0:0:0:
244,180,38091,1,0,0:0:0:0:
264,80,38399,1,8,0:0:0:0:
359,98,38706,6,0,P|355:160|333:215,1,100,2|10,0:0|0:0,0:0:0:0:
280,272,39322,2,0,P|232:276|164:244,1,100,2|10,0:0|0:0,0:0:0:0:
160,216,39783,1,0,0:0:0:0:
112,208,39937,6,0,B|120:160|120:160|147:117,1,100,0|12,0:0|0:0,0:0:0:0:
244,84,40553,2,0,B|292:92|292:92|334:119,1,100,0|8,0:0|0:0,0:0:0:0:
412,184,41168,2,0,L|304:228,1,100,2|8,0:0|0:0,0:0:0:0:
256,284,41783,2,0,P|192:276|144:248,1,100,0|8,0:0|0:0,0:0:0:0:
136,216,42245,1,0,0:0:0:0:
88,232,42399,6,0,L|72:124,1,100,0|8,0:0|0:0,0:0:0:0:
144,64,43014,2,0,L|160:172,1,100,0|8,0:0|0:0,0:0:0:0:
252,204,43629,1,0,0:0:0:0:
352,220,43937,1,8,0:0:0:0:
440,172,44245,1,0,0:0:0:0:
464,76,44553,1,8,0:0:0:0:
388,12,44860,6,0,P|316:48|292:200,2,200,4|4|0,0:0|3:0|0:0,0:0:0:0:
448,92,46399,1,4,3:0:0:0:
464,196,46706,1,4,0:0:0:0:
400,272,47014,1,4,3:0:0:0:
304,296,47322,6,0,L|204:264,1,100,4|4,3:0|3:0,0:0:0:0:
128,208,47937,2,0,L|88:320,1,100,4|4,3:0|3:0,0:0:0:0:
36,220,48553,6,0,L|39:170,1,50,4|0,3:0|3:0,0:0:0:0:
76,136,48860,2,0,L|113:103,1,50,4|0,3:0|3:0,0:0:0:0:
160,84,49168,2,0,L|209:87,1,50,4|4,3:0|3:0,0:0:0:0:
260,96,49476,2,0,L|292:133,1,50,4|0,3:0|0:0,0:0:0:0:
332,164,49783,6,0,P|388:152|400:16,1,200,2|0,0:0|0:0,0:0:0:0:
312,32,50706,1,8,0:0:0:0:
212,28,51014,2,0,L|112:44,1,100,2|8,0:0|0:0,0:0:0:0:
32,104,51629,2,0,L|48:204,1,100,0|8,0:0|0:0,0:0:0:0:
128,264,52245,6,0,B|196:292|252:256|252:256|348:256,1,200,2|0,0:0|0:0,0:0:0:0:
396,188,53168,1,8,0:0:0:0:
468,260,53476,2,0,B|460:312|460:312|408:340,1,100,2|8,0:0|0:0,0:0:0:0:
320,320,54091,2,0,B|288:308|288:308|268:312|268:312|248:304|248:304|224:304|224:304|188:292,1,100,2|2,0:0|0:0,0:0:0:0:
124,316,54706,6,0,P|72:236|88:112,1,200,2|0,0:0|0:0,0:0:0:0:
168,92,55629,1,8,0:0:0:0:
247,151,55937,2,0,P|290:176|340:179,1,100,2|8,0:0|0:0,0:0:0:0:
416,112,56553,2,0,P|440:152|440:220,1,100,0|8,0:0|0:0,0:0:0:0:
404,296,57168,6,0,B|344:316|344:316|264:320|264:320|184:348,1,200,2|2,0:0|0:0,0:0:0:0:
116,308,58091,1,8,0:0:0:0:
44,240,58399,2,0,B|28:188|28:188|44:132,1,100,2|10,0:0|0:0,0:0:0:0:
128,100,59014,2,0,B|172:116|172:116|192:108|192:108|248:112,1,100,2|10,0:0|0:0,0:0:0:0:
304,172,59629,6,0,P|392:136|408:40,1,200,0|0,0:0|0:0,0:0:0:0:
312,68,60553,1,8,0:0:0:0:
216,95,60860,2,0,P|192:139|190:188,1,100,2|8,0:0|0:0,0:0:0:0:
196,288,61476,2,0,P|140:280|108:228,1,100,0|8,0:0|0:0,0:0:0:0:
44,176,62091,6,0,P|84:100|184:16,1,200,2|0,0:0|0:0,0:0:0:0:
260,60,63014,1,8,0:0:0:0:
344,116,63322,2,0,B|392:136|392:136|456:112,1,100,2|8,0:0|0:0,0:0:0:0:
456,216,63937,2,0,B|436:264|436:264|460:328,1,100,2|2,0:0|0:0,0:0:0:0:
356,332,64553,6,0,P|268:348|184:272,1,200,2|0,0:0|0:0,0:0:0:0:
200,184,65476,1,8,0:0:0:0:
292,224,65783,2,0,P|340:188|352:136,1,100,2|8,0:0|0:0,0:0:0:0:
280,80,66399,2,0,L|180:64,1,100,0|8,0:0|0:0,0:0:0:0:
100,120,67014,6,0,P|68:184|156:284,1,200,2|0,0:0|0:0,0:0:0:0:
228,244,67937,1,8,0:0:0:0:
288,324,68245,2,0,B|332:336|332:336|344:328|344:328|408:328,1,100,2|10,0:0|0:0,0:0:0:0:
408,232,68860,2,0,B|364:220|364:220|352:228|352:228|288:228,1,100,2|10,0:0|0:0,0:0:0:0:
260,160,69476,5,4,0:0:0:0:
256,192,69629,12,4,70706,0:0:0:0:
172,232,71322,5,0,0:0:0:0:
240,264,71629,1,0,0:0:0:0:
312,284,71937,2,0,P|368:272|424:180,2,150.000005722046,4|4|0,0:0|0:0|0:0,0:0:0:0:
240,264,73476,1,0,0:0:0:0:
172,232,73783,2,0,P|136:208|124:156,1,75.0000028610231,4|0,0:0|0:0,0:0:0:0:
180,76,74399,5,4,0:0:0:0:
256,192,74553,12,4,75629,0:0:0:0:
80,296,76245,5,0,0:0:0:0:
116,232,76553,1,0,0:0:0:0:
184,268,76860,2,0,P|252:243|284:177,2,150.000005722046,4|4|0,0:0|0:0|0:0,0:0:0:0:
116,232,78399,1,0,0:0:0:0:
56,184,78706,2,0,L|52:96,1,75.0000028610231,4|0,0:0|0:0,0:0:0:0:
144,64,79322,6,0,P|236:44|344:68,1,200,4|4,0:0|0:0,0:0:0:0:
400,180,80245,1,4,0:0:0:0:
400,180,80553,2,0,L|320:256,1,100,4|4,0:0|0:0,0:0:0:0:
204,292,81168,2,0,P|144:304|88:288,1,100,4|4,0:0|0:0,0:0:0:0:
64,248,81629,1,0,0:0:0:0:
44,188,81783,6,0,P|64:112|168:52,1,200,4|4,0:0|0:0,0:0:0:0:
272,128,82706,1,4,0:0:0:0:
376,208,83014,2,0,L|476:164,1,100,4|4,0:0|0:0,0:0:0:0:
356,100,83629,2,0,P|320:56|272:40,1,100,4|4,0:0|0:0,0:0:0:0:
216,52,84091,1,0,0:0:0:0:
152,40,84245,6,0,B|116:136|116:136|148:232,1,200,4|4,0:0|0:0,0:0:0:0:
256,300,85168,1,4,0:0:0:0:
352,200,85476,2,0,B|256:164|256:164|160:196,1,200,4|4,0:0|0:0,0:0:0:0:
84,300,86399,1,4,0:0:0:0:
84,300,86706,6,0,L|192:316,1,100,4|4,0:0|0:0,0:0:0:0:
308,276,87322,2,0,L|416:292,1,100,4|4,0:0|0:0,0:0:0:0:
464,176,87937,2,0,L|408:164,1,50,4|0,0:0|0:0,0:0:0:0:
356,172,88245,2,0,L|292:172,1,50,4|0,0:0|0:0,0:0:0:0:
248,200,88553,2,0,L|200:236,1,50,4|0,0:0|0:0,0:0:0:0:
152,264,88860,2,0,L|72:280,1,50,4|0,0:0|0:0,0:0:0:0:
44,248,89168,5,4,0:0:0:0:
256,192,89322,12,0,91014,0:0:0:0:
216,144,91629,6,0,P|196:204|204:280,1,125.999996154785,2|8,0:0|0:0,0:0:0:0:
320,220,92245,2,0,P|323:157|303:98,1,125.999996154785,0|8,0:0|0:0,0:0:0:0:
180,68,92860,2,0,L|40:48,2,125.999996154785,2|8|0,0:0|0:0|0:0,0:0:0:0:
304,48,93783,1,8,0:1:0:0:
428,60,94091,6,0,P|456:136|344:264,1,251.999992309571,2|0,0:3|0:0,0:0:0:0:
260,336,95014,1,8,0:0:0:0:
140,304,95322,2,0,P|112:228|224:100,1,251.999992309571,0|0,0:0|0:0,0:0:0:0:
316,52,96245,1,8,0:0:0:0:
420,120,96553,6,0,L|304:204,1,125.999996154785,2|8,0:0|0:0,0:0:0:0:
192,176,97168,2,0,L|180:32,1,125.999996154785,0|8,0:0|0:0,0:0:0:0:
60,88,97783,2,0,P|40:152|56:220,1,125.999996154785,2|8,0:0|0:0,0:0:0:0:
136,300,98399,1,0,0:0:0:0:
136,300,98706,1,8,0:0:0:0:
232,220,99014,6,0,P|96:184|12:280,1,251.999992309571,2|0,0:0|0:0,0:0:0:0:
136,300,99937,1,8,0:0:0:0:
256,332,100245,2,0,P|320:340|384:312,1,125.999996154785,2|8,0:0|0:0,0:0:0:0:
280,204,100860,2,0,P|229:243|203:308,1,125.999996154785,0|8,0:0|0:0,0:0:0:0:
80,328,101476,6,0,P|48:252|72:172,1,125.999996154785,2|8,0:0|0:0,0:0:0:0:
140,120,102091,2,0,P|172:196|148:276,1,125.999996154785,0|8,0:0|0:0,0:0:0:0:
268,312,102706,2,0,L|408:344,2,125.999996154785,2|8|0,0:0|0:0|0:0,0:0:0:0:
144,300,103629,1,8,0:0:0:0:
40,228,103937,6,0,P|60:160|244:84,1,251.999992309571,2|0,0:0|0:0,0:0:0:0:
324,132,104860,1,8,0:0:0:0:
323,259,105168,2,0,P|243:227|215:67,1,251.999992309571,2|0,0:0|0:0,0:0:0:0:
320,16,106091,1,8,0:0:0:0:
444,44,106399,6,0,L|432:172,1,125.999996154785,2|8,0:0|0:0,0:0:0:0:
308,144,107014,2,0,L|296:272,1,125.999996154785,0|8,0:0|0:0,0:0:0:0:
172,248,107629,2,0,P|96:208|84:120,1,125.999996154785,2|8,0:0|0:0,0:0:0:0:
128,56,108245,2,0,P|204:96|216:184,1,125.999996154785,0|8,0:0|0:0,0:0:0:0:
272,244,108860,6,0,P|360:304|484:240,1,251.999992309571,2|0,0:0|0:0,0:0:0:0:
376,172,109783,1,8,0:0:0:0:
252,148,110091,2,0,L|124:236,1,125.999996154785,2|10,0:0|0:0,0:0:0:0:
40,156,110706,2,0,L|60:28,1,125.999996154785,2|10,0:0|0:0,0:0:0:0:
156,56,111322,6,0,B|216:56|216:56|283:94|283:94|360:92,3,200,4|4|4|4,0:0|0:0|0:0|0:0,0:0:0:0:
440,232,113783,6,0,P|348:260|304:244,2,100,4|4|4,3:0|3:0|3:0,0:0:0:0:
444,120,114706,1,4,3:0:0:0:
368,56,115014,2,0,L|272:88,1,100,4|4,3:0|3:0,0:0:0:0:
184,136,115629,1,4,3:0:0:0:
84,212,115937,6,0,B|108:248|108:248|124:244|124:244|224:284|308:192,1,251.999992309571,4|0,0:0|0:0,0:0:0:0:
