osu file format v14

[General]
AudioFilename: INSOMNIA.mp3
AudioLeadIn: 0
PreviewTime: 91629
Countdown: 1
SampleSet: Soft
StackLeniency: 0.7
Mode: 0
LetterboxInBreaks: 1
WidescreenStoryboard: 1

[Editor]
DistanceSpacing: 0.5
BeatDivisor: 4
GridSize: 4
TimelineZoom: 1.9

[Metadata]
Title:INSOMNIA
TitleUnicode:INSOMNIA
Artist:Jakarta Funk Brothers
ArtistUnicode:ジャカルタファンクブラザーズ
Creator:Morbon
Version:BOStyle
Source:Beatmania IIDX 21 SPADA
Tags:Nekomata Master DJ TOTTO BluOxy
BeatmapID:749724
BeatmapSetID:336622

[Difficulty]
HPDrainRate:5
CircleSize:4
OverallDifficulty:8
ApproachRate:9.3
SliderMultiplier:2.4
SliderTickRate:1

[Events]
//Background and Video events
0,0,"707891.png",0,0
Video,-3000,"best bga.mp4"
//Break Periods
//Storyboard Layer 0 (Background)
//Storyboard Layer 1 (Fail)
//Storyboard Layer 2 (Pass)
//Storyboard Layer 3 (Foreground)
//Storyboard Sound Samples

[TimingPoints]
553,307.692307692308,4,2,0,55,1,0
5168,-66.6666666666667,4,2,0,55,0,0
5476,-133.333333333333,4,2,0,55,0,0
9783,-88.4955752212389,4,2,0,55,0,0
10399,-133.333333333333,4,2,0,55,0,0
12860,-88.4955752212389,4,2,0,55,0,0
14091,-100,4,2,0,45,0,0
15322,-100,4,2,0,70,0,0
22706,-88.4955752212389,4,2,0,50,0,0
24706,-133.333333333333,4,2,0,60,0,0
25168,-100,4,2,0,70,0,1
33783,-100,4,2,0,70,0,0
35014,-100,4,2,0,70,0,1
39322,-100,4,2,0,70,0,0
40245,-100,4,2,0,70,0,1
44860,-100,4,2,0,70,0,0
49783,-100,4,2,0,70,0,0
69476,-133.333333333333,4,2,0,70,0,0
79322,-100,4,2,0,70,0,0
88553,-88.4955752212389,4,2,0,70,0,0
89168,-133.333333333333,4,2,0,45,0,0
89783,-88.4955752212389,4,2,0,45,0,0
91014,-66.6666666666667,4,2,0,50,0,0
91322,-66.6666666666667,4,2,0,80,0,0
91629,-79.3650793650794,4,2,0,70,0,1
111322,-100,4,2,0,70,0,0
115937,-79.3650793650794,4,2,0,70,0,0

[HitObjects]
256,192,553,12,0,3015,0:0:0:0:
212,208,3630,5,0,0:0:0:0:
388,44,4246,1,0,0:0:0:0:
440,280,4554,1,0,0:0:0:0:
276,108,4861,1,0,0:0:0:0:
56,296,5169,6,0,P|144:256|248:272,1,180.000006866455
300,312,5477,6,0,B|356:288|356:288|388:240|388:240|448:212,1,180.000006866455,0|2,0:0|0:0,0:0:0:0:
460,304,5938,1,0,0:0:0:0:
312,200,6092,2,0,P|272:148|264:88,1,90.0000034332277,8|0,0:0|0:0,0:0:0:0:
440,72,6400,2,0,P|414:133|367:170,1,90.0000034332277,10|0,0:0|0:0,0:0:0:0:
256,40,6707,5,0,0:0:0:0:
344,56,6861,1,0,0:0:0:0:
344,56,6938,1,0,0:0:0:0:
344,56,7015,1,2,0:0:0:0:
188,96,7169,1,0,0:0:0:0:
472,140,7323,2,0,P|432:172|380:180,1,90.0000034332277,8|0,0:0|0:0,0:0:0:0:
404,280,7630,2,0,P|353:275|310:244,1,90.0000034332277,10|0,0:0|0:0,0:0:0:0:
256,40,7938,5,0,0:0:0:0:
472,140,8092,1,0,0:0:0:0:
472,140,8169,1,0,0:0:0:0:
472,140,8246,1,2,0:0:0:0:
264,272,8400,1,0,0:0:0:0:
352,116,8554,2,0,L|392:48,2,45.0000017166138,8|0|0,0:0|0:0|0:0,0:0:0:0:
144,248,8861,2,0,L|121:287,2,45.0000017166138,10|0|0,0:0|0:0|0:0,0:0:0:0:
32,104,9169,6,0,B|92:123|156:71|156:71|196:95,1,180.000006866455,0|2,0:0|0:0,0:0:0:0:
72,20,9630,1,0,0:0:0:0:
72,292,9784,6,0,B|56:248|56:248|52:196,1,90.4000002758789
148,172,9989,2,0,B|171:213|171:213|184:264,1,90.4000002758789,0|2,0:0|0:0,0:0:0:0:
296,180,10195,2,0,B|260:150|260:150|230:107,1,90.4000002758789,0|0,0:0|0:0,0:0:0:0:
320,28,10400,5,8,0:0:0:0:
348,44,10502,2,0,B|364:52|364:52|420:40,1,60.0000022888184
388,164,10707,1,2,0:0:0:0:
416,148,10810,2,0,B|432:140|432:140|488:152,1,60.0000022888184
384,316,11015,1,8,0:0:0:0:
342,273,11118,1,0,0:0:0:0:
287,250,11220,1,0,0:0:0:0:
227,241,11323,2,0,P|174:249|118:293,1,90.0000034332277,2|0,0:0|0:0,0:0:0:0:
205,332,11630,5,8,0:0:0:0:
248,344,11733,2,0,B|264:348|264:348|312:340,1,60.0000022888184
120,168,11938,1,2,0:0:0:0:
88,200,12041,2,0,B|76:212|76:212|59:258,1,60.0000022888184
228,240,12246,1,8,0:0:0:0:
241,182,12348,1,0,0:0:0:0:
230,123,12451,1,0,0:0:0:0:
197,73,12554,2,0,P|160:40|120:24,1,90.0000034332277,2|0,0:0|0:0,0:0:0:0:
76,288,12861,6,0,B|76:252|76:252|88:228|88:228|88:188,1,90.4000002758789,8|0,0:0|0:0,0:0:0:0:
68,112,13066,1,0,0:0:0:0:
244,180,13169,6,0,B|216:176|216:176|195:160|195:160|159:153,1,90.4000002758789,2|0,0:0|0:0,0:0:0:0:
292,276,13374,1,0,0:0:0:0:
186,267,13477,6,0,B|172:291|172:291|150:305|150:305|132:336,1,90.4000002758789,8|0,0:0|0:0,0:0:0:0:
292,108,13682,1,0,0:0:0:0:
186,118,13784,6,0,B|172:94|172:94|150:80|150:80|132:48,1,90.4000002758789,2|0,0:0|0:0,0:0:0:0:
348,192,13989,1,0,0:0:0:0:
84,192,14092,6,0,P|48:216|72:304,1,120,0|0,0:0|0:0,0:0:0:0:
156,344,14400,6,0,B|200:336|208:280|208:280|236:340|348:336,1,240,2|0,0:0|0:0,0:0:0:0:
492,240,14861,2,0,P|420:264|352:240,1,120
328,224,15092,1,0,0:0:0:0:
288,176,15169,1,0,0:0:0:0:
272,116,15246,1,0,0:0:0:0:
280,56,15323,6,0,P|328:36|408:48,1,120,4|0,0:0|0:0,0:0:0:0:
356,128,15630,1,10,0:0:0:0:
120,164,15784,2,0,L|48:176,2,60,8|0|0,0:0|0:0|0:0,0:0:0:0:
172,272,16092,1,0,0:0:0:0:
132,56,16246,1,10,0:0:0:0:
328,132,16400,1,0,0:0:0:0:
20,80,16554,6,0,B|72:52|72:52|136:56,1,120,8|0,0:0|0:0,0:0:0:0:
172,272,16861,2,0,B|111:276|111:276|59:248,1,120,10|8,0:0|0:0,0:0:0:0:
256,232,17169,1,0,0:0:0:0:
76,368,17323,1,0,0:0:0:0:
256,232,17477,2,0,B|308:196|308:196|396:204,1,120,10|0,0:0|0:0,0:0:0:0:
168,128,17784,5,8,0:0:0:0:
268,348,17938,2,0,P|300:356|340:356,2,60,0|0|10,0:0|0:0|0:0,0:0:0:0:
68,216,18246,1,8,0:0:0:0:
364,236,18400,2,0,P|396:196|404:124,1,120,0|0,0:0|0:0,0:0:0:0:
68,216,18707,2,0,P|86:264|144:307,1,120,10|0,0:0|0:0,0:0:0:0:
228,16,19015,5,8,0:0:0:0:
188,8,19118,1,0,0:0:0:0:
148,16,19220,1,0,0:0:0:0:
112,36,19323,1,10,0:0:0:0:
84,64,19425,1,0,0:0:0:0:
64,100,19528,1,0,0:0:0:0:
56,140,19630,6,0,P|96:148|140:136,1,80
292,104,19836,2,0,P|252:96|208:108,1,80,0|2,0:0|0:0,0:0:0:0:
116,252,20041,2,0,P|156:250|196:227,1,80
256,180,20246,5,8,0:0:0:0:
236,340,20400,1,0,0:0:0:0:
236,340,20477,1,0,0:0:0:0:
236,340,20554,1,10,0:0:0:0:
364,152,20707,1,8,0:0:0:0:
433,298,20861,2,0,P|492:256|512:204,1,120
220,212,21169,2,0,P|247:265|297:297,1,120,10|0,0:0|0:0,0:0:0:0:
364,152,21477,5,8,0:0:0:0:
244,72,21630,2,0,L|184:32,2,60,0|0|10,0:0|0:0|0:0,0:0:0:0:
328,300,21938,1,8,0:0:0:0:
64,80,22092,1,0,0:0:0:0:
24,316,22246,1,0,0:0:0:0:
248,232,22400,1,10,0:0:0:0:
12,184,22554,1,0,0:0:0:0:
172,348,22707,6,0,P|240:372|320:356,1,135.600000413818,8|0,0:0|0:0,0:0:0:0:
328,116,23015,2,0,P|260:92|180:108,1,135.600000413818,10|8,0:0|0:0,0:0:0:0:
116,264,23323,1,0,0:0:0:0:
392,188,23477,2,0,L|464:168,2,67.8000002069092,0|0|10,0:0|0:0|0:0,0:0:0:0:
116,264,23784,2,0,L|50:283,2,67.8000002069092,0|0|8,0:0|0:0|0:0,0:0:0:0:
352,320,24092,5,0,0:0:0:0:
164,132,24246,1,2,0:0:0:0:
228,356,24400,1,0,0:0:0:0:
288,96,24554,1,0,0:0:0:0:
288,96,24707,2,0,B|296:104|296:104|284:112|284:112|292:120|292:120|280:128|280:128|288:136|288:136|276:144|276:144|284:152|284:152|272:160|272:160|280:168|280:168|268:176|268:176|276:184|276:184|264:192|264:192|272:200|272:200|260:208,1,180.000006866455
412,88,25169,5,4,0:0:0:0:
180,32,25323,1,0,0:0:0:0:
180,32,25400,1,0,0:0:0:0:
180,32,25477,1,2,0:0:0:0:
240,264,25630,1,0,0:0:0:0:
304,32,25784,5,0,0:0:0:0:
240,264,25938,1,0,0:0:0:0:
304,164,26092,1,2,0:0:0:0:
124,320,26246,1,0,0:0:0:0:
124,320,26323,1,0,0:0:0:0:
124,320,26400,5,0,0:0:0:0:
44,96,26554,1,0,0:0:0:0:
240,264,26707,1,2,0:0:0:0:
136,208,26861,1,0,0:0:0:0:
368,268,27015,5,0,0:0:0:0:
420,32,27169,1,0,0:0:0:0:
460,144,27323,1,2,0:0:0:0:
260,12,27477,1,0,0:0:0:0:
368,268,27630,5,8,0:0:0:0:
184,112,27784,1,0,0:0:0:0:
364,72,27938,1,2,0:0:0:0:
292,168,28092,1,0,0:0:0:0:
260,12,28246,5,0,0:0:0:0:
56,236,28400,1,0,0:0:0:0:
236,276,28554,1,2,0:0:0:0:
128,332,28707,1,0,0:0:0:0:
164,176,28861,5,0,0:0:0:0:
260,104,29015,1,0,0:0:0:0:
56,312,29169,1,2,0:0:0:0:
180,96,29323,1,0,0:0:0:0:
248,188,29477,5,0,0:0:0:0:
36,76,29630,1,0,0:0:0:0:
80,236,29784,1,2,0:0:0:0:
192,24,29938,1,0,0:0:0:0:
408,132,30092,5,8,0:0:0:0:
324,356,30246,1,0,0:0:0:0:
324,356,30323,1,0,0:0:0:0:
324,356,30400,1,2,0:0:0:0:
164,176,30554,1,0,0:0:0:0:
392,248,30707,5,0,0:0:0:0:
164,176,30861,1,0,0:0:0:0:
244,264,31015,1,2,0:0:0:0:
192,24,31169,1,0,0:0:0:0:
192,24,31246,1,0,0:0:0:0:
192,24,31323,5,0,0:0:0:0:
424,92,31477,1,0,0:0:0:0:
164,176,31630,1,2,0:0:0:0:
288,112,31784,1,0,0:0:0:0:
84,288,31938,5,0,0:0:0:0:
344,360,32092,1,0,0:0:0:0:
208,384,32246,1,2,0:0:0:0:
416,216,32400,1,0,0:0:0:0:
84,288,32554,5,8,0:0:0:0:
300,184,32707,1,0,0:0:0:0:
340,304,32861,1,2,0:0:0:0:
224,276,33015,1,0,0:0:0:0:
416,216,33169,5,0,0:0:0:0:
100,312,33323,1,0,0:0:0:0:
140,192,33477,1,2,0:0:0:0:
24,220,33630,1,0,0:0:0:0:
224,276,33784,6,0,P|276:300|320:304,2,80,8|0|0,0:0|0:0|0:0,0:0:0:0:
172,124,34092,2,0,P|120:100|76:96,2,80,2|0|0,0:0|0:0|0:0,0:0:0:0:
336,168,34400,6,0,P|382:135|408:99,2,80
156,212,34707,2,0,P|109:246|83:282,2,80,2|0|0,0:0|0:0|0:0,0:0:0:0:
280,276,35015,5,4,0:0:0:0:
132,88,35169,1,0,0:0:0:0:
132,88,35246,1,0,0:0:0:0:
132,88,35323,1,2,0:0:0:0:
36,308,35477,1,0,0:0:0:0:
220,160,35630,5,0,0:0:0:0:
36,308,35784,1,0,0:0:0:0:
132,88,35938,1,2,0:0:0:0:
156,328,36092,1,0,0:0:0:0:
156,328,36169,1,0,0:0:0:0:
156,328,36246,5,0,0:0:0:0:
356,192,36400,1,0,0:0:0:0:
116,212,36554,1,2,0:0:0:0:
224,260,36707,1,0,0:0:0:0:
80,68,36861,5,0,0:0:0:0:
320,40,37015,1,0,0:0:0:0:
204,16,37169,1,2,0:0:0:0:
412,136,37323,1,0,0:0:0:0:
80,68,37477,5,8,0:0:0:0:
292,180,37630,1,0,0:0:0:0:
320,40,37784,1,2,0:0:0:0:
208,92,37938,1,0,0:0:0:0:
412,136,38092,5,0,0:0:0:0:
176,200,38246,1,0,0:0:0:0:
204,340,38400,1,2,0:0:0:0:
92,288,38554,1,0,0:0:0:0:
288,248,38707,6,0,P|332:292|336:360,1,120
204,340,39015,1,2,0:0:0:0:
408,212,39169,1,0,0:0:0:0:
152,80,39323,6,0,L|36:68,2,80
328,56,39630,2,0,L|407:65,2,80,2|0|0,0:0|0:0|0:0,0:0:0:0:
120,128,39938,5,0,0:0:0:0:
144,168,40015,1,0,0:0:0:0:
148,216,40092,1,0,0:0:0:0:
124,260,40169,1,0,0:0:0:0:
84,288,40246,1,10,0:0:0:0:
52,196,40400,1,0,0:0:0:0:
288,236,40554,5,0,0:0:0:0:
288,236,40630,1,0,0:0:0:0:
288,236,40707,1,0,0:0:0:0:
204,12,40861,1,2,0:0:0:0:
164,248,41015,1,0,0:0:0:0:
392,168,41169,5,0,0:0:0:0:
52,196,41323,1,0,0:0:0:0:
152,60,41477,1,2,0:0:0:0:
188,384,41630,1,0,0:0:0:0:
315,156,41784,5,0,0:0:0:0:
129,299,41938,1,0,0:0:0:0:
269,273,42092,1,2,0:0:0:0:
52,196,42246,1,0,0:0:0:0:
152,60,42400,5,8,0:0:0:0:
128,300,42554,1,0,0:0:0:0:
128,300,42630,1,0,0:0:0:0:
128,300,42707,1,2,0:0:0:0:
344,192,42861,1,0,0:0:0:0:
104,164,43015,2,0,B|48:196|48:196|28:256,1,120
272,280,43323,2,0,B|328:248|328:248|348:188,1,120,2|0,0:0|0:0,0:0:0:0:
228,172,43630,5,0,0:0:0:0:
424,312,43784,2,0,L|480:356,2,60,0|0|2,0:0|0:0|0:0,0:0:0:0:
184,288,44092,1,0,0:0:0:0:
328,96,44246,5,0,0:0:0:0:
296,360,44400,1,0,0:0:0:0:
228,64,44554,1,2,0:0:0:0:
120,200,44707,1,0,0:0:0:0:
296,360,44861,5,4,0:0:0:0:
240,196,45169,2,0,B|216:200|216:200|180:192|180:192|120:200,1,120,2|0,0:0|0:0,0:0:0:0:
296,360,45477,5,4,0:0:0:0:
228,180,45785,2,0,B|204:184|204:184|168:176|168:176|108:184,1,120,2|0,0:0|0:0,0:0:0:0:
296,360,46092,5,4,0:0:0:0:
216,160,46400,2,0,B|192:164|192:164|156:156|156:156|96:164,1,120,2|0,0:0|0:0,0:0:0:0:
296,360,46707,5,4,0:0:0:0:
204,140,47015,2,0,B|180:144|180:144|144:136|144:136|84:144,1,120,2|0,0:0|0:0,0:0:0:0:
296,360,47323,6,0,B|320:356|320:356|356:364|356:364|416:356,1,120,4|0,0:0|0:0,0:0:0:0:
192,120,47630,2,0,B|168:124|168:124|132:116|132:116|72:124,1,120,2|0,0:0|0:0,0:0:0:0:
308,64,47938,1,4,0:0:0:0:
132,228,48092,1,0,0:0:0:0:
364,288,48246,1,2,0:0:0:0:
192,120,48400,1,0,0:0:0:0:
268,384,48554,5,4,0:0:0:0:
338,154,48708,1,0,0:0:0:0:
132,228,48862,1,2,0:0:0:0:
498,320,49016,1,0,0:0:0:0:
320,72,49169,1,4,0:0:0:0:
272,108,49246,1,0,0:0:0:0:
260,168,49323,1,0,0:0:0:0:
288,220,49400,1,0,0:0:0:0:
344,240,49477,1,2,0:0:0:0:
436,76,49784,6,0,B|396:80|396:80|364:68|364:68|316:72,1,120,4|0,0:0|0:0,0:0:0:0:
144,172,50092,2,0,B|184:176|184:176|216:164|216:164|261:168,1,120,2|0,0:0|0:0,0:0:0:0:
176,84,50400,1,0,0:0:0:0:
236,248,50554,2,0,L|260:304,2,60,0|0|2,0:0|0:0|0:0,0:0:0:0:
84,64,50861,1,0,0:0:0:0:
164,300,51015,6,0,B|196:356|196:356|248:384,1,120
420,216,51323,2,0,B|388:160|388:160|336:132,1,120,2|0,0:0|0:0,0:0:0:0:
160,212,51630,1,0,0:0:0:0:
416,292,51784,2,0,L|480:312,2,60,0|0|2,0:0|0:0|0:0,0:0:0:0:
348,348,52092,1,0,0:0:0:0:
472,140,52246,6,0,B|504:88|504:88|500:24,1,120
284,256,52554,2,0,B|300:313|300:313|348:351,1,120,2|0,0:0|0:0,0:0:0:0:
308,152,52861,2,0,B|283:96|283:96|229:63,1,120
92,324,53169,2,0,B|147:343|147:343|206:326,1,120,2|0,0:0|0:0,0:0:0:0:
140,64,53477,5,0,0:0:0:0:
40,260,53630,2,0,L|12:320,2,60,0|0|2,0:0|0:0|0:0,0:0:0:0:
32,44,53938,1,0,0:0:0:0:
225,142,54092,1,0,0:0:0:0:
278,145,54169,1,0,0:0:0:0:
331,137,54246,1,0,0:0:0:0:
382,121,54323,1,0,0:0:0:0:
429,96,54400,2,0,B|388:104|388:104|356:128|356:128|304:140,1,120,2|0,0:0|0:0,0:0:0:0:
225,142,54707,6,0,P|268:208|332:228,1,120
428,96,55015,2,0,P|385:30|321:10,1,120,2|0,0:0|0:0,0:0:0:0:
212,264,55323,1,0,0:0:0:0:
268,60,55477,2,0,L|284:0,2,60,0|0|2,0:0|0:0|0:0,0:0:0:0:
320,296,55784,1,0,0:0:0:0:
172,112,55938,6,0,B|112:92|112:92|40:124,1,120
120,324,56246,1,2,0:0:0:0:
212,264,56400,2,0,L|276:224,2,60
124,200,56707,1,0,0:0:0:0:
248,364,56861,1,2,0:0:0:0:
124,200,57015,1,0,0:0:0:0:
418,112,57169,6,0,P|363:88|304:88,1,120
360,300,57477,2,0,P|407:265|437:213,1,120,2|0,0:0|0:0,0:0:0:0:
228,164,57784,1,0,0:0:0:0:
256,268,57938,2,0,L|276:336,2,60,0|0|2,0:0|0:0|0:0,0:0:0:0:
128,116,58246,1,0,0:0:0:0:
324,212,58400,6,0,B|376:240|376:240|448:228,1,120
128,116,58707,2,0,B|77:148|77:148|52:216,1,120,2|0,0:0|0:0,0:0:0:0:
172,264,59015,1,0,0:0:0:0:
280,64,59169,2,0,L|316:4,2,60,0|0|2,0:0|0:0|0:0,0:0:0:0:
288,296,59477,1,0,0:0:0:0:
120,200,59630,6,0,B|64:172|64:172|0:184,1,120
44,284,59938,1,2,0:0:0:0:
144,96,60092,2,0,L|176:36,2,60
40,84,60400,1,0,0:0:0:0:
216,176,60554,2,0,B|272:204|272:204|340:192,1,120,2|0,0:0|0:0,0:0:0:0:
436,172,60861,5,0,0:0:0:0:
362,93,61015,2,0,L|312:44,2,60,0|0|2,0:0|0:0|0:0,0:0:0:0:
424,284,61323,1,0,0:0:0:0:
448,60,61477,1,0,0:0:0:0:
312,176,61630,2,0,B|268:216|268:216|264:284,1,120,0|2,0:0|0:0,0:0:0:0:
372,264,61938,1,0,0:0:0:0:
164,320,62092,6,0,B|104:336|104:336|28:332,1,120
112,124,62400,1,2,0:0:0:0:
229,112,62554,2,0,L|304:104,2,60
280,208,62861,1,0,0:0:0:0:
260,12,63015,1,2,0:0:0:0:
160,28,63169,1,0,0:0:0:0:
332,84,63323,6,0,B|392:100|392:100|464:72,1,120
168,216,63630,2,0,B|108:200|108:200|36:228,1,120,2|0,0:0|0:0,0:0:0:0:
224,356,63938,1,0,0:0:0:0:
268,324,64015,1,0,0:0:0:0:
296,280,64092,1,0,0:0:0:0:
308,228,64169,1,0,0:0:0:0:
300,176,64246,2,0,B|268:160|268:160|256:120|256:120|212:100,1,120,2|0,0:0|0:0,0:0:0:0:
168,216,64554,5,0,0:0:0:0:
376,336,64707,2,0,L|432:368,2,60,0|0|2,0:0|0:0|0:0,0:0:0:0:
168,216,65015,1,0,0:0:0:0:
408,228,65169,2,0,P|456:188|472:104,1,120
168,216,65477,2,0,P|178:278|243:334,1,120,2|0,0:0|0:0,0:0:0:0:
296,24,65784,6,0,L|168:36,1,120
84,132,66092,1,2,0:0:0:0:
216,116,66246,2,0,L|284:108,2,60
104,44,66554,1,0,0:0:0:0:
128,208,66707,2,0,B|140:264|140:264|192:308,1,120,2|0,0:0|0:0,0:0:0:0:
256,204,67015,5,0,0:0:0:0:
40,312,67169,2,0,B|78:355|78:355|145:367,1,120,0|2,0:0|0:0,0:0:0:0:
472,260,67477,1,0,0:0:0:0:
256,204,67630,2,0,L|288:332,1,120
408,72,67938,2,0,L|376:200,1,120,2|0,0:0|0:0,0:0:0:0:
280,88,68246,5,0,0:0:0:0:
148,256,68400,1,0,0:0:0:0:
148,256,68477,1,0,0:0:0:0:
148,256,68554,1,2,0:0:0:0:
256,204,68707,1,0,0:0:0:0:
252,324,68861,5,0,0:0:0:0:
52,192,69015,1,0,0:0:0:0:
144,380,69169,1,2,0:0:0:0:
160,140,69323,1,0,0:0:0:0:
368,260,69477,6,0,B|412:268|412:268|392:224|392:224|436:232|436:232|412:196|412:196|448:160|452:112|420:64|380:44,1,360.000013732911,0|2,0:0|0:0,0:0:0:0:
120,292,70400,1,0,0:0:0:0:
268,188,70707,2,0,B|316:148|316:148|344:96|344:96|400:56,1,180.000006866455,2|0,0:0|0:0,0:0:0:0:
212,72,71323,1,2,0:0:0:0:
448,188,71630,1,0,0:0:0:0:
448,188,71784,1,0,0:0:0:0:
448,188,71938,6,0,P|424:256|336:320,1,180.000006866455,2|0,0:0|0:0,0:0:0:0:
256,192,72554,12,2,73784,0:0:0:0:
144,260,74400,6,0,B|100:268|100:268|120:224|120:224|76:232|76:232|100:196|100:196|64:160|60:112|92:64|132:44,1,360.000013732911,2|2,0:0|0:0,0:0:0:0:
392,292,75323,1,0,0:0:0:0:
244,188,75630,2,0,B|196:148|196:148|168:96|168:96|112:56,1,180.000006866455,2|0,0:0|0:0,0:0:0:0:
300,72,76246,1,2,0:0:0:0:
64,188,76553,1,0,0:0:0:0:
64,188,76707,1,0,0:0:0:0:
64,188,76861,6,0,P|88:256|176:320,1,180.000006866455,2|0,0:0|0:0,0:0:0:0:
256,192,77477,12,2,78707,0:0:0:0:
40,224,79323,6,0,B|84:232|84:232|116:224|116:224|164:232,1,120,8|0,0:0|0:0,0:0:0:0:
232,324,79630,1,2,0:0:0:0:
264,180,79784,2,0,L|280:112,2,60,0|0|8,0:0|0:0|0:0,0:0:0:0:
324,312,80092,1,0,0:0:0:0:
176,156,80246,1,2,0:0:0:0:
388,104,80400,1,0,0:0:0:0:
220,252,80554,6,0,B|168:288|168:288|100:296,1,120,8|0,0:0|0:0,0:0:0:0:
76,188,80861,2,0,B|40:136|40:136|32:68,1,120,2|0,0:0|0:0,0:0:0:0:
176,156,81169,1,8,0:0:0:0:
112,296,81323,1,0,0:0:0:0:
328,192,81477,1,2,0:0:0:0:
176,156,81630,2,0,L|204:216,1,60
220,252,81784,6,0,B|248:304|248:304|312:336,1,120,8|0,0:0|0:0,0:0:0:0:
260,92,82092,2,0,B|280:132|280:132|308:156|308:156|332:196,1,120,2|0,0:0|0:0,0:0:0:0:
436,120,82400,1,8,0:0:0:0:
220,252,82554,2,0,L|160:292,2,60,0|0|2,0:0|0:0|0:0,0:0:0:0:
352,80,82861,1,0,0:0:0:0:
428,292,83015,6,0,B|391:304|391:304|361:326|361:326|318:337,1,120,8|0,0:0|0:0,0:0:0:0:
220,252,83323,2,0,B|183:241|183:241|153:219|153:219|110:208,1,120,2|0,0:0|0:0,0:0:0:0:
116,328,83630,1,8,0:0:0:0:
224,140,83784,1,0,0:0:0:0:
300,348,83938,1,2,0:0:0:0:
408,168,84092,1,0,0:0:0:0:
408,168,84169,1,0,0:0:0:0:
408,168,84246,5,8,0:0:0:0:
220,252,84400,2,0,B|276:228|276:228|352:240,1,120,0|2,0:0|0:0,0:0:0:0:
128,200,84707,1,0,0:0:0:0:
288,328,84861,1,8,0:0:0:0:
316,124,85015,2,0,L|328:48,2,60,0|0|2,0:0|0:0|0:0,0:0:0:0:
392,316,85323,1,0,0:0:0:0:
188,292,85477,6,0,B|124:284|124:284|64:320,1,120,8|0,0:0|0:0,0:0:0:0:
36,136,85784,2,0,B|100:144|100:144|147:116,1,120,2|0,0:0|0:0,0:0:0:0:
72,36,86092,1,8,0:0:0:0:
212,200,86246,1,0,0:0:0:0:
420,140,86400,1,2,0:0:0:0:
252,0,86554,1,0,0:0:0:0:
252,0,86630,1,0,0:0:0:0:
252,0,86707,6,0,B|188:8|188:8|124:56,1,120,8|0,0:0|0:0,0:0:0:0:
312,180,87015,2,0,B|376:172|376:172|440:124,1,120,2|0,0:0|0:0,0:0:0:0:
324,64,87323,1,8,0:0:0:0:
372,292,87477,2,0,L|388:356,2,60,0|0|2,0:0|0:0|0:0,0:0:0:0:
456,68,87784,1,0,0:0:0:0:
228,148,87938,5,8,0:0:0:0:
203,149,88015,1,0,0:0:0:0:
179,146,88092,1,0,0:0:0:0:
155,140,88169,1,0,0:0:0:0:
133,129,88246,1,2,0:0:0:0:
113,116,88323,1,0,0:0:0:0:
94,101,88400,1,0,0:0:0:0:
77,84,88477,1,0,0:0:0:0:
58,65,88554,5,8,0:0:0:0:
52,92,88630,1,0,0:0:0:0:
44,119,88707,1,0,0:0:0:0:
37,146,88784,1,0,0:0:0:0:
36,174,88861,1,2,0:0:0:0:
41,201,88938,1,0,0:0:0:0:
47,228,89015,1,0,0:0:0:0:
55,254,89092,1,0,0:0:0:0:
67,279,89169,6,0,P|86:311|231:341,1,180.000006866455,2|0,0:0|0:0,0:0:0:0:
348,227,89630,1,0,0:0:0:0:
182,180,89784,1,0,0:0:0:0:
405,335,89938,1,0,0:0:0:0:
430,313,90015,1,0,0:0:0:0:
451,287,90092,1,0,0:0:0:0:
468,258,90169,1,0,0:0:0:0:
480,227,90246,1,0,0:0:0:0:
483,194,90323,1,0,0:0:0:0:
482,161,90400,6,0,P|465:106|442:71,1,67.8000002069092,2|0,0:0|0:0,0:0:0:0:
308,164,90554,2,0,P|325:219|348:254,1,67.8000002069092
384,48,90707,2,0,P|329:31|287:30,1,67.8000002069092,2|0,0:0|0:0,0:0:0:0:
160,200,90861,2,0,P|214:218|256:219,1,67.8000002069092,2|0,0:0|0:0,0:0:0:0:
204,56,91015,5,2,0:0:0:0:
56,160,91169,1,0,0:0:0:0:
116,332,91323,2,0,P|184:364|328:356,1,180.000006866455,2|0,0:0|0:0,0:0:0:0:
288,72,91630,6,0,P|212:112|164:192,1,151.199995385742,4|0,0:0|0:0,0:0:0:0:
352,284,91938,2,0,P|428:244|476:164,1,151.199995385742,2|0,0:0|0:0,0:0:0:0:
316,172,92246,1,0,0:0:0:0:
476,332,92400,1,0,0:0:0:0:
476,332,92477,1,0,0:0:0:0:
476,332,92554,1,2,0:0:0:0:
368,52,92707,1,0,0:0:0:0:
92,176,92861,6,0,P|144:232|248:260,1,151.199995385742
288,260,93092,1,0,0:0:0:0:
360,236,93169,2,0,P|432:192|504:180,1,151.199995385742,2|0,0:0|0:0,0:0:0:0:
476,332,93477,1,0,0:0:0:0:
176,320,93630,1,0,0:0:0:0:
72,36,93784,1,2,0:0:0:0:
108,40,93861,1,0,0:0:0:0:
144,48,93938,1,0,0:0:0:0:
180,64,94015,1,0,0:0:0:0:
208,88,94092,6,0,P|232:140|224:240,1,151.199995385742
84,180,94400,1,2,0:0:0:0:
84,180,94477,1,0,0:0:0:0:
84,180,94554,1,0,0:0:0:0:
356,52,94707,1,0,0:0:0:0:
476,332,94861,1,0,0:0:0:0:
404,348,94938,1,0,0:0:0:0:
328,340,95015,2,0,B|248:292|292:256|200:208,1,151.199995385742,2|0,0:0|0:0,0:0:0:0:
128,340,95323,5,0,0:0:0:0:
412,236,95477,2,0,L|508:204,2,75.5999976928712,0|0|2,0:0|0:0|0:0,0:0:0:0:
84,180,95784,1,0,0:0:0:0:
364,68,95938,5,0,0:0:0:0:
224,336,96092,1,0,0:0:0:0:
336,232,96246,1,2,0:0:0:0:
56,344,96400,1,0,0:0:0:0:
96,44,96554,6,0,P|152:16|252:12,1,151.199995385742,4|0,0:0|0:0,0:0:0:0:
420,148,96861,1,2,0:0:0:0:
168,200,97015,1,0,0:0:0:0:
168,200,97092,1,0,0:0:0:0:
168,200,97169,1,0,0:0:0:0:
280,96,97323,1,0,0:0:0:0:
224,336,97477,1,2,0:0:0:0:
460,380,97630,1,0,0:0:0:0:
168,200,97784,5,0,0:0:0:0:
464,268,97938,1,0,0:0:0:0:
344,360,98092,1,2,0:0:0:0:
352,56,98246,1,0,0:0:0:0:
256,260,98400,5,0,0:0:0:0:
480,52,98554,1,0,0:0:0:0:
464,268,98707,1,2,0:0:0:0:
256,48,98861,1,0,0:0:0:0:
48,268,99015,6,0,P|104:320|184:348,1,151.199995385742
412,156,99323,2,0,P|341:184|286:235,1,151.199995385742,2|0,0:0|0:0,0:0:0:0:
428,296,99630,1,0,0:0:0:0:
256,48,99784,1,0,0:0:0:0:
188,45,99861,1,0,0:0:0:0:
121,61,99938,2,0,P|73:97|29:209,1,151.199995385742,2|0,0:0|0:0,0:0:0:0:
340,156,100246,6,0,L|242:171,1,75.5999976928712
184,180,100400,1,0,0:0:0:0:
280,296,100554,1,2,0:0:0:0:
340,156,100708,1,0,0:0:0:0:
32,200,100861,1,0,0:0:0:0:
69,257,100938,1,0,0:0:0:0:
121,301,101015,1,0,0:0:0:0:
182,331,101092,1,0,0:0:0:0:
248,344,101169,1,2,0:0:0:0:
315,338,101246,1,0,0:0:0:0:
379,315,101323,1,0,0:0:0:0:
434,276,101400,1,0,0:0:0:0:
477,224,101477,6,0,P|492:136|456:40,1,151.199995385742,4|0,0:0|0:0,0:0:0:0:
184,180,101784,2,0,P|272:195|368:159,1,151.199995385742,2|0,0:0|0:0,0:0:0:0:
256,48,102092,1,0,0:0:0:0:
12,228,102246,1,0,0:0:0:0:
56,288,102323,1,0,0:0:0:0:
120,332,102400,2,0,P|216:368|320:356,1,151.199995385742,2|0,0:0|0:0,0:0:0:0:
256,48,102707,6,0,P|176:114|135:210,1,151.199995385742
444,236,103015,1,2,0:0:0:0:
404,88,103169,1,0,0:0:0:0:
188,300,103323,1,0,0:0:0:0:
480,376,103477,1,0,0:0:0:0:
278,154,103630,1,2,0:0:0:0:
228,107,103707,1,0,0:0:0:0:
168,75,103784,1,0,0:0:0:0:
101,61,103861,1,0,0:0:0:0:
33,56,103938,6,0,P|21:133|43:218,1,151.199995385742
336,264,104246,1,2,0:0:0:0:
336,264,104323,1,0,0:0:0:0:
336,264,104400,1,0,0:0:0:0:
204,236,104554,1,0,0:0:0:0:
372,384,104707,1,0,0:0:0:0:
432,152,104861,1,2,0:0:0:0:
396,92,104938,1,0,0:0:0:0:
344,48,105015,1,0,0:0:0:0:
284,16,105092,1,0,0:0:0:0:
216,8,105169,6,0,P|156:12|56:52,1,151.199995385742
336,168,105477,1,2,0:0:0:0:
267,153,105554,1,0,0:0:0:0:
199,157,105631,1,0,0:0:0:0:
134,178,105708,1,0,0:0:0:0:
80,220,105785,2,0,P|40:266|-2:365,1,151.199995385742
228,360,106092,1,2,0:0:0:0:
56,88,106246,1,0,0:0:0:0:
124,384,106400,5,4,0:0:0:0:
336,168,106554,1,0,0:0:0:0:
192,212,106707,1,2,0:0:0:0:
488,280,106861,1,0,0:0:0:0:
40,256,107015,5,0,0:0:0:0:
228,360,107169,1,0,0:0:0:0:
336,168,107323,1,2,0:0:0:0:
144,288,107477,1,0,0:0:0:0:
352,380,107630,5,0,0:0:0:0:
260,172,107784,1,0,0:0:0:0:
64,352,107938,1,2,0:0:0:0:
300,272,108092,1,0,0:0:0:0:
112,148,108246,5,0,0:0:0:0:
400,236,108400,1,0,0:0:0:0:
104,304,108554,1,2,0:0:0:0:
196,20,108707,1,0,0:0:0:0:
400,236,108861,6,0,P|388:316|320:380,1,151.199995385742,4|0,0:0|0:0,0:0:0:0:
112,148,109169,1,2,0:0:0:0:
320,0,109323,1,0,0:0:0:0:
240,264,109477,1,0,0:0:0:0:
180,311,109554,1,0,0:0:0:0:
105,305,109630,1,0,0:0:0:0:
41,264,109707,1,0,0:0:0:0:
25,190,109784,2,0,P|48:102|127:63,1,151.199995385742,2|0,0:0|0:0,0:0:0:0:
396,116,110092,5,4,0:0:0:0:
116,228,110246,1,0,0:0:0:0:
412,300,110400,1,2,0:0:0:0:
208,76,110554,1,0,0:0:0:0:
88,336,110707,1,0,0:0:0:0:
154,349,110784,1,0,0:0:0:0:
220,333,110861,1,0,0:0:0:0:
271,289,110938,1,0,0:0:0:0:
298,227,111015,1,2,0:0:0:0:
289,160,111092,1,0,0:0:0:0:
256,101,111169,1,0,0:0:0:0:
200,62,111246,1,0,0:0:0:0:
132,53,111323,5,4,0:0:0:0:
188,216,111630,2,0,B|212:212|212:212|248:220|248:220|308:212,1,120,2|0,0:0|0:0,0:0:0:0:
132,52,111938,5,4,0:0:0:0:
200,232,112246,2,0,B|224:228|224:228|260:236|260:236|320:228,1,120,2|0,0:0|0:0,0:0:0:0:
132,52,112553,5,4,0:0:0:0:
212,252,112861,2,0,B|236:248|236:248|272:256|272:256|332:248,1,120,2|0,0:0|0:0,0:0:0:0:
132,52,113168,5,4,0:0:0:0:
224,272,113476,2,0,B|248:268|248:268|284:276|284:276|344:268,1,120,2|0,0:0|0:0,0:0:0:0:
132,52,113784,6,4,B|108:56|108:56|72:48|72:48|12:56,1,120,4|0,0:0|0:0,0:0:0:0:
236,292,114091,2,0,B|260:288|260:288|296:296|296:296|356:288,1,120,8|0,0:0|0:0,0:0:0:0:
120,348,114399,1,2,0:0:0:0:
296,184,114553,1,0,0:0:0:0:
64,124,114707,1,8,0:0:0:0:
236,292,114861,1,0,0:0:0:0:
160,28,115015,5,2,0:0:0:0:
90,258,115169,1,0,0:0:0:0:
296,184,115323,1,8,0:0:0:0:
64,124,115477,1,0,0:0:0:0:
378,214,115630,5,2,0:0:0:0:
342,262,115707,1,0,0:0:0:0:
282,274,115784,1,0,0:0:0:0:
230,246,115861,1,0,0:0:0:0:
210,190,115938,6,0,B|214:166|182:150|182:150|226:118|218:50,1,151.199995385742,4|0,0:0|0:0,0:0:0:0:
