osu file format v13

[General]
AudioFilename: Nightcore - Time is ticking.mp3
AudioLeadIn: 1000
PreviewTime: 87134
Countdown: 0
SampleSet: Soft
StackLeniency: 0.7
Mode: 0
LetterboxInBreaks: 1
WidescreenStoryboard: 1

[Editor]
Bookmarks: 49928,59230,59444,89486,96328,114504,141874,195331,211154
DistanceSpacing: 0.7
BeatDivisor: 2
GridSize: 8
TimelineZoom: 1

[Metadata]
Title:Time is ticking (Nightcore Mix)
TitleUnicode:Time is ticking (Nightcore Mix)
Artist:Jakarta
ArtistUnicode:Jakarta
Creator:Firakus
Version:Normal - Heartbeat
Source:Nightcore
Tags:nightcore time is ticking jump nightcore heartbeat bazz boyz
BeatmapID:498455
BeatmapSetID:156376

[Difficulty]
HPDrainRate:4
CircleSize:3
OverallDifficulty:4
ApproachRate:5
SliderMultiplier:1.3
SliderTickRate:1

[Events]
//Background and Video events
0,0,"Anime-Heart-Love-1080x1920.jpg",0,0
//Break Periods
2,3513,8956
2,114704,126989
2,172865,181729
//Storyboard Layer 0 (Background)
//Storyboard Layer 1 (Fail)
//Storyboard Layer 2 (Pass)
//Storyboard Layer 3 (Foreground)
//Storyboard Sound Samples
//Background Colour Transformations
3,100,163,162,255

[TimingPoints]
3314,427.655024946543,4,2,0,80,1,0
59657,-80,4,2,0,80,0,1
73342,-200,4,2,0,80,0,0
87027,-80,4,2,0,80,0,1
114611,-166.666666666667,4,2,0,80,0,0
132465,-125,4,2,0,80,0,0
135887,-100,4,2,0,80,0,0
139308,-83.3333333333333,4,2,0,80,0,0
150213,-100,4,2,0,80,0,0
158873,-200,4,2,0,80,0,0
186243,-80,4,2,0,80,0,1
213720,-100,4,2,0,80,0,0

[HitObjects]
256,192,3313,5,0,0:0:0:0:
136,336,10156,6,0,P|104:208|232:104,1,260
232,192,11439,1,0,0:0:0:0:
304,248,11867,2,0,B|385:282|485:206|436:97,1,260
352,128,13150,1,0,0:0:0:0:
280,80,13577,2,0,P|153:63|48:133,1,260
48,224,14860,1,0,0:0:0:0:
120,280,15288,2,0,P|245:302|356:240,1,260
392,152,16571,1,0,0:0:0:0:
320,96,16998,5,0,0:0:0:0:
232,88,17426,1,0,0:0:0:0:
152,128,17854,1,0,0:0:0:0:
104,208,18281,1,0,0:0:0:0:
120,296,18709,1,0,0:0:0:0:
208,328,19137,5,0,0:0:0:0:
256,248,19565,1,0,0:0:0:0:
216,168,19993,1,0,0:0:0:0:
248,80,20420,1,0,0:0:0:0:
328,40,20848,1,0,0:0:0:0:
408,80,21275,2,0,P|455:122|470:185,1,130
424,264,22130,6,0,P|368:216|272:216,1,130
224,208,22986,2,0,L|94:208,1,130
128,120,23841,2,0,P|80:76|18:62,1,130
16,152,24696,5,0,0:0:0:0:
56,232,25124,1,0,0:0:0:0:
128,288,25552,1,0,0:0:0:0:
216,312,25979,1,0,0:0:0:0:
304,320,26407,2,0,L|440:320,1,130
472,240,27262,5,0,0:0:0:0:
448,152,27690,1,0,0:0:0:0:
368,112,28117,1,0,0:0:0:0:
280,88,28545,1,0,0:0:0:0:
192,88,28973,2,0,L|8:88,1,130
40,176,29828,1,0,0:0:0:0:
104,240,30256,1,0,0:0:0:0:
192,240,30683,6,0,P|264:312|384:224,1,260
392,152,31966,1,0,0:0:0:0:
352,72,32394,2,0,P|248:80|88:144,1,260
48,208,33677,1,0,0:0:0:0:
104,280,34105,2,0,P|232:272|160:176,1,260
216,96,35388,1,0,0:0:0:0:
304,72,35815,2,0,P|460:195|456:224,2,260,0|0|0,0:0|0:0|0:0,0:0:0:0:
328,256,38381,5,0,0:0:0:0:
168,168,39237,1,0,0:0:0:0:
56,312,40092,1,0,0:0:0:0:
40,128,40948,1,0,0:0:0:0:
216,80,41802,1,0,0:0:0:0:
392,136,42658,1,0,0:0:0:0:
312,296,43513,1,0,0:0:0:0:
451,178,44368,6,0,P|405:29|320:160,1,390
192,160,46079,2,0,P|106:29|60:178,1,390
144,232,47790,2,0,P|209:361|339:209,1,390
248,256,49500,2,0,P|312:144|456:288,1,390
368,280,51211,5,0,0:0:0:0:
184,280,52066,1,0,0:0:0:0:
64,144,52921,2,0,L|194:144,3,130,0|0|0|0,0:0|0:0|0:0|0:0,0:0:0:0:
288,144,54632,2,0,L|424:144,3,130,0|0|0|0,0:0|0:0|0:0|0:0,0:0:0:0:
256,192,56343,12,0,58481,0:0:0:0:
103,192,58909,6,0,L|168:192,3,65,0|0|0|0,0:0|0:0|0:0|0:0,0:0:0:0:
224,192,59764,5,0,0:0:0:0:
256,48,60619,2,0,P|176:64|56:272,1,325
144,328,61902,1,0,0:0:0:0:
256,336,62330,2,0,P|336:320|456:112,1,325
368,56,63613,1,0,0:0:0:0:
304,152,64041,2,0,P|232:104|216:24,2,162.5,0|0|0,0:0|0:0|0:0,0:0:0:0:
240,248,65323,1,0,0:0:0:0:
352,240,65751,2,0,P|424:288|440:368,2,162.5,0|0|0,0:0|0:0|0:0,0:0:0:0:
296,336,67034,1,0,0:0:0:0:
184,328,67462,6,0,P|48:304|192:72,1,487.5
136,176,69172,2,0,B|208:208|256:120|280:32|408:40|448:112|448:304,1,487.5
344,328,70883,2,0,B|176:320|72:264|48:336|48:336|40:144|64:96,1,487.5
80,48,72594,6,0,P|160:51|233:87,2,162.5,0|0|0,0:0|0:0|0:0,0:0:0:0:
96,88,73877,5,0,0:0:0:0:
88,144,74304,2,0,P|30:169|5:228,1,130
24,272,75587,1,0,0:0:0:0:
56,304,76014,2,0,P|138:221|138:214,1,130
176,192,77298,5,0,0:0:0:0:
200,152,77725,2,0,P|256:124|315:148,1,130
352,176,79008,1,0,0:0:0:0:
384,208,79436,2,0,P|456:200|464:192,2,65,0|0|0,0:0|0:0|0:0,0:0:0:0:
384,256,80719,5,0,0:0:0:0:
344,280,81147,2,0,P|240:304|216:288,1,130
184,272,82430,1,0,0:0:0:0:
176,224,82857,2,0,P|135:173|76:148,1,130
32,136,84140,1,0,0:0:0:0:
256,192,84568,12,0,87134,0:0:0:0:
220,323,87989,6,0,B|64:224|64:64|208:88|104:144|192:144,1,325
264,224,89272,1,0,0:0:0:0:
360,288,89700,2,0,B|443:288|339:344|483:368|483:208|326:108,1,325
216,72,90983,1,0,0:0:0:0:
112,112,91410,6,0,P|115:266|253:337,1,325
344,272,92693,1,0,0:0:0:0:
424,192,93121,2,0,P|376:105|296:89,2,162.5,0|0|0,0:0|0:0|0:0,0:0:0:0:
312,200,94404,1,0,0:0:0:0:
208,160,94832,6,0,P|168:93|91:102,1,162.5
112,216,95687,2,0,P|152:281|229:273,1,162.5
344,256,96542,2,0,P|384:190|461:198,1,162.5
424,96,97397,2,0,P|347:105|308:39,1,162.5
192,40,98253,1,0,0:0:0:0:
128,136,98681,1,0,0:0:0:0:
240,144,99108,1,0,0:0:0:0:
336,200,99536,1,0,0:0:0:0:
352,312,99964,2,0,L|176:312,1,162.5
136,216,100819,1,0,0:0:0:0:
184,112,101247,1,0,0:0:0:0:
296,120,101674,6,0,P|311:82|344:59,2,81.25,0|0|0,0:0|0:0|0:0,0:0:0:0:
224,208,102529,2,0,L|224:376,1,162.5
112,352,103385,2,0,P|96:314|63:291,2,81.25,0|0|0,0:0|0:0|0:0,0:0:0:0:
112,240,104240,2,0,P|112:128|168:96,1,162.5
232,176,105095,2,0,P|368:152|472:320,1,325
360,304,106378,1,0,0:0:0:0:
272,232,106806,1,0,0:0:0:0:
256,120,107234,1,0,0:0:0:0:
144,96,107661,6,0,P|79:230|203:312,1,325
240,200,108944,1,0,0:0:0:0:
336,256,109372,2,0,P|400:121|276:39,1,325
160,56,110655,1,0,0:0:0:0:
104,152,111083,2,0,P|120:237|198:113,1,325
320,72,112366,1,0,0:0:0:0:
432,96,112793,2,0,P|429:228|272:336,1,325
176,304,114076,1,0,0:0:0:0:
96,224,114504,1,0,0:0:0:0:
256,192,128189,5,0,0:0:0:0:
176,120,129044,2,0,P|136:128|136:176,2,77.999997619629,0|0|0,0:0|0:0|0:0,0:0:0:0:
280,96,130755,2,0,P|320:104|320:152,2,77.999997619629,0|0|0,0:0|0:0|0:0,0:0:0:0:
400,184,132465,2,0,B|411:233|480:257|392:281,2,104,0|0|0,0:0|0:0|0:0,0:0:0:0:
288,272,134176,2,0,P|208:272|192:240,2,104,0|0|0,0:0|0:0|0:0,0:0:0:0:
128,184,135887,2,0,L|128:54,2,130,0|0|0,0:0|0:0|0:0,0:0:0:0:
280,80,137597,2,0,P|368:80|392:112,2,130,0|0|0,0:0|0:0|0:0,0:0:0:0:
296,296,139308,2,0,L|112:296,2,155.999995239258,0|0|0,0:0|0:0|0:0,0:0:0:0:
144,144,141018,2,0,L|328:144,2,155.999995239258,0|0|0,0:0|0:0|0:0,0:0:0:0:
32,144,142301,5,0,0:0:0:0:
104,56,142729,1,0,0:0:0:0:
216,56,143157,1,0,0:0:0:0:
328,56,143584,1,0,0:0:0:0:
216,56,144012,1,0,0:0:0:0:
248,160,144440,1,0,0:0:0:0:
248,272,144867,1,0,0:0:0:0:
248,160,145295,5,0,0:0:0:0:
144,200,145723,1,0,0:0:0:0:
88,296,146150,1,0,0:0:0:0:
184,344,146578,1,0,0:0:0:0:
296,344,147006,1,0,0:0:0:0:
184,344,147433,1,0,0:0:0:0:
232,248,147861,1,0,0:0:0:0:
336,232,148289,1,0,0:0:0:0:
264,152,148716,5,0,0:0:0:0:
344,80,149144,1,0,0:0:0:0:
376,184,149572,1,0,0:0:0:0:
344,80,149999,1,0,0:0:0:0:
256,48,150427,1,0,0:0:0:0:
176,88,150855,1,0,0:0:0:0:
120,160,151282,1,0,0:0:0:0:
152,248,151710,5,0,0:0:0:0:
232,296,152138,1,0,0:0:0:0:
288,224,152565,1,0,0:0:0:0:
272,136,152993,1,0,0:0:0:0:
328,64,153420,1,0,0:0:0:0:
256,192,153848,12,0,155559,0:0:0:0:
368,328,158980,5,0,0:0:0:0:
416,296,159408,1,0,0:0:0:0:
424,240,159835,2,0,P|481:214|506:155,1,130
488,112,161118,1,0,0:0:0:0:
456,80,161545,2,0,P|374:163|374:170,1,130
336,192,162829,5,0,0:0:0:0:
312,232,163256,2,0,P|255:259|196:235,1,130
160,208,164539,1,0,0:0:0:0:
128,176,164967,2,0,P|56:184|48:192,2,65,0|0|0,0:0|0:0|0:0,0:0:0:0:
128,128,166250,5,0,0:0:0:0:
168,104,166678,2,0,P|272:80|296:96,1,130
328,112,167961,1,0,0:0:0:0:
336,160,168388,2,0,P|376:210|435:235,1,130
480,248,169671,1,0,0:0:0:0:
256,192,170099,12,0,172665,0:0:0:0:
256,192,182929,12,0,185922,0:0:0:0:
88,192,186350,6,0,P|88:96|272:104,1,325
192,176,187633,1,0,0:0:0:0:
248,272,188060,2,0,P|386:319|430:179,1,325
320,176,189343,1,0,0:0:0:0:
336,64,189771,5,0,0:0:0:0:
224,48,190199,1,0,0:0:0:0:
112,72,190626,1,0,0:0:0:0:
88,184,191054,1,0,0:0:0:0:
200,208,191482,5,0,0:0:0:0:
312,208,191909,1,0,0:0:0:0:
280,320,192337,1,0,0:0:0:0:
168,312,192765,1,0,0:0:0:0:
216,208,193192,6,0,P|272:136|264:112,1,81.25
312,112,193620,1,0,0:0:0:0:
304,56,193834,1,0,0:0:0:0:
248,40,194048,2,0,P|168:40|160:32,2,81.25,0|0|0,0:0|0:0|0:0,0:0:0:0:
176,128,194903,6,0,P|153:160|154:200,2,81.25,0|0|0,0:0|0:0|0:0,0:0:0:0:
216,168,195544,1,0,0:0:0:0:
240,224,195758,1,0,0:0:0:0:
272,272,195972,2,0,P|368:304|384:296,1,81.25
424,224,196614,6,0,P|360:120|272:112,1,162.5
320,224,197469,2,0,P|216:200|248:120,1,162.5
120,96,198324,2,0,P|80:184|88:288,1,162.5
136,344,199180,1,0,0:0:0:0:
176,240,199607,1,0,0:0:0:0:
240,144,200035,6,0,P|344:200|360:264,1,162.5
464,184,200890,2,0,P|408:104|392:96,2,81.25,0|0|0,0:0|0:0|0:0,0:0:0:0:
440,296,201745,2,0,P|374:342|294:349,1,162.5
184,320,202600,2,0,P|240:240|256:232,2,81.25,0|0|0,0:0|0:0|0:0,0:0:0:0:
272,248,203456,6,0,P|361:242|368:227,1,81.25
392,216,203884,1,0,0:0:0:0:
384,160,204098,2,0,P|455:129|459:52,1,162.5
400,48,204739,1,0,0:0:0:0:
304,104,205167,6,0,P|237:165|242:180,1,81.25
200,176,205595,1,0,0:0:0:0:
144,192,205808,2,0,P|64:120|88:48,1,162.5
96,24,206450,1,0,0:0:0:0:
208,48,206877,6,0,P|424:136|440:224,1,325
384,296,208160,1,0,0:0:0:0:
272,312,208588,2,0,P|96:304|56:160,1,325
80,72,209871,1,0,0:0:0:0:
192,104,210299,5,0,0:0:0:0:
296,136,210726,1,0,0:0:0:0:
400,96,211154,1,0,0:0:0:0:
440,200,211581,1,0,0:0:0:0:
400,304,212009,2,0,P|320:312|245:282,1,162.5
184,184,212864,2,0,P|104:248|56:248,1,81.25
80,208,213292,2,0,P|8:168|8:152,1,81.25
