osu file format v13

[General]
AudioFilename: Nightcore - Time is ticking.mp3
AudioLeadIn: 1000
PreviewTime: 87134
Countdown: 0
SampleSet: None
StackLeniency: 0.7
Mode: 0
LetterboxInBreaks: 1
WidescreenStoryboard: 0

[Editor]
Bookmarks: 49928,59230,59444,89700,114504,141874,195331,211154
DistanceSpacing: 1
BeatDivisor: 4
GridSize: 8
TimelineZoom: 1

[Metadata]
Title:Time is ticking (Nightcore Mix)
TitleUnicode:Time is ticking (Nightcore Mix)
Artist:Jakarta
ArtistUnicode:Jakarta
Creator:Firakus
Version:Hyper - Rapid Heartbeat
Source:Nightcore
Tags:nightcore time is ticking jump nightcore heartbeat bazz boyz
BeatmapID:498452
BeatmapSetID:156376

[Difficulty]
HPDrainRate:6
CircleSize:3.5
OverallDifficulty:5
ApproachRate:8
SliderMultiplier:2.1
SliderTickRate:1

[Events]
//Background and Video events
0,0,"Anime-Heart-Love-1080x1920.jpg",0,0
//Break Periods
2,3514,9406
2,114704,127439
2,155759,158230
2,172650,183889
//Storyboard Layer 0 (Background)
//Storyboard Layer 1 (Fail)
//Storyboard Layer 2 (Pass)
//Storyboard Layer 3 (Foreground)
//Storyboard Sound Samples
//Background Colour Transformations
3,100,163,162,255

[TimingPoints]
3314,427.655024946543,4,2,0,80,1,0
59657,-80,4,2,0,80,0,1
73342,-200,4,2,0,80,0,0
87027,-80,4,2,0,80,0,1
114611,-166.666666666667,4,2,0,80,0,0
131610,-200,4,2,0,80,0,0
134817,-166.666666666667,4,2,0,80,0,0
138239,-80,4,2,0,80,0,0
150213,-100,4,2,0,80,0,0
158873,-200,4,2,0,80,0,0
186243,-80,4,2,0,80,0,1
213720,-100,4,2,0,80,0,0

[HitObjects]
256,192,3314,5,0,0:0:0:0:
96,280,10156,6,0,P|128:176|248:144,1,210
416,72,11011,5,0,0:0:0:0:
312,72,11225,2,0,P|288:152|296:208,1,105
384,208,11653,1,0,0:0:0:0:
344,304,11867,1,0,0:0:0:0:
136,280,12294,1,0,0:0:0:0:
312,160,12722,5,0,0:0:0:0:
173,99,12936,1,0,0:0:0:0:
248,224,13150,1,0,0:0:0:0:
264,80,13363,1,0,0:0:0:0:
160,184,13577,1,0,0:0:0:0:
360,248,14005,1,0,0:0:0:0:
256,64,14433,6,0,B|216:128|272:160|168:280,1,210
128,168,15074,1,0,0:0:0:0:
152,64,15288,1,0,0:0:0:0:
328,184,15715,1,0,0:0:0:0:
168,312,16143,6,0,P|184:224|136:216,1,105
96,168,16571,1,0,0:0:0:0:
168,88,16785,2,0,P|229:54|265:114,1,105
408,208,17426,1,0,0:0:0:0:
200,208,17854,5,0,0:0:0:0:
61,147,18068,1,0,0:0:0:0:
136,272,18282,1,0,0:0:0:0:
152,128,18495,1,0,0:0:0:0:
48,232,18709,1,0,0:0:0:0:
240,320,19137,1,0,0:0:0:0:
320,128,19564,6,0,P|398:218|398:226,1,105
424,96,19992,1,0,0:0:0:0:
336,40,20206,2,0,P|248:40|232:56,1,105
256,192,20847,1,0,0:0:0:0:
440,296,21275,6,0,B|472:224|432:200|456:144,2,105
336,288,21916,1,0,0:0:0:0:
232,272,22130,1,0,0:0:0:0:
280,64,22558,1,0,0:0:0:0:
408,224,22986,1,0,0:0:0:0:
208,152,23413,1,0,0:0:0:0:
64,304,23841,1,0,0:0:0:0:
272,304,24269,5,0,0:0:0:0:
472,232,24696,1,0,0:0:0:0:
408,144,24910,2,0,B|344:104|336:112|280:88|248:104|248:96,2,105
312,192,25552,1,0,0:0:0:0:
104,160,25979,1,0,0:0:0:0:
272,280,26407,6,0,P|344:200|344:184,2,105,0|0|0,0:0|0:0|0:0,0:0:0:0:
224,184,27048,1,0,0:0:0:0:
320,136,27262,1,0,0:0:0:0:
120,88,27690,1,0,0:0:0:0:
312,176,28117,5,0,0:0:0:0:
232,248,28331,1,0,0:0:0:0:
312,312,28545,1,0,0:0:0:0:
166,166,28759,1,0,0:0:0:0:
200,57,28973,1,0,0:0:0:0:
429,286,29400,1,0,0:0:0:0:
328,120,29828,6,0,P|192:128|160:200,1,210
256,192,30470,1,0,0:0:0:0:
184,264,30683,2,0,P|283:278|349:202,1,210
104,288,31539,5,0,0:0:0:0:
208,280,31753,2,0,B|152:208|232:168|184:104,1,105
88,168,32180,1,0,0:0:0:0:
144,80,32394,2,0,P|48:64|32:104,2,105
352,80,33249,5,0,0:0:0:0:
400,176,33463,1,0,0:0:0:0:
392,280,33677,1,0,0:0:0:0:
304,336,33891,1,0,0:0:0:0:
208,296,34105,1,0,0:0:0:0:
320,120,34532,1,0,0:0:0:0:
120,64,34960,5,0,0:0:0:0:
104,168,35174,1,0,0:0:0:0:
128,272,35388,1,0,0:0:0:0:
216,320,35601,1,0,0:0:0:0:
320,328,35815,1,0,0:0:0:0:
408,136,36243,1,0,0:0:0:0:
200,104,36671,6,0,P|280:56|328:136,1,105
328,152,37098,1,0,0:0:0:0:
248,224,37312,1,0,0:0:0:0:
144,224,37526,1,0,0:0:0:0:
416,240,38381,2,0,P|336:288|288:208,1,105
216,152,39237,5,0,0:0:0:0:
200,56,40092,2,0,P|125:62|84:124,1,105
216,232,40947,1,0,0:0:0:0:
200,328,41802,2,0,P|125:322|84:260,1,105
296,152,42658,5,0,0:0:0:0:
400,120,43513,2,0,P|384:224|312:264,1,105
188,102,44368,5,0,0:0:0:0:
340,152,44582,1,0,0:0:0:0:
138,248,44796,1,0,0:0:0:0:
239,197,45010,1,0,0:0:0:0:
278,281,45224,2,0,P|334:220|334:203,2,105
168,216,46079,5,0,0:0:0:0:
16,165,46293,1,0,0:0:0:0:
218,70,46507,1,0,0:0:0:0:
117,120,46721,1,0,0:0:0:0:
78,36,46935,2,0,P|21:97|21:114,2,105
448,296,47790,5,0,0:0:0:0:
344,264,48003,2,0,P|392:160|384:152,1,105
304,160,48431,1,0,0:0:0:0:
392,104,48645,1,0,0:0:0:0:
216,152,48859,2,0,P|198:275|214:283,1,105
376,248,49500,5,0,0:0:0:0:
424,152,49714,1,0,0:0:0:0:
320,160,49928,1,0,0:0:0:0:
328,56,50142,1,0,0:0:0:0:
248,120,50356,2,0,B|184:32|280:48|232:-32,1,105
144,64,50783,1,0,0:0:0:0:
32,240,51211,6,0,P|112:280|88:320,1,105
168,328,51639,2,0,P|88:288|112:248,1,105
480,240,52066,2,0,P|400:280|424:320,1,105
344,328,52494,2,0,P|424:288|400:248,1,105
312,176,52921,5,0,0:0:0:0:
296,152,53028,1,0,0:0:0:0:
272,128,53135,1,0,0:0:0:0:
248,112,53242,1,0,0:0:0:0:
216,112,53349,1,0,0:0:0:0:
184,120,53456,1,0,0:0:0:0:
160,136,53563,1,0,0:0:0:0:
144,160,53670,1,0,0:0:0:0:
136,192,53777,6,0,P|160:248|160:256,1,52.5
176,288,53991,2,0,P|152:352|144:352,1,52.5
144,352,54204,2,0,P|80:328|80:320,1,52.5
80,304,54418,2,0,P|80:232|88:224,1,52.5
72,200,54632,2,0,P|64:144|80:136,6,52.5
144,128,55487,2,0,P|152:72|136:64,6,52.5
256,192,56343,12,0,58053,0:0:0:0:
160,88,58909,5,0,0:0:0:0:
352,88,59122,1,0,0:0:0:0:
352,296,59336,1,0,0:0:0:0:
160,296,59550,1,0,0:0:0:0:
256,192,59764,5,0,0:0:0:0:
256,64,60192,1,0,0:0:0:0:
144,120,60619,2,0,L|64:272,1,131.25
368,120,61047,2,0,L|448:272,1,131.25
296,320,61475,1,0,0:0:0:0:
216,320,61902,1,0,0:0:0:0:
296,224,62330,6,0,B|328:96|392:120|352:72,1,131.25
216,224,62758,2,0,B|184:96|120:120|160:72,1,131.25
176,24,63185,1,0,0:0:0:0:
336,24,63613,1,0,0:0:0:0:
367,251,64041,5,0,0:0:0:0:
315,80,64254,1,0,0:0:0:0:
144,132,64468,1,0,0:0:0:0:
196,303,64682,1,0,0:0:0:0:
256,192,64896,1,0,0:0:0:0:
456,192,65323,1,0,0:0:0:0:
352,120,65751,6,0,B|240:56|240:48|272:0,1,131.25
352,264,66179,2,0,B|240:328|240:336|272:384,1,131.25
80,320,66606,1,0,0:0:0:0:
80,64,67034,1,0,0:0:0:0:
208,80,67462,5,0,0:0:0:0:
360,128,67676,1,0,0:0:0:0:
360,256,67889,1,0,0:0:0:0:
208,304,68103,1,0,0:0:0:0:
128,184,68317,1,0,0:0:0:0:
256,192,68745,1,0,0:0:0:0:
384,184,69172,5,0,0:0:0:0:
152,256,69386,1,0,0:0:0:0:
304,80,69600,1,0,0:0:0:0:
304,304,69814,1,0,0:0:0:0:
152,120,70028,1,0,0:0:0:0:
256,192,70455,1,0,0:0:0:0:
200,96,70883,2,0,B|144:136|136:88|88:144|72:152|112:184,1,131.25
256,280,71311,1,0,0:0:0:0:
312,96,71524,2,0,B|368:136|376:88|424:144|440:152|400:184,1,131.25
256,192,72166,1,0,0:0:0:0:
368,160,72594,6,0,P|280:64|208:64,1,131.25
144,224,73021,2,0,P|232:320|304:320,1,131.25
384,312,73449,5,0,0:0:0:0:
232,312,73663,1,0,0:0:0:0:
200,304,73770,1,0,0:0:0:0:
176,288,73877,1,0,0:0:0:0:
160,264,73983,1,0,0:0:0:0:
152,232,74090,1,0,0:0:0:0:
144,152,74304,2,0,P|240:104|368:96,1,210
464,168,75373,5,0,0:0:0:0:
432,176,75480,1,0,0:0:0:0:
408,192,75587,1,0,0:0:0:0:
392,216,75694,1,0,0:0:0:0:
384,248,75801,1,0,0:0:0:0:
360,320,76015,2,0,P|240:296|168:224,1,210
184,136,77084,5,0,0:0:0:0:
208,120,77191,1,0,0:0:0:0:
224,96,77298,1,0,0:0:0:0:
232,64,77405,1,0,0:0:0:0:
232,32,77512,1,0,0:0:0:0:
312,32,77725,2,0,P|344:120|336:256,1,210
264,312,78795,5,0,0:0:0:0:
232,304,78902,1,0,0:0:0:0:
208,288,79008,1,0,0:0:0:0:
192,264,79115,1,0,0:0:0:0:
184,232,79222,1,0,0:0:0:0:
256,200,79436,1,0,0:0:0:0:
384,112,79864,1,0,0:0:0:0:
128,72,80291,5,0,0:0:0:0:
280,72,80505,1,0,0:0:0:0:
312,80,80612,1,0,0:0:0:0:
336,96,80719,1,0,0:0:0:0:
352,120,80826,1,0,0:0:0:0:
360,152,80933,1,0,0:0:0:0:
368,232,81147,2,0,P|224:264|144:256,1,210
48,216,82216,5,0,0:0:0:0:
80,208,82323,1,0,0:0:0:0:
104,192,82430,1,0,0:0:0:0:
120,168,82537,1,0,0:0:0:0:
128,136,82644,1,0,0:0:0:0:
152,64,82857,2,0,P|312:72|368:136,1,210
328,248,83926,5,0,0:0:0:0:
304,264,84033,1,0,0:0:0:0:
288,288,84140,1,0,0:0:0:0:
280,320,84247,1,0,0:0:0:0:
280,352,84354,1,0,0:0:0:0:
200,352,84568,2,0,P|168:240|256:160,1,210
168,96,85637,6,0,L|208:96,1,26.25
168,152,85958,2,0,L|168:200,1,26.25
344,288,86492,6,0,L|304:288,1,26.25
344,232,86813,2,0,L|344:184,1,26.25
112,96,87134,6,0,P|208:240|296:304,1,262.5
294,154,87989,5,0,0:0:0:0:
454,224,88203,1,0,0:0:0:0:
368,80,88417,1,0,0:0:0:0:
350,247,88630,1,0,0:0:0:0:
471,126,88844,1,0,0:0:0:0:
256,272,89272,1,0,0:0:0:0:
218,154,89700,5,0,0:0:0:0:
58,224,89914,1,0,0:0:0:0:
144,80,90128,1,0,0:0:0:0:
162,247,90341,1,0,0:0:0:0:
41,126,90555,1,0,0:0:0:0:
264,96,90983,1,0,0:0:0:0:
328,264,91410,5,0,0:0:0:0:
182,118,91624,1,0,0:0:0:0:
323,270,91838,1,0,0:0:0:0:
188,113,92052,1,0,0:0:0:0:
256,192,92266,1,0,0:0:0:0:
256,192,92693,1,0,0:0:0:0:
328,64,93121,6,0,P|408:184|408:216,1,131.25
184,64,93549,2,0,P|104:184|104:216,1,131.25
256,336,93976,1,0,0:0:0:0:
256,232,94404,1,0,0:0:0:0:
136,256,94832,6,0,B|184:120|184:120|192:112,1,131.25
376,256,95259,2,0,B|328:120|328:120|320:112,1,131.25
256,179,95687,1,0,0:0:0:0:
256,24,96115,1,0,0:0:0:0:
224,136,96542,6,0,L|120:256,1,131.25
288,248,96970,2,0,L|392:128,1,131.25
408,48,97398,1,0,0:0:0:0:
104,48,97825,1,0,0:0:0:0:
160,304,98253,5,0,0:0:0:0:
352,304,98467,1,0,0:0:0:0:
160,120,98681,1,0,0:0:0:0:
352,120,98894,1,0,0:0:0:0:
256,216,99108,1,0,0:0:0:0:
256,80,99536,1,0,0:0:0:0:
150,126,99964,2,0,B|72:240|176:224|160:304,1,131.25
361,126,100391,2,0,B|440:240|336:224|352:304,1,131.25
256,304,100819,5,0,0:0:0:0:
256,48,101247,1,0,0:0:0:0:
112,280,101674,5,0,0:0:0:0:
176,144,101888,1,0,0:0:0:0:
256,280,102102,1,0,0:0:0:0:
336,144,102316,1,0,0:0:0:0:
400,280,102529,1,0,0:0:0:0:
256,48,102957,1,0,0:0:0:0:
264,224,103385,5,0,0:0:0:0:
438,216,103599,1,0,0:0:0:0:
298,125,103813,1,0,0:0:0:0:
355,283,104026,1,0,0:0:0:0:
410,121,104240,1,0,0:0:0:0:
248,328,104668,1,0,0:0:0:0:
80,160,105095,5,0,0:0:0:0:
208,72,105309,1,0,0:0:0:0:
80,160,105523,1,0,0:0:0:0:
208,72,105737,1,0,0:0:0:0:
240,224,105951,1,0,0:0:0:0:
416,312,106378,1,0,0:0:0:0:
464,168,106806,6,0,P|328:144|328:128,1,131.25
48,216,107234,2,0,P|184:240|184:256,1,131.25
256,64,107661,1,0,0:0:0:0:
256,320,108089,1,0,0:0:0:0:
256,64,108517,5,0,0:0:0:0:
312,243,108730,1,0,0:0:0:0:
155,131,108944,1,0,0:0:0:0:
356,131,109158,1,0,0:0:0:0:
200,243,109372,1,0,0:0:0:0:
256,64,109800,1,0,0:0:0:0:
256,320,110227,5,0,0:0:0:0:
200,141,110441,1,0,0:0:0:0:
357,253,110655,1,0,0:0:0:0:
156,253,110869,1,0,0:0:0:0:
312,141,111083,1,0,0:0:0:0:
256,320,111510,1,0,0:0:0:0:
104,320,111938,6,0,P|168:176|160:136,1,131.25
312,216,112366,2,0,P|248:72|256:32,1,131.25
248,104,112793,1,0,0:0:0:0:
112,56,113221,5,0,0:0:0:0:
64,176,113648,2,0,P|104:312|96:328,1,131.25
448,208,114076,2,0,P|408:72|416:56,1,131.25
400,328,114504,1,0,0:0:0:0:
128,80,128189,5,0,0:0:0:0:
384,80,129044,1,0,0:0:0:0:
384,304,129899,1,0,0:0:0:0:
128,304,130755,1,0,0:0:0:0:
200,136,131610,6,0,P|192:88|184:72,1,52.5
312,136,132465,2,0,P|320:88|328:72,1,52.5
312,248,133321,2,0,P|320:296|328:312,1,52.5
200,248,134176,2,0,P|192:296|184:312,1,52.5
216,152,135031,6,0,L|144:80,2,62.9999980773926,0|0|0,0:0|0:0|0:0,0:0:0:0:
296,152,135887,2,0,L|368:80,2,62.9999980773926,0|0|0,0:0|0:0|0:0,0:0:0:0:
384,304,136742,2,0,L|456:304,2,62.9999980773926
128,304,137597,2,0,L|56:304,2,62.9999980773926
128,80,138452,6,0,P|104:168|72:200,1,131.25
208,168,138880,1,0,0:0:0:0:
384,80,139308,2,0,P|408:168|440:200,1,131.25
304,168,139736,1,0,0:0:0:0:
88,304,140163,2,0,B|128:232|152:328|208:272,2,131.25,0|0|0,0:0|0:0|0:0,0:0:0:0:
424,304,141018,2,0,B|384:232|360:328|304:272,2,131.25,0|0|0,0:0|0:0|0:0,0:0:0:0:
256,64,141874,5,0,0:0:0:0:
312,243,142301,1,0,0:0:0:0:
155,131,142729,1,0,0:0:0:0:
356,131,143157,1,0,0:0:0:0:
200,243,143584,1,0,0:0:0:0:
256,320,144012,5,0,0:0:0:0:
312,141,144440,1,0,0:0:0:0:
155,253,144867,1,0,0:0:0:0:
356,253,145295,1,0,0:0:0:0:
200,141,145723,1,0,0:0:0:0:
128,192,146150,5,0,0:0:0:0:
307,136,146578,1,0,0:0:0:0:
195,293,147006,1,0,0:0:0:0:
195,92,147433,1,0,0:0:0:0:
307,248,147861,1,0,0:0:0:0:
384,192,148289,5,0,0:0:0:0:
205,248,148716,1,0,0:0:0:0:
317,91,149144,1,0,0:0:0:0:
317,292,149572,1,0,0:0:0:0:
205,136,149999,1,0,0:0:0:0:
320,112,150427,6,0,P|264:232|280:256,1,105
192,272,150854,2,0,P|248:152|232:128,1,105
336,256,151282,2,0,P|216:200|192:216,1,105
176,128,151710,2,0,P|296:184|320:168,1,105
224,72,152137,6,0,P|144:56|120:80,1,105
288,72,152565,2,0,P|368:56|392:80,1,105
288,312,152993,2,0,P|368:328|392:304,1,105
224,312,153421,2,0,P|144:328|120:304,1,105
256,208,153848,5,0,0:0:0:0:
256,152,153955,1,0,0:0:0:0:
232,104,154062,1,0,0:0:0:0:
184,80,154169,1,0,0:0:0:0:
136,88,154276,1,0,0:0:0:0:
112,136,154383,1,0,0:0:0:0:
120,192,154490,1,0,0:0:0:0:
160,232,154596,1,0,0:0:0:0:
208,224,154703,2,0,P|248:168|256:160,1,52.5
264,136,154917,2,0,P|320:72|328:56,1,52.5
352,80,155131,2,0,P|416:80|424:88,1,52.5
424,120,155345,2,0,P|448:184|440:192,1,52.5
456,208,155559,1,0,0:0:0:0:
128,72,158980,5,0,0:0:0:0:
280,72,159194,1,0,0:0:0:0:
312,80,159301,1,0,0:0:0:0:
336,96,159408,1,0,0:0:0:0:
352,120,159514,1,0,0:0:0:0:
360,152,159621,1,0,0:0:0:0:
368,232,159835,2,0,P|272:280|144:288,1,210
48,216,160904,5,0,0:0:0:0:
80,208,161011,1,0,0:0:0:0:
104,192,161118,1,0,0:0:0:0:
120,168,161225,1,0,0:0:0:0:
128,136,161332,1,0,0:0:0:0:
152,64,161546,2,0,P|272:88|344:160,1,210
328,248,162615,5,0,0:0:0:0:
304,264,162722,1,0,0:0:0:0:
288,288,162829,1,0,0:0:0:0:
280,320,162936,1,0,0:0:0:0:
280,352,163043,1,0,0:0:0:0:
200,352,163256,2,0,P|168:264|176:128,1,210
248,72,164326,5,0,0:0:0:0:
280,80,164433,1,0,0:0:0:0:
304,96,164539,1,0,0:0:0:0:
320,120,164646,1,0,0:0:0:0:
328,152,164753,1,0,0:0:0:0:
256,184,164967,1,0,0:0:0:0:
128,272,165395,1,0,0:0:0:0:
384,312,165822,5,0,0:0:0:0:
232,312,166036,1,0,0:0:0:0:
200,304,166143,1,0,0:0:0:0:
176,288,166250,1,0,0:0:0:0:
160,264,166357,1,0,0:0:0:0:
152,232,166464,1,0,0:0:0:0:
144,152,166678,2,0,P|288:120|368:128,1,210
464,168,167747,5,0,0:0:0:0:
432,176,167854,1,0,0:0:0:0:
408,192,167961,1,0,0:0:0:0:
392,216,168068,1,0,0:0:0:0:
384,248,168175,1,0,0:0:0:0:
360,320,168388,2,0,P|200:312|144:248,1,210
184,136,169457,5,0,0:0:0:0:
208,120,169564,1,0,0:0:0:0:
224,96,169671,1,0,0:0:0:0:
232,64,169778,1,0,0:0:0:0:
232,32,169885,1,0,0:0:0:0:
312,32,170099,2,0,P|344:144|256:224,1,210
224,192,171168,6,0,L|184:192,1,26.25
288,192,171489,2,0,L|328:192,1,26.25
256,160,172023,2,0,L|256:120,1,26.25
256,224,172344,2,0,L|256:264,1,26.25
256,192,184639,12,0,185922,0:0:0:0:
88,56,186350,5,0,0:0:0:0:
184,144,186778,1,0,0:0:0:0:
367,68,187205,5,0,0:0:0:0:
344,225,187419,1,0,0:0:0:0:
264,88,187633,1,0,0:0:0:0:
416,160,187847,1,0,0:0:0:0:
257,183,188060,1,0,0:0:0:0:
88,168,188488,1,0,0:0:0:0:
312,312,188916,6,0,P|200:288|192:264,1,131.25
256,176,189343,1,0,0:0:0:0:
160,88,189557,2,0,P|80:144|56:192,1,131.25
376,192,190199,1,0,0:0:0:0:
296,56,190626,6,0,B|160:128|144:112|104:56,1,131.25
296,328,191054,2,0,B|160:256|144:272|104:328,1,131.25
128,192,191482,1,0,0:0:0:0:
280,192,191909,1,0,0:0:0:0:
359,81,192337,6,0,P|384:224|416:272,1,131.25
153,303,192765,2,0,P|128:160|96:112,1,131.25
256,88,193192,1,0,0:0:0:0:
256,296,193620,1,0,0:0:0:0:
80,320,194048,5,0,0:0:0:0:
72,192,194261,2,0,P|136:120|192:112,1,131.25
168,240,194689,1,0,0:0:0:0:
80,64,194903,1,0,0:0:0:0:
336,144,195331,1,0,0:0:0:0:
432,320,195758,5,0,0:0:0:0:
440,192,195971,2,0,P|376:120|320:112,1,131.25
344,240,196399,1,0,0:0:0:0:
432,64,196613,1,0,0:0:0:0:
176,144,197041,1,0,0:0:0:0:
256,40,197469,6,0,L|128:80,1,131.25
256,344,197897,2,0,L|384:304,1,131.25
88,192,198324,1,0,0:0:0:0:
424,192,198752,1,0,0:0:0:0:
88,192,199180,1,0,0:0:0:0:
424,192,199607,1,0,0:0:0:0:
176,304,200035,5,0,0:0:0:0:
336,304,200462,1,0,0:0:0:0:
256,96,200890,1,0,0:0:0:0:
256,288,201104,1,0,0:0:0:0:
323,124,201318,1,0,0:0:0:0:
188,259,201532,1,0,0:0:0:0:
352,192,201745,1,0,0:0:0:0:
160,192,202173,1,0,0:0:0:0:
323,259,202601,5,0,0:0:0:0:
188,124,202815,1,0,0:0:0:0:
256,288,203028,1,0,0:0:0:0:
256,96,203242,1,0,0:0:0:0:
360,56,203456,2,0,P|336:232|320:240,1,131.25
312,288,203884,1,0,0:0:0:0:
152,328,204311,6,0,P|176:152|192:144,1,131.25
32,120,204739,1,0,0:0:0:0:
128,32,204953,1,0,0:0:0:0:
224,120,205167,2,0,P|384:96|392:104,1,131.25
432,160,205594,1,0,0:0:0:0:
360,56,206022,6,0,P|336:232|320:240,1,131.25
272,248,206450,1,0,0:0:0:0:
248,120,206664,2,0,B|72:128|96:176|104:208,1,131.25
104,48,207305,5,0,0:0:0:0:
192,272,207733,1,0,0:0:0:0:
372,125,207946,1,0,0:0:0:0:
167,187,208160,1,0,0:0:0:0:
396,211,208374,1,0,0:0:0:0:
209,108,208588,1,0,0:0:0:0:
355,289,209016,1,0,0:0:0:0:
294,83,209443,5,0,0:0:0:0:
270,314,209657,1,0,0:0:0:0:
372,125,209871,1,0,0:0:0:0:
192,271,210085,1,0,0:0:0:0:
56,192,210299,2,0,L|56:48,1,131.25
56,328,210726,1,0,0:0:0:0:
312,256,211154,5,0,0:0:0:0:
173,195,211368,1,0,0:0:0:0:
248,320,211582,1,0,0:0:0:0:
264,176,211795,1,0,0:0:0:0:
160,280,212009,1,0,0:0:0:0:
120,88,212437,1,0,0:0:0:0:
456,184,212864,6,0,L|368:304,1,131.25
208,304,213292,2,0,L|48:304,1,131.25
