osu file format v13

[General]
AudioFilename: Nightcore - Time is ticking.mp3
AudioLeadIn: 1000
PreviewTime: 87134
Countdown: 0
SampleSet: Soft
StackLeniency: 0.7
Mode: 0
LetterboxInBreaks: 1
WidescreenStoryboard: 1

[Editor]
Bookmarks: 46079,49928,59230,59444,98681,114504,141874,158980,195331,210726,211154
DistanceSpacing: 0.7
BeatDivisor: 1
GridSize: 8
TimelineZoom: 1

[Metadata]
Title:Time is ticking (Nightcore Mix)
TitleUnicode:Time is ticking (Nightcore Mix)
Artist:Jakarta
ArtistUnicode:Jakarta
Creator:Firakus
Version:Easy - No Pulse
Source:Nightcore
Tags:nightcore time is ticking jump nightcore heartbeat bazz boyz
BeatmapID:498451
BeatmapSetID:156376

[Difficulty]
HPDrainRate:3
CircleSize:3
OverallDifficulty:4
ApproachRate:4
SliderMultiplier:1.1
SliderTickRate:1

[Events]
//Background and Video events
0,0,"Anime-Heart-Love-1080x1920.jpg",0,0
//Break Periods
2,3513,8836
2,114703,126869
2,172865,181609
//Storyboard Layer 0 (Background)
//Storyboard Layer 1 (Fail)
//Storyboard Layer 2 (Pass)
//Storyboard Layer 3 (Foreground)
//Storyboard Sound Samples
//Background Colour Transformations
3,100,163,162,255

[TimingPoints]
3314,427.655024946543,4,2,0,80,1,0
59657,-80,4,2,0,80,0,1
73342,-200,4,2,0,80,0,0
87027,-80,4,2,0,80,0,1
114611,-166.666666666667,4,2,0,80,0,0
131610,-125,4,2,0,80,0,0
135031,-100,4,2,0,80,0,0
138452,-83.3333333333333,4,2,0,80,0,0
148289,-125,4,2,0,80,0,0
150213,-100,4,2,0,80,0,0
152137,-125,4,2,0,80,0,0
158873,-200,4,2,0,80,0,0
186243,-80,4,2,0,80,0,1
213720,-100,4,2,0,80,0,0

[HitObjects]
256,192,3313,5,0,0:0:0:0:
64,184,10156,6,0,P|137:76|448:206,1,440
256,192,12722,1,0,0:0:0:0:
448,200,13577,2,0,P|375:308|64:178,1,440
256,192,16143,1,0,0:0:0:0:
104,64,16998,6,0,P|80:192|400:264,1,440
256,192,19564,1,0,0:0:0:0:
408,320,20420,2,0,P|432:192|112:120,1,440
256,192,22986,1,0,0:0:0:0:
184,80,23841,6,0,P|128:216|216:304,2,220,0|0|0,0:0|0:0|0:0,0:0:0:0:
256,192,26407,1,0,0:0:0:0:
328,304,27262,2,0,P|384:168|296:80,2,220,0|0|0,0:0|0:0|0:0,0:0:0:0:
256,192,29828,1,0,0:0:0:0:
120,80,30683,6,0,L|392:80,2,220,0|0|0,0:0|0:0|0:0,0:0:0:0:
256,192,33249,1,0,0:0:0:0:
392,304,34105,2,0,L|120:304,2,220,0|0|0,0:0|0:0|0:0,0:0:0:0:
328,192,36671,1,0,0:0:0:0:
184,192,37526,1,0,0:0:0:0:
256,48,38381,5,0,0:0:0:0:
256,200,39237,1,0,0:0:0:0:
256,352,40092,1,0,0:0:0:0:
136,256,40947,1,0,0:0:0:0:
136,104,41802,1,0,0:0:0:0:
264,192,42658,1,0,0:0:0:0:
376,88,43513,1,0,0:0:0:0:
368,232,44368,6,0,P|240:312|32:216,1,330
136,160,46079,2,0,P|264:80|472:176,1,330
416,240,47790,2,0,B|232:427|134:326|208:196,1,330
304,186,49500,2,0,B|377:57|279:-43|96:144,1,330
200,192,51211,6,0,P|197:254|147:293,3,110,0|0|0|0,0:0|0:0|0:0|0:0,0:0:0:0:
312,192,52921,2,0,P|314:254|364:293,3,110,0|0|0|0,0:0|0:0|0:0|0:0,0:0:0:0:
256,192,54632,12,0,58053,0:0:0:0:
256,56,58909,6,0,L|256:304,1,220
112,312,60619,6,0,P|31:218|128:142,1,275
272,264,62330,2,0,P|352:170|255:94,1,275
64,64,64041,2,0,P|104:232|200:280,1,275
376,304,65751,2,0,P|320:160|176:128,1,275
40,48,67462,5,0,0:0:0:0:
104,120,67889,1,0,0:0:0:0:
112,216,68317,1,0,0:0:0:0:
296,280,69172,1,0,0:0:0:0:
256,192,69600,1,0,0:0:0:0:
304,104,70028,1,0,0:0:0:0:
472,200,70883,5,0,0:0:0:0:
408,272,71311,1,0,0:0:0:0:
312,288,71738,1,0,0:0:0:0:
136,216,72594,1,0,0:0:0:0:
184,136,73021,1,0,0:0:0:0:
264,64,73449,5,0,0:0:0:0:
192,88,74304,2,0,L|128:88,1,55
96,88,75160,1,0,0:0:0:0:
88,168,76015,2,0,L|88:232,1,55
88,264,76870,1,0,0:0:0:0:
160,280,77725,2,0,L|224:280,1,55
256,280,78581,1,0,0:0:0:0:
256,200,79436,2,0,L|256:128,3,55,0|0|0|0,0:0|0:0|0:0|0:0,0:0:0:0:
296,136,81147,1,0,0:0:0:0:
368,120,82002,6,0,L|368:56,1,55
328,56,82857,1,0,0:0:0:0:
264,56,83713,2,0,L|184:56,1,55
256,192,84568,12,0,87134,0:0:0:0:
200,128,87989,6,0,L|40:128,2,137.5,0|0|0,0:0|0:0|0:0,0:0:0:0:
312,128,89700,2,0,L|472:128,2,137.5,0|0|0,0:0|0:0|0:0,0:0:0:0:
192,224,91410,2,0,P|104:352|80:352,2,137.5,0|0|0,0:0|0:0|0:0,0:0:0:0:
320,224,93121,2,0,P|408:352|432:352,2,137.5,0|0|0,0:0|0:0|0:0,0:0:0:0:
256,64,94831,5,0,0:0:0:0:
256,160,95259,2,0,L|256:320,1,137.5
72,248,96542,2,0,P|144:112|216:96,1,137.5
216,96,97398,1,0,0:0:0:0:
408,104,98253,2,0,P|296:224|200:240,1,137.5
232,240,99108,1,0,0:0:0:0:
264,48,99964,1,0,0:0:0:0:
296,136,100391,2,0,P|120:136|104:120,1,137.5
64,328,101674,6,0,P|288:320|368:280,1,275
416,128,103385,1,0,0:0:0:0:
328,80,103812,1,0,0:0:0:0:
232,72,104240,1,0,0:0:0:0:
328,240,105095,6,0,P|144:144|112:80,1,275
88,280,106806,1,0,0:0:0:0:
176,312,107234,1,0,0:0:0:0:
272,320,107661,1,0,0:0:0:0:
464,288,108517,6,0,P|320:208|304:112,1,137.5
272,176,109372,1,0,0:0:0:0:
120,64,110227,1,0,0:0:0:0:
64,136,110655,2,0,P|104:288|120:288,1,137.5
232,296,111938,2,0,P|368:256|384:264,1,137.5
440,272,112793,1,0,0:0:0:0:
344,104,113648,2,0,P|160:112|72:200,1,275
187,150,128189,6,0,P|96:176|176:80,1,263.99999194336
368,72,131610,2,0,P|432:160|288:96,1,352
152,160,135031,2,0,P|64:256|224:192,1,440
304,288,138452,2,0,P|432:216|224:216,1,527.999983886719
256,56,141874,6,0,P|136:144|120:160,3,131.99999597168,0|0|0|0,0:0|0:0|0:0|0:0,0:0:0:0:
232,176,143584,1,0,0:0:0:0:
96,296,144440,1,0,0:0:0:0:
280,328,145295,2,0,P|392:224|392:208,3,131.99999597168,0|0|0|0,0:0|0:0|0:0|0:0,0:0:0:0:
400,168,147006,1,0,0:0:0:0:
256,56,147861,1,0,0:0:0:0:
120,192,148716,6,0,P|96:80|96:64,3,88,0|0|0|0,0:0|0:0|0:0|0:0,0:0:0:0:
256,192,150427,2,0,L|256:328,3,110,0|0|0|0,0:0|0:0|0:0|0:0,0:0:0:0:
392,192,152137,2,0,P|416:80|416:64,3,88,0|0|0|0,0:0|0:0|0:0|0:0,0:0:0:0:
256,192,153848,12,0,158552,0:0:0:0:
248,320,158980,5,0,0:0:0:0:
320,296,159835,2,0,L|384:296,1,55
416,296,160691,1,0,0:0:0:0:
424,216,161546,2,0,L|424:152,1,55
424,120,162401,1,0,0:0:0:0:
352,104,163256,2,0,L|288:104,1,55
256,104,164112,1,0,0:0:0:0:
256,184,164967,2,0,L|256:256,3,55,0|0|0|0,0:0|0:0|0:0|0:0,0:0:0:0:
216,248,166678,1,0,0:0:0:0:
144,264,167533,6,0,L|144:328,1,55
184,328,168388,1,0,0:0:0:0:
248,328,169244,2,0,L|328:328,1,55
256,192,170099,12,0,172665,0:0:0:0:
256,192,182929,12,0,186350,0:0:0:0:
208,200,187205,6,0,P|176:56|144:48,2,137.5,0|0|0,0:0|0:0|0:0,0:0:0:0:
303,184,188916,2,0,P|281:247|308:309,2,137.5,0|0|0,0:0|0:0|0:0,0:0:0:0:
312,80,190626,2,0,P|456:48|464:16,2,137.5,0|0|0,0:0|0:0|0:0,0:0:0:0:
200,80,192337,2,0,P|56:48|48:16,2,137.5,0|0|0,0:0|0:0|0:0,0:0:0:0:
392,80,194048,5,0,0:0:0:0:
392,176,194475,1,0,0:0:0:0:
328,248,194903,1,0,0:0:0:0:
192,112,195758,1,0,0:0:0:0:
120,176,196185,1,0,0:0:0:0:
88,264,196613,1,0,0:0:0:0:
272,320,197469,1,0,0:0:0:0:
368,304,197896,1,0,0:0:0:0:
424,232,198324,1,0,0:0:0:0:
232,208,199180,1,0,0:0:0:0:
184,128,199607,1,0,0:0:0:0:
248,56,200035,1,0,0:0:0:0:
416,48,200890,6,0,P|432:200|392:240,1,137.5
400,256,201746,1,0,0:0:0:0:
224,336,202601,2,0,P|208:184|248:144,1,137.5
240,128,203457,1,0,0:0:0:0:
56,64,204311,5,0,0:0:0:0:
88,152,204739,2,0,P|248:80|288:80,1,137.5
400,104,206022,1,0,0:0:0:0:
344,184,206450,2,0,P|224:288|208:288,1,137.5
168,112,207733,6,0,P|16:112|8:128,2,137.5,0|0|0,0:0|0:0|0:0,0:0:0:0:
128,296,209443,2,0,P|256:192|264:192,2,137.5,0|0|0,0:0|0:0|0:0,0:0:0:0:
320,304,211154,2,0,P|432:176|400:80,1,275
216,72,212864,2,0,P|128:208|232:280,1,275
