osu file format v13

[General]
AudioFilename: Nightcore - Time is ticking.mp3
AudioLeadIn: 1000
PreviewTime: 87134
Countdown: 0
SampleSet: Soft
StackLeniency: 0.7
Mode: 0
LetterboxInBreaks: 1
WidescreenStoryboard: 1

[Editor]
Bookmarks: 11653,49928,59230,59444,97825,114504,141874,142729,143157,147006,158980,188702,195331,211154,212864
DistanceSpacing: 1
BeatDivisor: 4
GridSize: 8
TimelineZoom: 1

[Metadata]
Title:Time is ticking (Nightcore Mix)
TitleUnicode:Time is ticking (Nightcore Mix)
Artist:Jakarta
ArtistUnicode:Jakarta
Creator:Firakus
Version:Another - Arrhythmy
Source:Nightcore
Tags:nightcore time is ticking jump nightcore heartbeat bazz boyz
BeatmapID:498453
BeatmapSetID:156376

[Difficulty]
HPDrainRate:6
CircleSize:4
OverallDifficulty:6
ApproachRate:9
SliderMultiplier:2.5
SliderTickRate:2

[Events]
//Background and Video events
0,0,"Anime-Heart-Love-1080x1920.jpg",0,0
//Break Periods
2,3513,9556
2,114704,127589
2,155759,158380
2,172660,184039
//Storyboard Layer 0 (Background)
//Storyboard Layer 1 (Fail)
//Storyboard Layer 2 (Pass)
//Storyboard Layer 3 (Foreground)
//Storyboard Sound Samples
//Background Colour Transformations
3,100,163,162,255

[TimingPoints]
3314,427.655024946543,4,2,0,80,1,0
59657,-100,4,2,0,80,0,1
73342,-200,4,2,0,80,0,0
87027,-80,4,2,0,80,0,1
114611,-166.666666666667,4,2,0,80,0,0
158873,-200,4,2,0,80,0,0
186243,-80,4,2,0,80,0,1
213720,-100,4,2,0,80,0,0

[HitObjects]
256,192,3313,5,0,0:0:0:0:
256,192,10156,6,0,P|256:104|408:72,1,250
398,90,11011,1,0,0:0:0:0:
113,90,11225,1,0,0:0:0:0:
113,293,11439,1,0,0:0:0:0:
398,293,11653,1,0,0:0:0:0:
256,192,11867,2,0,P|256:280|104:312,1,250
149,76,12722,5,0,0:0:0:0:
361,306,12936,1,0,0:0:0:0:
333,120,13150,1,0,0:0:0:0:
178,263,13364,1,0,0:0:0:0:
256,64,13577,2,0,L|256:328,1,250
432,128,14433,6,0,P|296:72|200:120,1,250
113,99,15074,1,0,0:0:0:0:
177,291,15288,1,0,0:0:0:0:
398,99,15502,1,0,0:0:0:0:
334,291,15716,1,0,0:0:0:0:
256,67,16143,5,0,0:0:0:0:
256,316,16357,1,0,0:0:0:0:
380,192,16571,1,0,0:0:0:0:
131,192,16785,1,0,0:0:0:0:
256,128,16998,2,0,L|256:264,2,125
160,304,17854,6,0,P|88:184|96:168,1,125
352,80,18281,2,0,P|424:200|416:216,1,125
72,56,18709,2,0,P|192:128|192:144,2,125
352,80,19564,6,0,P|424:200|416:216,2,125
160,304,20206,1,0,0:0:0:0:
440,328,20419,2,0,P|320:256|320:240,2,125
184,96,21275,6,0,P|128:176|152:240,1,125
328,288,21703,2,0,P|384:208|360:144,1,125
256,192,22130,1,0,0:0:0:0:
448,80,22558,6,0,P|304:64|280:80,1,125
64,304,22986,2,0,P|208:320|232:304,1,125
168,96,23413,2,0,P|152:160|160:232,1,125
344,288,23841,2,0,P|360:224|352:152,1,125
256,192,24269,5,0,0:0:0:0:
356,90,24696,1,0,0:0:0:0:
154,292,24910,1,0,0:0:0:0:
398,192,25124,1,0,0:0:0:0:
112,192,25338,1,0,0:0:0:0:
374,310,25552,1,0,0:0:0:0:
137,73,25979,1,0,0:0:0:0:
155,293,26407,5,0,0:0:0:0:
357,91,26621,1,0,0:0:0:0:
113,192,26835,1,0,0:0:0:0:
399,192,27049,1,0,0:0:0:0:
137,73,27263,1,0,0:0:0:0:
345,281,27690,1,0,0:0:0:0:
201,102,28117,6,0,P|160:200|200:240,1,125
311,282,28545,2,0,P|352:184|312:144,1,125
400,83,28973,1,0,0:0:0:0:
111,300,29187,1,0,0:0:0:0:
400,83,29400,1,0,0:0:0:0:
464,249,29828,6,0,P|450:309|400:344,1,125
47,134,30256,2,0,P|61:74|112:40,1,125
160,264,30683,1,0,0:0:0:0:
352,120,30897,1,0,0:0:0:0:
160,264,31111,1,0,0:0:0:0:
256,280,31539,5,0,0:0:0:0:
112,192,31753,1,0,0:0:0:0:
400,192,31966,1,0,0:0:0:0:
256,96,32180,1,0,0:0:0:0:
144,272,32394,2,0,P|192:344|256:328,1,125
363,271,32822,1,0,0:0:0:0:
408,88,33249,6,0,P|400:224|424:256,1,125
104,296,33677,2,0,P|112:160|88:128,1,125
256,64,34105,1,0,0:0:0:0:
162,249,34318,1,0,0:0:0:0:
349,248,34532,1,0,0:0:0:0:
256,192,34960,5,0,0:0:0:0:
112,128,35174,2,0,P|192:88|240:80,1,125
400,256,35601,2,0,P|320:296|272:304,1,125
256,192,36243,5,0,0:0:0:0:
256,48,36457,1,0,0:0:0:0:
256,336,36671,1,0,0:0:0:0:
400,192,36884,1,0,0:0:0:0:
112,192,37098,1,0,0:0:0:0:
256,192,37312,1,0,0:0:0:0:
256,192,37526,1,0,0:0:0:0:
144,48,38381,5,0,0:0:0:0:
56,192,38595,1,0,0:0:0:0:
144,336,38809,1,0,0:0:0:0:
256,192,39237,6,0,L|256:64,1,125
368,336,40092,5,0,0:0:0:0:
456,192,40306,1,0,0:0:0:0:
368,48,40520,1,0,0:0:0:0:
256,192,40947,6,0,L|165:282,1,125
400,80,41802,5,0,0:0:0:0:
256,0,42016,1,0,0:0:0:0:
112,80,42230,1,0,0:0:0:0:
256,192,42658,6,0,L|346:282,1,125
112,304,43513,5,0,0:0:0:0:
256,392,43727,1,0,0:0:0:0:
400,304,43941,1,0,0:0:0:0:
192,144,44368,6,0,P|104:72|80:40,1,125
320,144,44796,2,0,P|408:72|432:40,1,125
256,224,45224,2,0,L|256:368,1,125
256,80,45651,1,0,0:0:0:0:
216,200,46079,6,0,P|240:280|288:296,1,125
352,200,46507,1,0,0:0:0:0:
392,80,46720,1,0,0:0:0:0:
264,80,46934,2,0,P|128:96|120:88,1,125
120,232,47362,1,0,0:0:0:0:
344,80,47790,6,0,P|424:152|432:200,1,125
384,248,48217,1,0,0:0:0:0:
264,208,48431,1,0,0:0:0:0:
160,144,48645,2,0,P|72:80|56:88,2,125,0|0|0,0:0|0:0|0:0,0:0:0:0:
168,304,49500,6,0,P|88:264|88:208,1,125
160,160,49927,1,0,0:0:0:0:
280,184,50142,2,0,B|368:192|376:144|424:232|424:232|464:144,1,250
344,296,50783,1,0,0:0:0:0:
104,296,51211,5,0,0:0:0:0:
88,248,51425,1,0,0:0:0:0:
80,200,51639,1,0,0:0:0:0:
88,152,51852,1,0,0:0:0:0:
112,112,52066,1,0,0:0:0:0:
152,80,52280,1,0,0:0:0:0:
200,64,52494,1,0,0:0:0:0:
248,56,52708,1,0,0:0:0:0:
296,64,52921,5,0,0:0:0:0:
320,80,53028,1,0,0:0:0:0:
336,96,53135,1,0,0:0:0:0:
352,120,53242,1,0,0:0:0:0:
352,144,53349,1,0,0:0:0:0:
344,168,53456,1,0,0:0:0:0:
328,192,53563,1,0,0:0:0:0:
312,208,53670,1,0,0:0:0:0:
288,224,53777,5,0,0:0:0:0:
264,232,53884,1,0,0:0:0:0:
240,240,53991,1,0,0:0:0:0:
216,224,54098,1,0,0:0:0:0:
192,216,54204,1,0,0:0:0:0:
168,224,54311,1,0,0:0:0:0:
152,240,54418,1,0,0:0:0:0:
144,264,54525,1,0,0:0:0:0:
152,288,54632,5,0,0:0:0:0:
168,304,54739,1,0,0:0:0:0:
192,320,54846,1,0,0:0:0:0:
216,328,54953,1,0,0:0:0:0:
240,336,55060,1,0,0:0:0:0:
264,336,55167,1,0,0:0:0:0:
288,328,55274,1,0,0:0:0:0:
312,312,55380,1,0,0:0:0:0:
328,296,55487,5,0,0:0:0:0:
336,272,55594,1,0,0:0:0:0:
336,248,55701,1,0,0:0:0:0:
344,224,55808,1,0,0:0:0:0:
360,208,55915,1,0,0:0:0:0:
384,192,56022,1,0,0:0:0:0:
408,184,56129,1,0,0:0:0:0:
256,192,56343,12,0,58053,0:0:0:0:
144,72,58909,6,0,L|72:192,1,125
368,312,59336,2,0,L|440:192,1,125
361,80,59764,5,0,0:0:0:0:
150,80,59978,1,0,0:0:0:0:
256,178,60192,1,0,0:0:0:0:
256,290,60405,1,0,0:0:0:0:
130,244,60619,1,0,0:0:0:0:
256,66,60833,1,0,0:0:0:0:
381,244,61047,1,0,0:0:0:0:
97,152,61261,1,0,0:0:0:0:
414,152,61475,5,0,0:0:0:0:
157,80,61688,1,0,0:0:0:0:
354,80,61902,1,0,0:0:0:0:
308,310,62116,1,0,0:0:0:0:
203,310,62330,1,0,0:0:0:0:
256,192,62544,1,0,0:0:0:0:
203,310,62758,1,0,0:0:0:0:
203,73,62971,1,0,0:0:0:0:
84,192,63185,5,0,0:0:0:0:
427,192,63399,1,0,0:0:0:0:
308,73,63613,1,0,0:0:0:0:
308,310,63827,1,0,0:0:0:0:
256,192,64041,1,0,0:0:0:0:
308,310,64254,1,0,0:0:0:0:
124,277,64468,1,0,0:0:0:0:
387,277,64682,1,0,0:0:0:0:
256,66,64896,5,0,0:0:0:0:
170,277,65110,1,0,0:0:0:0:
341,277,65323,1,0,0:0:0:0:
130,152,65537,1,0,0:0:0:0:
373,152,65750,1,0,0:0:0:0:
124,73,65965,1,0,0:0:0:0:
387,73,66179,1,0,0:0:0:0:
387,310,66393,1,0,0:0:0:0:
124,310,66606,5,0,0:0:0:0:
256,192,66820,1,0,0:0:0:0:
387,73,67034,1,0,0:0:0:0:
256,192,67248,1,0,0:0:0:0:
387,310,67462,1,0,0:0:0:0:
256,192,67676,1,0,0:0:0:0:
124,73,67890,1,0,0:0:0:0:
256,192,68104,1,0,0:0:0:0:
256,73,68317,5,0,0:0:0:0:
256,310,68531,1,0,0:0:0:0:
153,132,68745,1,0,0:0:0:0:
358,251,68959,1,0,0:0:0:0:
358,131,69172,1,0,0:0:0:0:
153,251,69386,1,0,0:0:0:0:
256,310,69600,1,0,0:0:0:0:
256,73,69814,1,0,0:0:0:0:
203,139,70028,5,0,0:0:0:0:
308,139,70242,1,0,0:0:0:0:
203,244,70455,1,0,0:0:0:0:
308,244,70669,1,0,0:0:0:0:
150,86,70883,1,0,0:0:0:0:
361,86,71097,1,0,0:0:0:0:
150,297,71310,1,0,0:0:0:0:
361,297,71524,1,0,0:0:0:0:
256,295,71738,5,0,0:0:0:0:
151,192,71952,1,0,0:0:0:0:
359,191,72165,1,0,0:0:0:0:
256,87,72379,1,0,0:0:0:0:
256,243,72593,1,0,0:0:0:0:
203,192,72807,1,0,0:0:0:0:
307,191,73020,1,0,0:0:0:0:
255,139,73234,1,0,0:0:0:0:
408,328,73449,5,0,0:0:0:0:
384,304,73556,1,0,0:0:0:0:
368,280,73663,1,0,0:0:0:0:
360,248,73770,1,0,0:0:0:0:
360,216,73877,1,0,0:0:0:0:
376,192,73983,1,0,0:0:0:0:
400,168,74090,1,0,0:0:0:0:
440,120,74304,2,0,P|320:56|192:64,1,250
160,96,75373,5,0,0:0:0:0:
144,120,75480,1,0,0:0:0:0:
136,152,75587,1,0,0:0:0:0:
136,184,75694,1,0,0:0:0:0:
152,216,75801,1,0,0:0:0:0:
192,264,76015,2,0,P|320:320|424:280,1,250
416,224,77084,5,0,0:0:0:0:
400,200,77191,1,0,0:0:0:0:
376,176,77298,1,0,0:0:0:0:
360,144,77405,1,0,0:0:0:0:
360,112,77512,1,0,0:0:0:0:
320,64,77725,2,0,P|192:160|104:184,1,250
136,240,78795,5,0,0:0:0:0:
160,256,78902,1,0,0:0:0:0:
192,264,79008,1,0,0:0:0:0:
224,264,79115,1,0,0:0:0:0:
256,256,79222,1,0,0:0:0:0:
408,288,79436,5,0,0:0:0:0:
104,96,79864,1,0,0:0:0:0:
408,288,80291,1,0,0:0:0:0:
440,200,80505,5,0,0:0:0:0:
416,184,80612,1,0,0:0:0:0:
392,160,80719,1,0,0:0:0:0:
376,136,80826,1,0,0:0:0:0:
360,112,80933,1,0,0:0:0:0:
304,80,81147,2,0,B|184:40|128:40|48:104,1,250
72,152,82216,5,0,0:0:0:0:
96,168,82323,1,0,0:0:0:0:
128,176,82430,1,0,0:0:0:0:
160,184,82537,1,0,0:0:0:0:
192,192,82644,1,0,0:0:0:0:
256,208,82857,2,0,B|352:288|352:320|472:336,1,250
448,280,83926,5,0,0:0:0:0:
440,248,84033,1,0,0:0:0:0:
440,216,84140,1,0,0:0:0:0:
432,184,84247,1,0,0:0:0:0:
416,160,84354,1,0,0:0:0:0:
368,120,84568,2,0,P|240:80|112:112,1,250
304,128,85637,6,0,L|280:152,1,31.25
216,160,85958,2,0,L|240:184,1,31.25
248,304,86492,6,0,L|272:280,1,31.25
328,272,86813,2,0,L|304:248,1,31.25
256,56,87134,5,0,0:0:0:0:
104,280,87348,1,0,0:0:0:0:
408,280,87562,1,0,0:0:0:0:
256,56,87775,1,0,0:0:0:0:
144,200,87989,2,0,P|64:72|40:72,1,156.25
368,200,88417,2,0,P|448:72|472:72,1,156.25
256,328,88845,5,0,0:0:0:0:
140,192,89058,1,0,0:0:0:0:
371,192,89272,1,0,0:0:0:0:
256,56,89486,1,0,0:0:0:0:
368,184,89700,2,0,P|448:312|472:312,1,156.25
144,184,90128,2,0,P|64:312|40:312,1,156.25
149,98,90555,5,0,0:0:0:0:
362,285,90769,1,0,0:0:0:0:
149,285,90983,1,0,0:0:0:0:
362,98,91197,1,0,0:0:0:0:
302,192,91411,1,0,0:0:0:0:
209,192,91625,1,0,0:0:0:0:
256,317,91838,1,0,0:0:0:0:
256,65,92052,1,0,0:0:0:0:
72,240,92266,6,0,P|120:72|104:64,1,156.25
440,144,92693,2,0,P|392:312|408:320,1,156.25
256,128,93121,2,0,P|256:72|160:64,1,156.25
256,256,93549,2,0,P|256:312|352:320,1,156.25
162,69,93976,5,0,0:0:0:0:
256,307,94190,1,0,0:0:0:0:
349,69,94404,1,0,0:0:0:0:
126,220,94618,1,0,0:0:0:0:
385,220,94832,1,0,0:0:0:0:
162,69,95046,1,0,0:0:0:0:
448,104,95259,2,0,P|408:280|424:288,1,156.25
147,168,95687,6,0,P|129:242|64:280,1,156.25
349,314,96113,1,0,0:0:0:0:
126,163,96327,1,0,0:0:0:0:
385,163,96541,1,0,0:0:0:0:
162,314,96755,1,0,0:0:0:0:
256,76,96969,1,0,0:0:0:0:
349,314,97183,1,0,0:0:0:0:
82,118,97398,5,0,0:0:0:0:
145,301,97611,1,0,0:0:0:0:
210,118,97825,1,0,0:0:0:0:
256,302,98039,1,0,0:0:0:0:
428,118,98253,1,0,0:0:0:0:
365,301,98466,1,0,0:0:0:0:
300,118,98680,1,0,0:0:0:0:
256,302,98894,1,0,0:0:0:0:
416,192,99108,6,0,L|224:192,1,156.25
232,96,99536,2,0,P|80:8|80:0,1,156.25
232,288,99964,2,0,P|80:376|80:384,1,156.25
96,56,100391,1,0,0:0:0:0:
96,328,100605,1,0,0:0:0:0:
340,61,100819,5,0,0:0:0:0:
396,235,101033,1,0,0:0:0:0:
428,80,101247,1,0,0:0:0:0:
307,215,101461,1,0,0:0:0:0:
457,167,101674,1,0,0:0:0:0:
279,129,101888,1,0,0:0:0:0:
396,235,102102,1,0,0:0:0:0:
340,61,102316,1,0,0:0:0:0:
171,322,102529,5,0,0:0:0:0:
115,148,102743,1,0,0:0:0:0:
83,303,102957,1,0,0:0:0:0:
204,168,103171,1,0,0:0:0:0:
54,216,103384,1,0,0:0:0:0:
232,254,103598,1,0,0:0:0:0:
115,148,103812,1,0,0:0:0:0:
171,322,104026,1,0,0:0:0:0:
171,61,104240,5,0,0:0:0:0:
115,235,104454,1,0,0:0:0:0:
83,80,104668,1,0,0:0:0:0:
204,215,104882,1,0,0:0:0:0:
54,167,105095,1,0,0:0:0:0:
232,129,105309,1,0,0:0:0:0:
115,235,105523,1,0,0:0:0:0:
171,61,105737,1,0,0:0:0:0:
340,322,105950,5,0,0:0:0:0:
396,148,106164,1,0,0:0:0:0:
428,303,106378,1,0,0:0:0:0:
307,168,106592,1,0,0:0:0:0:
457,216,106805,1,0,0:0:0:0:
279,254,107019,1,0,0:0:0:0:
396,148,107233,1,0,0:0:0:0:
340,322,107447,1,0,0:0:0:0:
128,56,107661,5,0,0:0:0:0:
104,208,107875,1,0,0:0:0:0:
304,136,108089,2,0,P|160:136|120:152,1,156.25
288,216,108517,1,0,0:0:0:0:
136,232,108730,2,0,P|200:152|208:96,2,156.25,0|0|0,0:0|0:0|0:0,0:0:0:0:
384,328,109372,5,0,0:0:0:0:
288,208,109586,1,0,0:0:0:0:
208,72,109800,2,0,P|176:264|192:280,1,156.25
296,152,110228,2,0,P|136:152|72:104,1,156.25
240,280,110655,2,0,P|192:176|216:136,1,156.25
160,96,111083,5,0,0:0:0:0:
160,96,111296,1,0,0:0:0:0:
352,96,111510,1,0,0:0:0:0:
352,96,111723,1,0,0:0:0:0:
352,288,111938,1,0,0:0:0:0:
352,288,112151,1,0,0:0:0:0:
160,288,112366,1,0,0:0:0:0:
160,288,112579,1,0,0:0:0:0:
256,32,112793,6,0,L|256:192,1,156.25
256,352,113221,2,0,L|256:192,1,156.25
256,195,113648,1,0,0:0:0:0:
48,192,113862,1,0,0:0:0:0:
464,192,114076,1,0,0:0:0:0:
256,32,114290,1,0,0:0:0:0:
256,352,114504,1,0,0:0:0:0:
256,80,128189,5,0,0:0:0:0:
256,192,128403,1,0,0:0:0:0:
256,304,128616,1,0,0:0:0:0:
396,192,129044,5,0,0:0:0:0:
256,192,129258,1,0,0:0:0:0:
116,192,129471,1,0,0:0:0:0:
256,360,129899,5,0,0:0:0:0:
256,192,130113,1,0,0:0:0:0:
256,23,130326,1,0,0:0:0:0:
59,192,130755,5,0,0:0:0:0:
256,192,130969,1,0,0:0:0:0:
452,192,131182,1,0,0:0:0:0:
117,53,131610,5,0,0:0:0:0:
256,192,131823,1,0,0:0:0:0:
394,330,132037,1,0,0:0:0:0:
137,310,132466,5,0,0:0:0:0:
256,192,132679,1,0,0:0:0:0:
374,73,132893,1,0,0:0:0:0:
354,290,133321,5,0,0:0:0:0:
256,192,133534,1,0,0:0:0:0:
157,93,133748,1,0,0:0:0:0:
335,112,134176,5,0,0:0:0:0:
256,192,134389,1,0,0:0:0:0:
176,271,134603,1,0,0:0:0:0:
96,48,135031,6,0,P|128:184|96:224,1,149.999995422363
416,336,135887,2,0,P|384:200|416:160,1,149.999995422363
400,32,136742,2,0,P|264:64|224:32,1,149.999995422363
112,352,137598,2,0,P|248:320|288:352,1,149.999995422363
256,264,138452,5,0,0:0:0:0:
256,264,138666,2,0,L|256:352,1,74.9999977111817
256,120,139308,1,0,0:0:0:0:
256,120,139522,2,0,L|256:32,1,74.9999977111817
328,192,140163,1,0,0:0:0:0:
328,192,140377,2,0,L|416:192,1,74.9999977111817
184,192,141018,1,0,0:0:0:0:
184,192,141232,2,0,L|96:192,1,74.9999977111817
200,112,141874,5,0,0:0:0:0:
312,112,142301,1,0,0:0:0:0:
312,272,142729,1,0,0:0:0:0:
200,272,143157,1,0,0:0:0:0:
453,53,143584,1,0,0:0:0:0:
453,330,144011,1,0,0:0:0:0:
58,330,144439,1,0,0:0:0:0:
58,53,144867,1,0,0:0:0:0:
256,32,145295,6,0,L|256:144,1,74.9999977111817
256,352,145723,2,0,L|256:240,1,74.9999977111817
394,111,146150,2,0,L|297:168,1,74.9999977111817
117,272,146578,2,0,L|214:216,1,74.9999977111817
394,272,147006,6,0,L|297:215,1,74.9999977111817
117,112,147434,2,0,L|214:168,1,74.9999977111817
256,352,147861,2,0,L|256:240,1,74.9999977111817
256,32,148289,2,0,L|256:144,1,74.9999977111817
80,240,148716,6,0,L|80:136,1,74.9999977111817
192,160,149144,2,0,L|192:248,1,74.9999977111817
432,240,149572,2,0,L|432:136,1,74.9999977111817
320,160,150000,2,0,L|320:248,1,74.9999977111817
56,48,150427,1,0,0:0:0:0:
208,48,150641,1,0,0:0:0:0:
456,48,150854,1,0,0:0:0:0:
304,48,151068,1,0,0:0:0:0:
356,281,151282,5,0,0:0:0:0:
256,192,151496,1,0,0:0:0:0:
155,281,151710,1,0,0:0:0:0:
256,80,151924,1,0,0:0:0:0:
80,120,152137,6,0,L|128:192,1,74.9999977111817
256,280,152565,2,0,L|256:368,1,74.9999977111817
432,120,152993,2,0,L|384:192,2,74.9999977111817
432,120,153634,1,0,0:0:0:0:
368,80,153848,5,0,0:0:0:0:
328,72,153955,1,0,0:0:0:0:
288,80,154062,1,0,0:0:0:0:
256,96,154169,1,0,0:0:0:0:
232,128,154276,1,0,0:0:0:0:
224,168,154383,1,0,0:0:0:0:
240,200,154490,1,0,0:0:0:0:
264,232,154596,1,0,0:0:0:0:
256,272,154703,5,0,0:0:0:0:
232,296,154810,1,0,0:0:0:0:
192,296,154917,1,0,0:0:0:0:
160,272,155024,1,0,0:0:0:0:
136,248,155131,1,0,0:0:0:0:
120,216,155238,1,0,0:0:0:0:
120,176,155345,1,0,0:0:0:0:
104,144,155452,1,0,0:0:0:0:
104,104,155559,1,0,0:0:0:0:
104,56,158980,5,0,0:0:0:0:
128,80,159087,1,0,0:0:0:0:
144,104,159194,1,0,0:0:0:0:
152,136,159301,1,0,0:0:0:0:
152,168,159408,1,0,0:0:0:0:
136,192,159514,1,0,0:0:0:0:
112,216,159621,1,0,0:0:0:0:
72,264,159835,2,0,P|192:328|320:320,1,250
352,288,160904,5,0,0:0:0:0:
368,264,161011,1,0,0:0:0:0:
376,232,161118,1,0,0:0:0:0:
376,200,161225,1,0,0:0:0:0:
360,168,161332,1,0,0:0:0:0:
320,120,161546,2,0,P|192:64|88:104,1,250
96,160,162615,5,0,0:0:0:0:
112,184,162722,1,0,0:0:0:0:
136,208,162829,1,0,0:0:0:0:
152,240,162936,1,0,0:0:0:0:
152,272,163043,1,0,0:0:0:0:
192,320,163256,2,0,P|320:224|408:200,1,250
376,144,164326,5,0,0:0:0:0:
352,128,164433,1,0,0:0:0:0:
320,120,164539,1,0,0:0:0:0:
288,120,164646,1,0,0:0:0:0:
256,128,164753,1,0,0:0:0:0:
104,96,164967,5,0,0:0:0:0:
408,288,165395,1,0,0:0:0:0:
104,96,165822,1,0,0:0:0:0:
72,184,166036,5,0,0:0:0:0:
96,200,166143,1,0,0:0:0:0:
120,224,166250,1,0,0:0:0:0:
136,248,166357,1,0,0:0:0:0:
152,272,166464,1,0,0:0:0:0:
208,304,166678,2,0,B|328:344|384:344|464:280,1,250
440,232,167747,5,0,0:0:0:0:
416,216,167854,1,0,0:0:0:0:
384,208,167961,1,0,0:0:0:0:
352,200,168068,1,0,0:0:0:0:
320,192,168175,1,0,0:0:0:0:
256,176,168388,2,0,B|160:96|160:64|40:48,1,250
64,104,169457,5,0,0:0:0:0:
72,136,169564,1,0,0:0:0:0:
72,168,169671,1,0,0:0:0:0:
80,200,169778,1,0,0:0:0:0:
96,224,169885,1,0,0:0:0:0:
144,264,170099,2,0,P|272:304|400:272,1,250
256,48,171168,6,0,L|256:96,1,31.25
256,336,171489,2,0,L|256:288,1,31.25
112,192,172023,6,0,L|160:192,1,31.25
400,192,172344,2,0,L|352:192,1,31.25
256,192,184639,12,0,186350,0:0:0:0:
256,80,186564,5,0,0:0:0:0:
256,290,186778,1,0,0:0:0:0:
138,148,186991,1,0,0:0:0:0:
373,148,187205,1,0,0:0:0:0:
120,259,187419,1,0,0:0:0:0:
391,259,187633,1,0,0:0:0:0:
256,176,187847,1,0,0:0:0:0:
176,88,188060,6,0,P|72:216|40:224,1,156.25
256,328,188488,2,0,L|256:160,1,156.25
336,88,188916,2,0,P|440:216|472:224,1,156.25
456,296,189343,1,0,0:0:0:0:
56,296,189557,1,0,0:0:0:0:
419,193,189771,5,0,0:0:0:0:
84,192,189985,1,0,0:0:0:0:
336,336,190199,1,0,0:0:0:0:
168,47,190413,1,0,0:0:0:0:
167,337,190626,1,0,0:0:0:0:
336,48,190840,1,0,0:0:0:0:
84,192,191054,1,0,0:0:0:0:
419,193,191268,1,0,0:0:0:0:
256,128,191482,5,0,0:0:0:0:
192,240,191696,1,0,0:0:0:0:
320,240,191909,1,0,0:0:0:0:
256,128,192123,1,0,0:0:0:0:
256,294,192337,5,0,0:0:0:0:
358,114,192551,1,0,0:0:0:0:
153,114,192764,1,0,0:0:0:0:
256,294,192979,1,0,0:0:0:0:
432,304,193192,5,0,0:0:0:0:
384,200,193406,1,0,0:0:0:0:
480,224,193620,1,0,0:0:0:0:
256,56,193834,1,0,0:0:0:0:
80,304,194048,1,0,0:0:0:0:
128,200,194262,1,0,0:0:0:0:
32,224,194476,1,0,0:0:0:0:
256,56,194689,1,0,0:0:0:0:
192,160,194903,6,0,P|336:64|368:104,1,156.25
320,144,195331,2,0,P|232:288|176:280,1,156.25
440,48,195758,2,0,P|528:192|568:184,1,156.25
370,235,196186,2,0,P|220:228|193:255,1,156.25
304,320,196614,6,0,L|472:320,1,156.25
208,320,197041,1,0,0:0:0:0:
304,320,197255,1,0,0:0:0:0:
208,320,197469,2,0,L|40:320,1,156.25
464,320,197897,1,0,0:0:0:0:
51,320,198110,1,0,0:0:0:0:
192,200,198324,6,0,L|104:56,1,156.25
256,40,198752,2,0,L|256:208,1,156.25
320,200,199180,2,0,L|408:56,1,156.25
112,304,199607,1,0,0:0:0:0:
400,304,199821,1,0,0:0:0:0:
256,192,200035,5,0,0:0:0:0:
128,192,200249,2,0,P|112:32|152:32,1,156.25
384,192,200676,2,0,P|400:352|360:352,1,156.25
256,48,201104,1,0,0:0:0:0:
256,336,201318,2,0,L|256:168,1,156.25
416,64,201745,5,0,0:0:0:0:
120,120,201959,2,0,P|160:288|200:296,1,156.25
416,320,202387,1,0,0:0:0:0:
96,320,202601,5,0,0:0:0:0:
392,264,202815,2,0,P|352:96|312:88,1,156.25
96,64,203243,1,0,0:0:0:0:
339,283,203456,5,0,0:0:0:0:
256,64,203670,1,0,0:0:0:0:
172,283,203884,1,0,0:0:0:0:
371,148,204098,1,0,0:0:0:0:
140,148,204312,1,0,0:0:0:0:
256,192,204525,1,0,0:0:0:0:
100,233,204739,1,0,0:0:0:0:
411,233,204953,1,0,0:0:0:0:
440,96,205167,6,0,L|256:96,1,156.25
306,231,205594,2,0,L|174:127,1,156.25
205,231,206022,2,0,L|328:135,1,156.25
72,96,206450,2,0,L|256:96,1,156.25
259,112,206877,5,0,0:0:0:0:
464,101,207091,1,0,0:0:0:0:
376,40,207305,1,0,0:0:0:0:
436,236,207519,1,0,0:0:0:0:
253,272,207733,1,0,0:0:0:0:
48,283,207947,1,0,0:0:0:0:
136,344,208161,1,0,0:0:0:0:
76,148,208375,1,0,0:0:0:0:
96,48,208588,6,0,P|264:112|272:128,1,156.25
256,312,209016,1,0,0:0:0:0:
96,48,209229,1,0,0:0:0:0:
416,48,209443,6,0,P|248:112|240:128,1,156.25
256,312,209871,1,0,0:0:0:0:
416,48,210084,1,0,0:0:0:0:
424,192,210299,5,0,0:0:0:0:
256,56,210512,1,0,0:0:0:0:
88,192,210726,1,0,0:0:0:0:
256,328,210939,1,0,0:0:0:0:
340,337,211154,1,0,0:0:0:0:
373,124,211367,1,0,0:0:0:0:
172,46,211581,1,0,0:0:0:0:
138,260,211794,1,0,0:0:0:0:
171,337,212009,5,0,0:0:0:0:
373,260,212222,1,0,0:0:0:0:
340,46,212436,1,0,0:0:0:0:
138,124,212649,1,0,0:0:0:0:
88,192,212864,1,0,0:0:0:0:
256,328,213077,1,0,0:0:0:0:
424,192,213291,1,0,0:0:0:0:
256,56,213504,1,0,0:0:0:0:
