osu file format v9

[General]
AudioFilename: 112-jakarta-bebe_tecktonik.mp3
AudioLeadIn: 2000
PreviewTime: 45762
Countdown: 0
SampleSet: Soft
StackLeniency: 0.7
Mode: 0
LetterboxInBreaks: 1

[Editor]
Bookmarks: 1455,45762,75301,104839,119608,134378,166608
DistanceSpacing: 0.8
BeatDivisor: 4
GridSize: 8

[Metadata]
Title:One Desire
Artist:Jakarta
Creator:lordfoster
Version:Techno Dance
Source:
Tags:Art-FzTT bebe tecktonik Verdisphena eldnl

[Difficulty]
HPDrainRate:3
CircleSize:4
OverallDifficulty:5
ApproachRate:5
SliderMultiplier:1.4
SliderTickRate:1

[Events]
//Background and Video events
Video,120,"Jakarta - One Desire.wmv"
0,0,"img-wallpapers-tecktonik-aitcom-10233.jpg"
//Break Periods
2,60731,73178
//Storyboard Layer 0 (Background)
//Storyboard Layer 1 (Fail)
//Storyboard Layer 2 (Pass)
//Storyboard Layer 3 (Foreground)
//Storyboard Sound Samples
//Background Colour Transformations
3,100,163,162,255

[TimingPoints]
1455,461.538461538462,4,2,0,100,1,0
16224,-100,4,1,0,89,0,0
27301,-100,4,2,0,100,0,0
30993,-100,4,1,0,90,0,0
45762,-100,4,1,0,89,0,1
52224,-100,4,2,0,100,0,1
53147,-100,4,1,0,90,0,1
56378,-100,4,2,0,100,0,1
56839,-100,4,1,0,90,0,1
60531,-100,4,1,0,90,0,0
74378,-100,4,2,0,100,0,0
75301,-100,4,1,0,90,0,0
88224,-100,4,2,0,100,0,0
90070,-100,4,1,0,89,0,0
101147,-100,4,2,0,100,0,0
119608,-100,4,1,0,91,0,0
130685,-100,4,2,0,100,0,0
134378,-100,4,1,0,90,0,1
145455,-100,4,2,0,100,0,1
149031,-100,4,2,0,100,0,0
149147,-100,4,1,0,90,0,1
155608,-100,4,2,0,100,0,1
156531,-100,4,1,0,91,0,1
159762,-100,4,2,0,100,0,1
164839,-100,4,2,0,0,0,0

[HitObjects]
296,304,1455,2,0,B|344:304|344:304|384:264|384:264|384:224,2,140,4|8|0
184,304,2839,1,8
128,288,3070,1,0
88,248,3301,2,0,B|48:216|40:192|48:168|88:136,2,140,0|8|0
184,192,4685,6,0,B|240:136,1,70,8|0
248,200,5147,2,0,B|352:304,1,140,0|8
352,352,5839,2,0,B|400:352|400:272,1,70,0|0
408,192,6531,1,8
392,80,6993,2,0,B|328:32|264:80,1,140,0|8
328,176,7916,6,0,B|263:224|199:176,2,140,0|8|0
264,24,9531,1,2
264,80,9762,1,2
200,176,10224,1,2
312,200,10685,1,2
200,232,11147,1,2
64,48,12070,6,2,B|64:192,1,140
240,48,13455,2,2,B|240:264,1,210
296,256,14378,2,2,B|296:112,1,140
408,120,15301,6,2,B|408:200,4,70,2|2|2|2|6
320,192,16685,6,0,B|256:48,1,140
208,64,17378,2,0,B|184:128,1,70,0|8
96,192,18070,6,0,B|16:248|96:304,1,140
192,248,18993,1,0
240,280,19224,2,0,B|272:248|240:216,1,70,0|8
192,120,19916,6,0,B|256:72|320:120,1,140
304,232,20839,1,0
256,256,21070,1,0
208,232,21301,1,8
264,120,21762,6,0,B|312:64|312:64|360:120,1,140
416,216,22685,2,0,B|448:240|448:240|416:264,2,70,0|0|8
320,280,23608,5,0
320,280,24070,2,0,B|256:344|256:344|208:344,1,140
152,344,24762,2,0,B|120:344|120:344|88:312,1,70,0|8
88,208,25455,6,0,B|88:64,2,140
144,208,26608,2,0,B|144:136,1,70,0|8
256,128,27301,6,0,B|320:72|384:128,1,140
320,216,28224,2,0,B|256:376|192:216,1,210
168,168,29147,2,0,B|112:88|56:168,1,140
392,192,30993,5,4
336,96,31455,1,0
224,96,31916,1,0
224,96,32147,2,0,B|184:96|160:120,1,70,0|8
160,232,32839,6,0,B|160:312|232:352,1,140
336,352,33762,2,0,B|368:352|400:320,2,70,0|0|8
296,248,34685,5,0
256,144,35147,1,0
144,120,35608,1,0
88,120,35839,1,0
48,160,36070,1,8
40,272,36531,6,0,B|40:328|40:328|72:360|72:360|112:360,2,140
40,216,37685,2,0,B|40:184|40:184|72:152,1,70,0|8
176,184,38378,5,0
256,256,38839,1,0
344,192,39301,1,0
344,192,39531,1,0
344,192,39762,1,8
432,128,40224,6,0,B|480:192|432:256,2,140
384,160,41378,2,0,B|408:192|384:224,1,70,0|8
280,192,42070,6,4,B|264:200|264:200|264:184|264:184|256:200|256:200|256:184|256:184|240:200|240:200|240:184|240:184|232:200|232:200|232:184|232:184|216:200|216:200|216:184|216:184|208:200|208:200|208:184|208:184|192:200|192:200|192:184|192:184|184:200|184:200|184:184|184:184|176:192,3,280
72,192,45301,5,0
72,192,45531,1,0
72,192,45762,2,0,B|136:144|200:192,1,140,4|0
256,192,46455,1,0
312,192,46685,2,0,B|376:240|440:192,1,140,0|8
440,136,47378,1,0
440,80,47608,2,0,B|376:32|312:80,2,140
376,168,48993,6,0,B|376:240,2,70,8|0|0
376,56,49916,2,0,B|448:56,2,70
264,56,50839,2,0,B|264:200,2,140,8|0|0
152,56,52224,2,0,B|152:200,1,140,0|8
40,176,53147,2,0,B|40:248|96:304|184:304,2,210,0|0|8
120,96,54993,2,0,B|192:96|248:152|248:240,2,210,0|0|8
128,208,56839,5,0
352,208,57762,1,0
240,80,58455,1,0
240,80,58685,1,0
240,192,59147,2,0,B|240:336,3,140
256,272,74378,6,0,B|256:344,4,70,0|0|0|0|4
184,192,75762,2,0,B|256:192|328:192,1,140
288,144,76455,2,0,B|256:120|224:144,1,70,0|8
112,128,77147,6,0,B|64:192|112:256,2,140
160,160,78301,2,0,B|184:192|160:224,1,70,0|8
208,328,78993,6,0,B|240:368|240:368|256:384|272:368|272:368|304:328,1,140
224,248,79916,1,0
256,200,80147,1,0
288,248,80378,1,8
400,232,80839,6,0,B|400:80,1,140
296,40,81762,2,0,B|216:40,1,70
168,40,82224,1,8
64,88,82685,6,0,B|64:240,1,140
168,280,83608,2,0,B|240:280,1,70
296,280,84070,1,8
384,344,84531,6,0,B|432:280|384:216,1,140
304,136,85455,2,0,B|275:107|230:107,2,70,0|0|8
224,208,86378,6,0,B|152:200|120:120,1,140
232,104,87301,1,0
288,120,87531,1,0
320,168,87762,1,8
256,192,88224,12,0,90070
184,64,90531,6,0,B|328:64,1,140
288,112,91224,2,0,B|216:112,1,70,0|8
288,200,91916,6,0,B|256:280|224:200,2,105
312,152,92839,2,0,B|336:104|360:152,1,70
376,208,93301,1,8
488,208,93762,6,0,B|488:272|440:296,2,105
488,152,94685,1,0
472,96,94916,1,0
440,56,95147,1,8
328,64,95608,6,0,B|360:64|360:64|384:88|384:88|384:128,2,105
336,120,96531,1,0
280,144,96762,1,0
224,120,96993,1,8
144,48,97455,6,0,B|96:8|48:48,2,105
96,80,98378,1,0
64,128,98608,2,0,B|96:152|128:128,1,70,0|8
368,48,99301,6,0,B|416:8|464:48,2,105
416,80,100224,1,0
448,128,100454,2,0,B|416:152|384:128,1,70,0|8
256,192,101147,12,0,103916
112,192,104839,5,4
112,192,105070,1,0
112,192,105301,1,0
400,192,106685,5,4
400,192,106916,1,0
400,192,107147,1,0
256,336,108531,5,4
256,336,108762,1,0
256,336,108992,1,0
256,48,110378,5,4
256,48,110609,1,0
256,48,110839,1,0
256,216,111531,2,0,B|256:288,1,70
400,192,112224,6,0,B|472:192,2,70,4|0|0
256,128,113147,2,0,B|256:272,1,140
112,192,114070,6,0,B|40:192,2,70,4|0|0
256,268,114993,2,0,B|256:128,1,140
256,16,115916,6,0,B|208:16|184:40,1,70,4|0
144,64,116378,1,0
104,104,116608,1,0
88,160,116839,2,0,B|72:216|72:264|96:304,1,140,4|0
136,328,117531,1,0
192,344,117762,1,4
248,336,117993,1,0
288,296,118224,2,0,B|328:240|280:184|224:232,1,140
400,72,119608,6,0,B|288:72,1,105
208,72,120301,2,0,B|152:128,1,70
152,176,120762,2,0,B|152:248,1,70,0|8
48,280,121455,6,0,B|48:344|112:344,1,105
200,344,122147,1,0
200,344,122378,1,0
280,344,122608,1,0
280,344,122839,1,8
328,240,123301,6,0,B|368:192|328:144,1,105
256,192,123993,2,0,B|168:192,1,70
144,224,124455,2,0,B|120:192|144:160,1,70,0|8
88,64,125147,6,0,B|192:64,1,105
280,64,125839,2,0,B|280:144,1,70
336,136,126301,2,0,B|336:56,1,70,0|8
448,64,126993,6,0,B|448:176,1,105
416,248,127685,2,0,B|448:272|480:248,1,70
480,304,128147,2,0,B|448:328|416:304,1,70,0|8
304,304,128839,6,0,B|256:344|208:304,1,105
256,232,129531,1,0
200,224,129762,1,0
152,248,129993,1,0
128,296,130224,1,8
256,192,130685,12,0,133455
120,192,134378,5,4
176,288,134840,1,0
288,288,135301,1,0
288,288,135532,2,0,B|328:288|352:264,1,70,0|8
352,152,136224,6,0,B|352:72|280:32,1,140
176,32,137147,2,0,B|144:32|112:64,2,70,0|0|8
216,136,138070,5,0
256,240,138532,1,0
368,264,138993,1,0
424,264,139224,1,0
464,224,139455,1,8
472,112,139916,6,0,B|472:56|472:56|440:24|440:24|400:24,2,140
472,168,141070,2,0,B|472:200|472:200|440:232,1,70,0|8
336,200,141763,5,0
256,128,142224,1,0
168,192,142686,1,0
168,192,142916,1,0
168,192,143147,1,8
80,256,143609,6,0,B|32:192|80:128,2,140
128,224,144763,2,0,B|104:192|128:160,1,70,0|8
232,192,145455,6,4,B|248:184|248:184|248:200|248:200|256:184|256:184|256:200|256:200|272:184|272:184|272:200|272:200|280:184|280:184|280:200|280:200|296:184|296:184|296:200|296:200|304:184|304:184|304:200|304:200|320:184|320:184|320:200|320:200|328:184|328:184|328:200|328:200|336:192,3,280
440,192,148686,5,0
440,192,148916,1,0
440,192,149147,2,0,B|376:240|312:192,1,140,4|0
256,192,149840,1,0
200,192,150070,2,0,B|136:144|72:192,1,140,0|8
72,248,150763,1,0
72,304,150993,2,0,B|136:352|200:304,2,140
136,216,152378,6,0,B|136:144,2,70,8|0|0
136,328,153301,2,0,B|64:328,2,70
248,328,154224,2,0,B|248:184,2,140,8|0|0
360,328,155609,2,0,B|360:184,1,140,0|8
472,208,156532,2,0,B|472:136|416:80|328:80,2,210,0|0|8
392,288,158378,2,0,B|320:288|264:232|264:144,2,210,0|0|8
376,192,160224,6,0,B|256:328|136:192,2,280,0|0|4
