osu file format v9

[General]
AudioFilename: 112-jakarta-bebe_tecktonik.mp3
AudioLeadIn: 3000
PreviewTime: -1
Countdown: 1
SampleSet: Normal
StackLeniency: 0.7
Mode: 1
LetterboxInBreaks: 1

[Editor]
DistanceSpacing: 1.1
BeatDivisor: 4
GridSize: 8

[Metadata]
Title:One Desire
Artist:Jakarta
Creator:lordfoster
Version:Taiko Oni
Source:
Tags:Art-FzTTbebe tecktonik Verdisphena

[Difficulty]
HPDrainRate:8
CircleSize:5
OverallDifficulty:8
ApproachRate:5
SliderMultiplier:1.4
SliderTickRate:1

[Events]
//Background and Video events
Video,99,"Jakarta - One Desire.wmv"
0,0,"img-wallpapers-tecktonik-aitcom-10233.jpg"
//Break Periods
//Storyboard Layer 0 (Background)
//Storyboard Layer 1 (Fail)
//Storyboard Layer 2 (Pass)
//Storyboard Layer 3 (Foreground)
//Storyboard Sound Samples
//Background Colour Transformations
3,100,163,162,255

[TimingPoints]
1455,461.538461538462,4,1,0,100,1,0
30993,-100,4,1,0,100,0,1
60762,-142.857142857143,4,1,0,100,0,0
75301,-100,4,1,0,100,0,0
104839,-133.333333333333,4,1,0,100,0,0
119608,-100,4,1,0,100,0,0
149147,-50,4,1,0,100,0,1
162531,-50,4,1,0,100,0,0
162993,-100,4,1,0,100,0,0

[HitObjects]
256,192,1455,1,0
408,192,1916,1,8
256,192,2378,1,0
104,192,2839,1,8
256,192,3301,1,0
336,192,3531,1,0
416,192,3762,1,8
336,192,3993,1,0
296,192,4108,1,0
216,192,4339,1,0
176,192,4455,1,0
96,192,4685,1,8
16,192,4916,1,8
56,192,5031,1,8
96,192,5147,1,0
248,192,5608,1,8
400,192,6070,1,0
248,184,6531,1,8
96,192,6993,1,0
176,192,7224,1,0
96,192,7455,1,8
96,272,7685,1,0
96,312,7801,1,0
168,328,8031,1,0
208,320,8147,1,0
280,296,8378,1,8
288,216,8608,1,8
296,176,8724,1,8
336,184,8839,1,0
424,56,9301,1,8
272,80,9762,1,0
368,200,10224,1,8
216,184,10685,1,0
320,296,11147,1,8
376,240,11378,1,0
392,208,11493,1,0
416,136,11724,1,0
384,120,11839,1,0
304,128,12070,1,8
256,184,12301,1,8
232,208,12416,1,8
256,240,12531,1,0
256,192,14378,12,0,16224
256,264,16570,5,8
296,264,16685,1,0
360,224,16916,1,8
360,144,17147,1,0
328,120,17262,1,0
280,176,17493,1,8
240,168,17608,1,0
216,96,17839,1,8
176,88,17955,1,8
144,112,18070,1,0
168,184,18416,1,8
200,208,18531,1,0
272,240,18762,1,8
312,248,18878,1,8
352,240,18993,1,0
384,168,19224,1,8
392,128,19339,1,8
376,160,19455,1,0
384,208,19570,1,0
376,240,19685,1,8
360,280,19801,1,8
400,280,19916,1,0
456,176,20262,1,8
464,136,20378,1,0
392,104,20608,1,8
320,128,20839,1,0
288,152,20955,1,0
400,280,21070,1,8
360,184,21185,1,8
192,224,21301,1,0
224,248,21416,1,0
264,248,21531,1,0
288,280,21647,1,8
328,272,21762,1,0
360,160,22108,1,8
400,176,22224,1,0
456,128,22455,1,8
376,120,22685,1,8
336,120,22801,1,8
352,152,22916,1,0
368,192,23031,1,0
240,184,23147,1,8
272,208,23262,1,0
168,216,23378,1,8
208,224,23493,1,8
248,232,23608,1,0
360,256,23955,1,8
400,256,24070,1,0
432,184,24301,1,8
384,128,24531,1,0
352,112,24647,1,0
320,128,24762,1,8
256,176,24993,1,0
200,120,25224,1,8
160,112,25339,1,8
184,144,25455,1,0
240,200,25685,1,8
264,232,25801,1,8
304,232,25916,1,0
344,224,26031,1,8
384,216,26147,1,8
392,296,26378,1,0
352,304,26493,1,0
312,312,26608,1,8
272,304,26724,1,8
240,288,26839,1,0
208,264,26955,1,0
176,240,27070,1,8
152,208,27185,1,8
184,184,27301,1,0
248,144,27531,1,8
280,128,27647,1,8
320,136,27762,1,0
360,128,27878,1,8
392,112,27993,1,8
416,184,28224,1,0
384,256,28455,1,8
352,272,28570,1,8
312,272,28685,1,0
232,272,28916,1,8
152,264,29147,2,0,B|152:112,1,140
72,216,30993,1,0
152,216,31224,1,8
192,216,31339,1,8
232,216,31455,1,0
312,216,31685,1,8
352,216,31801,1,8
392,216,31916,1,0
384,176,32031,1,8
384,136,32147,1,8
312,112,32378,1,0
272,104,32493,1,0
232,96,32608,1,8
192,104,32724,1,8
152,112,32839,1,0
112,176,33070,1,8
136,208,33185,1,8
176,216,33301,1,0
256,216,33531,1,8
296,216,33647,1,8
336,224,33762,1,0
368,240,33878,1,8
384,280,33993,1,8
312,304,34224,1,0
272,304,34339,1,8
232,304,34455,1,8
192,304,34570,1,8
152,304,34685,1,0
168,232,34916,1,8
192,200,35031,1,8
232,192,35147,1,0
312,200,35378,1,8
352,200,35493,1,8
392,192,35608,1,0
416,160,35724,1,8
424,120,35839,1,8
344,112,36070,1,0
272,96,36301,1,0
232,104,36416,1,8
192,104,36531,1,0
176,176,36762,1,8
192,208,36878,1,8
224,224,36993,1,0
304,232,37224,1,8
384,216,37455,1,0
408,192,37570,1,0
416,232,37685,1,8
400,264,37801,1,8
416,296,37916,1,0
328,296,38031,1,8
368,304,38147,1,0
400,312,38262,1,0
368,336,38378,1,0
312,280,38608,1,8
296,248,38724,1,8
312,216,38839,1,0
328,176,38955,1,8
328,136,39070,1,8
248,144,39301,1,8
208,208,39531,1,8
184,240,39647,1,8
160,216,39762,1,0
144,144,39993,1,8
216,120,40224,1,0
296,112,40455,1,0
328,128,40570,1,0
368,192,40801,1,0
376,232,40916,1,0
376,272,41031,1,8
408,288,41147,1,0
328,296,41378,1,8
288,296,41493,1,8
264,264,41608,1,0
264,224,41724,1,8
232,208,41839,1,8
184,144,42070,1,0
256,128,42301,1,8
296,136,42416,1,0
368,160,42647,1,0
392,184,42762,1,8
400,264,42993,1,8
384,296,43108,1,8
352,272,43224,1,0
320,248,43339,1,0
272,296,43455,1,8
232,288,43570,1,8
192,280,43685,1,8
200,240,43801,1,0
216,208,43916,1,0
240,136,44147,1,8
280,128,44262,1,8
280,168,44378,1,0
296,200,44493,1,0
384,176,44608,1,8
416,200,44724,1,8
432,240,44839,1,8
400,224,44955,1,0
368,200,45070,1,0
320,272,45185,1,8
296,240,45301,1,0
240,272,45416,1,8
200,272,45531,1,8
200,232,45647,1,0
200,192,45762,1,0
256,136,45993,1,8
296,128,46108,1,8
336,136,46224,1,0
376,152,46339,1,8
408,168,46455,1,8
424,240,46685,1,0
408,272,46801,1,0
376,296,46916,1,0
312,256,47147,1,8
232,264,47378,1,8
192,264,47493,1,8
192,224,47608,1,0
224,152,47839,1,8
256,136,47955,1,8
296,144,48070,1,0
336,152,48185,1,8
376,152,48301,1,8
448,144,48531,1,0
392,88,48762,1,8
352,80,48878,1,8
312,80,48993,1,0
272,80,49108,1,0
232,88,49224,1,8
192,88,49339,1,8
184,128,49455,1,0
232,184,49685,1,8
256,208,49801,1,8
288,232,49916,1,0
312,304,50147,1,8
384,288,50378,1,0
424,224,50608,1,8
432,184,50724,1,8
408,152,50839,1,0
400,112,50955,1,8
392,72,51070,1,8
424,224,51301,1,0
360,184,51531,1,8
320,184,51647,1,8
304,216,51762,1,0
240,176,51993,1,8
184,224,52224,1,0
200,264,52339,1,0
232,280,52455,1,0
312,288,52685,1,8
392,296,52916,1,8
440,232,53147,1,0
376,184,53378,1,8
344,160,53493,1,8
384,152,53608,1,0
360,80,53839,1,8
296,120,54070,1,8
264,144,54185,1,8
264,184,54301,1,0
200,224,54531,1,0
168,200,54647,1,0
184,168,54762,1,8
200,136,54878,1,8
176,168,54993,1,0
144,96,55224,1,8
120,120,55339,1,8
136,160,55455,1,0
160,184,55570,1,8
184,208,55685,1,8
256,240,55916,1,8
296,248,56031,1,8
336,240,56147,1,0
368,224,56262,1,0
392,192,56378,1,8
392,232,56493,1,0
384,112,56608,1,8
400,144,56724,1,0
456,144,56839,1,0
456,224,57070,1,8
432,256,57185,1,8
400,280,57301,1,0
328,264,57531,1,8
264,224,57762,1,0
240,152,57993,1,8
200,144,58108,1,8
168,160,58224,1,0
192,232,58455,1,8
248,280,58685,1,0
320,264,58916,1,4
392,232,59147,1,0
368,160,59378,1,8
336,136,59493,1,8
336,176,59608,1,0
264,104,59724,1,8
280,144,59839,1,0
184,104,59955,1,8
208,136,60070,1,0
144,168,60185,1,8
136,208,60301,1,8
168,224,60416,1,8
200,248,60531,1,0
304,264,60993,1,8
344,368,61455,1,0
496,168,61916,1,8
464,208,62147,1,0
400,296,62608,1,0
304,272,62839,1,8
216,336,63301,1,0
104,184,63762,1,8
192,248,64224,1,0
304,264,64685,1,8
304,368,65147,1,0
376,320,65608,1,8
424,304,65839,1,0
352,296,66301,1,0
320,232,66531,1,8
392,152,66993,1,0
288,168,67455,1,8
192,224,67916,1,0
296,264,68378,1,8
400,240,68839,1,0
344,152,69301,1,8
288,160,69531,1,0
384,104,69993,1,0
400,120,70224,1,8
360,224,70685,1,4
272,288,71147,1,6
376,272,71608,1,4
400,168,72070,1,8
344,176,72301,1,4
288,184,72531,1,4
272,80,72993,1,8
328,80,73224,1,0
376,96,73455,2,0,B|480:216|288:360|160:328|152:304,1,391.999990653992
176,216,75531,1,8
208,200,75647,1,0
280,216,75878,1,0
304,248,75993,1,8
376,224,76224,1,0
408,240,76339,1,8
448,192,76455,1,0
400,128,76685,1,0
328,112,76916,1,8
288,112,77031,1,8
248,120,77147,1,0
200,176,77378,1,8
216,216,77493,1,0
488,336,77724,1,0
464,304,77839,1,8
32,32,78070,1,0
56,64,78185,1,0
72,96,78301,1,8
488,336,78531,1,0
464,304,78647,1,0
432,288,78762,1,8
432,232,78878,1,8
432,192,78993,1,0
368,144,79224,1,8
360,184,79339,1,8
328,208,79455,1,0
304,240,79570,1,0
288,160,79685,1,8
240,216,79916,1,0
216,248,80031,1,0
192,272,80147,1,0
224,200,80378,1,0
288,160,80608,1,8
320,144,80724,1,8
360,152,80839,1,0
288,120,81070,1,0
256,104,81185,1,0
224,120,81301,1,8
248,192,81531,1,8
304,248,81762,1,0
352,304,81993,1,0
384,232,82224,1,8
408,200,82339,1,8
392,160,82455,1,0
392,120,82570,1,0
392,80,82685,1,0
360,152,82916,1,8
280,160,83147,1,0
240,160,83262,1,8
200,168,83378,1,8
224,240,83608,1,0
304,240,83839,1,8
360,288,84070,1,0
400,280,84185,1,0
408,240,84301,1,8
416,200,84416,1,8
448,216,84531,1,0
440,136,84762,1,8
400,128,84878,1,0
328,120,85108,1,0
288,120,85224,1,0
256,144,85339,1,8
240,176,85455,1,8
216,200,85570,1,0
176,208,85685,1,8
248,240,85916,1,0
280,256,86031,1,0
320,256,86147,1,8
360,248,86262,1,8
392,224,86378,1,0
392,144,86608,1,8
416,112,86724,1,8
448,136,86839,1,0
472,208,87070,1,8
432,272,87301,1,0
360,288,87531,1,0
432,320,87762,1,8
368,272,87993,1,0
392,112,88224,5,0
112,288,88454,5,8
136,288,88531,1,8
160,288,88608,1,8
184,288,88685,1,8
256,56,88916,5,8
256,80,88993,1,8
256,104,89070,1,8
256,128,89147,1,8
440,336,89378,5,8
440,312,89455,1,8
440,288,89531,1,8
440,264,89608,1,8
96,168,89839,5,8
120,168,89916,1,8
144,168,89993,1,8
168,168,90070,1,0
248,168,90301,1,8
288,168,90416,1,8
328,168,90531,1,0
368,168,90647,1,0
408,168,90762,1,0
360,232,90993,1,8
328,248,91108,1,8
288,264,91224,1,0
248,264,91339,1,0
208,264,91455,1,0
280,296,91685,1,8
320,312,91801,1,8
360,312,91916,1,0
248,168,92147,1,8
288,168,92262,1,8
328,168,92377,1,0
368,168,92493,1,0
408,168,92608,1,0
360,232,92839,1,8
328,248,92954,1,8
288,264,93070,1,0
248,264,93185,1,0
208,264,93301,1,0
280,296,93531,1,8
320,312,93647,1,8
360,312,93762,1,0
424,272,93993,1,8
440,200,94224,1,0
424,128,94455,1,8
272,112,94916,1,8
232,176,95147,1,0
296,216,95378,1,8
368,240,95608,1,0
400,256,95724,1,0
424,232,95839,1,8
448,200,95955,1,8
440,160,96070,1,0
416,128,96185,1,0
384,112,96301,1,8
344,112,96416,1,8
304,104,96531,1,0
264,104,96647,1,0
224,112,96762,1,0
192,136,96878,1,0
208,168,96993,1,8
240,184,97108,1,0
256,232,97224,1,8
296,240,97339,1,0
336,240,97455,1,0
248,168,97685,1,8
288,168,97800,1,8
328,168,97915,1,0
368,168,98031,1,0
408,168,98146,1,0
360,232,98377,1,8
328,248,98492,1,8
288,264,98608,1,0
248,264,98723,1,0
208,264,98839,1,0
280,296,99069,1,8
320,312,99185,1,8
360,312,99300,1,0
248,168,99531,1,8
288,168,99646,1,8
328,168,99761,1,0
368,168,99877,1,0
408,168,99992,1,0
360,232,100223,1,8
328,248,100338,1,8
288,264,100454,1,0
248,264,100569,1,0
208,264,100685,1,0
280,296,100915,1,8
320,312,101031,1,8
360,312,101146,1,0
448,16,102070,1,0
296,288,102993,1,0
256,192,103455,12,0,104839
256,192,105762,5,8
472,280,106685,1,0
240,288,107608,1,8
288,256,107839,1,8
312,248,107955,1,8
336,232,108070,1,0
384,200,108301,1,8
400,176,108416,1,8
432,184,108531,1,0
208,232,109455,1,0
384,384,110378,1,0
392,328,110608,1,8
384,296,110724,1,8
384,264,110839,1,0
368,208,111070,1,8
360,176,111185,1,8
376,152,111301,1,0
384,96,111531,1,8
352,104,111647,1,8
344,128,111762,1,0
336,152,111878,1,0
280,152,111993,1,8
208,192,112108,1,8
224,216,112224,1,0
272,344,113147,1,0
504,312,114070,1,0
408,256,114531,1,8
320,240,114878,1,8
328,216,114993,1,0
368,176,115224,1,8
392,192,115339,1,0
416,136,115570,1,8
384,136,115685,1,8
368,96,115801,1,8
344,112,115916,1,0
264,328,116839,1,0
256,96,117762,2,0,B|344:128|344:208|256:256|176:208|176:120|256:80|360:112|360:216|240:264,1,419.999987483025
328,280,119839,1,8
368,272,119955,1,0
400,200,120185,1,8
408,160,120301,1,8
408,120,120416,1,8
392,80,120531,1,0
352,80,120647,1,8
312,88,120762,1,8
296,160,120993,1,0
256,224,121224,1,8
184,240,121455,1,0
208,168,121685,1,8
224,136,121801,1,8
248,168,121916,1,0
240,64,122031,1,8
264,96,122147,1,0
288,128,122262,1,0
288,32,122378,1,8
312,56,122493,1,8
336,80,122608,1,8
376,144,122839,1,0
416,208,123070,1,8
392,240,123185,1,8
360,264,123301,1,0
320,256,123416,1,0
296,232,123531,1,8
280,272,123647,1,0
224,200,123762,1,8
192,176,123878,1,8
208,208,123993,1,0
240,240,124108,1,0
128,80,124224,1,8
168,88,124339,1,0
200,96,124455,1,8
272,120,124685,1,0
328,168,124916,1,8
368,176,125031,1,8
400,200,125147,1,0
376,272,125378,1,8
336,280,125493,1,8
304,256,125608,1,0
272,232,125724,1,0
240,216,125839,1,8
280,224,125955,1,0
320,216,126070,1,0
128,240,126185,1,8
168,224,126301,1,8
240,200,126531,1,0
272,184,126647,1,0
312,176,126762,1,8
352,176,126878,1,8
392,184,126993,1,0
416,256,127224,1,8
384,280,127339,1,8
344,280,127455,1,0
304,280,127570,1,0
336,264,127685,1,8
224,272,127801,1,0
264,264,127916,1,8
168,216,128031,1,0
208,208,128147,1,8
280,192,128378,1,0
320,184,128493,1,0
360,176,128608,1,0
440,168,128839,1,8
480,232,129070,1,8
448,248,129185,1,8
432,216,129301,1,0
408,184,129416,1,0
336,272,129531,1,8
344,232,129647,1,0
256,272,129762,1,8
280,240,129878,1,0
288,200,129993,1,8
352,160,130224,1,0
368,128,130339,1,0
408,136,130455,1,8
480,152,130685,1,4
176,128,131608,1,4
320,360,132531,1,4
192,208,134378,1,0
272,216,134608,1,8
312,216,134724,1,8
464,248,134839,1,0
440,176,135070,1,8
416,144,135185,1,8
376,136,135301,1,0
296,128,135531,1,8
256,136,135647,1,0
184,168,135878,1,8
160,200,135993,1,8
192,224,136108,1,8
224,248,136224,1,0
272,216,136455,1,8
312,216,136571,1,8
464,248,136686,1,0
440,176,136917,1,8
416,144,137032,1,8
376,136,137148,1,0
296,128,137378,1,8
256,136,137494,1,0
184,168,137725,1,8
160,200,137840,1,8
192,224,137955,1,8
224,248,138071,1,0
304,256,138301,1,8
344,256,138416,1,8
384,248,138531,1,0
408,216,138647,1,8
416,176,138762,1,8
344,144,138993,1,0
280,104,139224,1,8
224,152,139455,1,0
168,200,139685,1,8
272,216,139916,1,8
312,216,140032,1,8
464,248,140147,1,0
432,272,140262,1,0
440,176,140378,1,8
416,144,140493,1,8
376,136,140609,1,0
368,176,140724,1,0
296,128,140839,1,8
256,136,140955,1,0
264,176,141070,1,0
184,168,141186,1,8
160,200,141301,1,8
192,224,141416,1,8
224,248,141532,1,0
264,248,141647,1,8
304,248,141762,1,0
376,232,141993,1,8
408,216,142108,1,8
440,192,142224,1,0
400,128,142455,1,8
416,200,142685,1,0
400,240,142801,1,0
376,272,142916,1,8
304,256,143147,1,0
320,184,143378,1,8
304,112,143608,1,8
272,136,143724,1,8
304,160,143839,1,0
208,176,143955,1,8
176,200,144070,1,8
144,224,144185,1,8
184,224,144301,1,0
80,264,144416,1,8
120,272,144531,1,8
200,264,144762,1,8
280,256,144993,1,0
320,248,145108,1,0
360,240,145224,1,0
400,232,145339,1,0
408,272,145455,1,0
400,192,145685,1,0
296,136,145916,1,0
376,128,146147,1,8
408,272,146378,1,0
400,192,146608,1,0
296,136,146839,1,0
376,128,147070,1,8
304,144,147301,1,0
248,288,147762,1,4
504,112,148685,1,8
432,144,148916,1,8
192,208,149147,1,0
272,216,149377,1,8
312,216,149493,1,8
464,248,149608,1,0
440,176,149839,1,8
416,144,149954,1,8
376,136,150070,1,0
296,128,150300,1,8
256,136,150416,1,0
184,168,150647,1,8
160,200,150762,1,8
192,224,150877,1,8
224,248,150993,1,0
272,216,151224,1,8
312,216,151340,1,8
464,248,151455,1,0
440,176,151686,1,8
416,144,151801,1,8
376,136,151917,1,0
296,128,152147,1,8
256,136,152263,1,0
184,168,152494,1,8
160,200,152609,1,8
192,224,152724,1,8
224,248,152840,1,0
304,256,153070,1,8
344,256,153185,1,8
384,248,153300,1,0
408,216,153416,1,8
416,176,153531,1,8
344,144,153762,1,0
280,104,153993,1,8
224,152,154224,1,0
168,200,154454,1,8
272,216,154685,1,8
312,216,154801,1,8
464,248,154916,1,0
432,272,155031,1,0
440,176,155147,1,8
416,144,155262,1,8
376,136,155378,1,0
368,176,155493,1,0
296,128,155608,1,8
256,136,155724,1,0
264,176,155839,1,0
184,168,155955,1,8
160,200,156070,1,8
192,224,156185,1,8
224,248,156301,1,0
264,248,156416,1,8
304,248,156531,1,0
376,232,156762,1,8
408,216,156877,1,8
440,192,156993,1,0
400,128,157224,1,8
416,200,157454,1,0
400,240,157570,1,0
376,272,157685,1,8
304,256,157916,1,0
320,184,158147,1,8
304,112,158377,1,8
272,136,158493,1,8
304,160,158608,1,0
208,176,158724,1,8
176,200,158839,1,8
144,224,158954,1,8
184,224,159070,1,0
80,264,159185,1,8
120,272,159300,1,8
200,264,159531,1,8
280,256,159762,1,0
320,248,159877,1,0
360,240,159993,1,0
400,232,160108,1,0
408,272,160224,1,0
400,192,160454,1,0
296,136,160685,1,0
376,128,160916,1,8
408,272,161147,1,0
400,192,161377,1,0
296,136,161608,1,0
376,128,161839,1,8
304,144,162070,1,0
248,288,162531,1,4
