osu file format v9

[General]
AudioFilename: 112-jakarta-bebe_tecktonik.mp3
AudioLeadIn: 2000
PreviewTime: 45762
Countdown: 0
SampleSet: Soft
StackLeniency: 0.7
Mode: 0
LetterboxInBreaks: 1

[Editor]
Bookmarks: 6993,166608
DistanceSpacing: 1.2
BeatDivisor: 4
GridSize: 8

[Metadata]
Title:One Desire
Artist:Jakarta
Creator:lordfoster
Version:Break Dance
Source:
Tags:Art-FzTT bebe tecktonik Verdisphena eldnl

[Difficulty]
HPDrainRate:7
CircleSize:4
OverallDifficulty:8
ApproachRate:8
SliderMultiplier:2
SliderTickRate:1

[Events]
//Background and Video events
Video,120,"Jakarta - One Desire.wmv"
0,0,"img-wallpapers-tecktonik-aitcom-10233.jpg"
//Break Periods
//Storyboard Layer 0 (Background)
//Storyboard Layer 1 (Fail)
//Storyboard Layer 2 (Pass)
//Storyboard Layer 3 (Foreground)
//Storyboard Sound Samples
//Background Colour Transformations
3,100,163,162,255

[TimingPoints]
1455,461.538461538462,4,2,0,100,1,0
3301,-200,4,2,0,100,0,0
3762,-100,4,2,0,100,0,0
10685,-200,4,2,0,100,0,0
11608,-100,4,2,0,100,0,0
16224,-100,4,1,0,100,0,0
29147,-100,4,2,0,100,0,0
30993,-100,4,1,0,100,0,0
45762,-100,4,1,0,100,0,1
60531,-200,4,2,0,100,0,0
73916,-100,4,2,0,100,0,0
75301,-100,4,1,0,100,0,0
88224,-100,4,2,0,100,0,0
90070,-100,4,1,0,100,0,0
104839,-133.333333333333,4,2,0,100,0,0
105531,-133.333333333333,4,2,0,60,0,0
105878,-133.333333333333,4,2,0,30,0,0
106224,-133.333333333333,4,2,0,10,0,0
106685,-133.333333333333,4,2,0,100,0,0
107378,-133.333333333333,4,2,0,60,0,0
107724,-133.333333333333,4,2,0,30,0,0
108070,-133.333333333333,4,2,0,10,0,0
108531,-133.333333333333,4,2,0,100,0,0
109224,-133.333333333333,4,2,0,60,0,0
109570,-133.333333333333,4,2,0,30,0,0
109916,-133.333333333333,4,2,0,10,0,0
110378,-133.333333333333,4,2,0,100,0,0
111070,-133.333333333333,4,2,0,60,0,0
111416,-133.333333333333,4,2,0,30,0,0
111647,-133.333333333333,4,2,0,100,0,0
112916,-133.333333333333,4,2,0,60,0,0
113262,-133.333333333333,4,2,0,30,0,0
113608,-133.333333333333,4,2,0,10,0,0
114070,-133.333333333333,4,2,0,100,0,0
114762,-133.333333333333,4,2,0,60,0,0
115108,-133.333333333333,4,2,0,30,0,0
115455,-133.333333333333,4,2,0,10,0,0
115916,-133.333333333333,4,2,0,100,0,0
118224,-100,4,2,0,100,0,0
119608,-100,4,1,0,100,0,0
134378,-80,4,1,0,100,0,1
148224,-80,4,2,0,100,0,1
149031,-80,4,2,0,100,0,0
149147,-66.6666666666667,4,1,0,100,0,1
160224,-100,4,2,0,100,0,0

[HitObjects]
256,192,531,12,0,1455
128,152,1916,6,0,B|96:120|96:120|96:56,1,100
216,72,2378,2,0,B|264:120|264:120|264:192|264:192|216:240,1,200
104,232,3070,1,0
216,280,3301,2,0,B|216:344|152:344,1,100
384,280,4224,1,0
160,192,4685,6,0,B|208:216|256:192,1,100
208,80,5147,2,0,B|304:32|400:80,1,200
304,152,5839,1,0
424,152,6070,2,0,B|424:216|424:216|376:264|376:264|376:336,1,200
88,232,6993,2,0,B|88:168|88:168|136:120|136:120|136:48,1,200
296,360,7916,6,0,B|376:360|416:320|416:232,1,200
256,192,8608,1,0
216,24,8839,2,0,B|136:24|96:64|96:152,1,200
96,272,9531,1,0
216,272,9762,2,0,B|216:328|176:368,1,100
336,272,10224,2,0,B|336:216|296:176,1,100
456,272,10685,2,0,B|456:328|416:368,2,100
336,280,11839,5,0
320,256,11955,1,0
304,232,12070,1,0
288,208,12185,1,0
288,208,12301,1,0
112,192,12531,6,0,B|112:136|112:136|144:104,1,100
256,56,12993,1,0
376,72,13224,1,0
448,168,13455,2,0,B|448:216|448:216|400:216|400:216|400:320,1,200
280,320,14147,2,0,B|280:216,1,100
136,320,14608,2,0,B|136:216,1,100
376,192,15301,5,0
416,144,15416,1,0
392,88,15531,1,0
328,88,15647,1,0
296,40,15762,1,0
240,48,15878,1,0
216,104,15993,1,0
256,216,16224,5,12
176,304,16455,1,0
136,352,16570,1,0
176,304,16685,1,0
80,232,16916,2,0,B|48:192|48:136,1,100
200,40,17378,2,0,B|232:80|232:136,2,100,0|8|0
320,48,18070,5,0
432,80,18301,1,0
432,80,18416,2,0,B|432:128,1,50
424,248,18762,1,0
280,352,18993,1,0
160,216,19224,1,0
304,112,19455,1,8
80,64,19916,5,0
200,64,20147,1,0
192,120,20262,1,0
152,160,20378,1,0
32,160,20608,2,0,B|32:208|32:208|72:240,1,100
256,232,21070,2,0,B|304:232|304:232|336:192,2,100,0|8|0
256,352,21762,5,0
376,336,21993,2,0,B|416:304,1,50
448,256,22224,2,0,B|448:208,1,50
448,144,22455,1,0
288,56,22685,1,0
112,104,22916,1,0
104,288,23147,1,8
336,344,23608,5,0
424,264,23839,2,0,B|440:216,1,50
424,160,24070,1,0
360,56,24301,2,0,B|296:56|296:120,1,100
256,296,24762,1,0
215,116,24993,2,0,B|216:56|152:56,1,100,8|0
120,176,25455,5,0
88,288,25685,2,0,B|48:328,2,50
200,344,26147,1,0
368,272,26378,1,0
312,104,26608,1,0
144,176,26839,1,8
144,176,27301,5,0
24,200,27531,1,0
40,144,27647,1,0
96,120,27762,1,0
104,64,27878,1,0
160,48,27993,1,0
280,48,28224,1,0
384,192,28455,1,0
160,192,29147,5,0
160,192,29262,1,0
304,296,29493,1,0
304,296,29608,1,0
304,296,29724,1,0
304,296,29839,1,0
304,296,29955,1,0
248,192,30185,1,0
304,88,30416,1,0
304,88,30531,1,0
304,88,30647,1,0
304,88,30762,1,0
304,88,30878,1,0
304,88,30993,5,4
408,152,31224,1,0
456,192,31339,1,0
408,152,31455,1,0
304,216,31685,2,0,B|304:272|336:312,1,100
208,168,32147,2,0,B|208:112|176:72,2,100,0|8|0
208,288,32839,5,0
88,288,33070,2,0,B|88:240,1,50
128,192,33301,1,0
128,72,33531,1,0
256,24,33762,1,0
392,112,33993,1,0
400,296,34224,1,8
256,104,34685,5,0
216,216,34916,1,0
256,264,35031,1,0
296,216,35147,1,0
400,264,35378,2,0,B|328:336,1,100
112,120,35839,2,0,B|184:48,2,100,0|8|0
104,240,36531,5,0
184,328,36762,1,0
240,312,36878,2,0,B|280:272,1,50,0|0
280,216,37108,2,0,B|280:168,1,50
280,48,37455,1,0
168,88,37685,1,0
392,88,37916,1,8
400,328,38378,5,0
280,328,38608,1,0
224,296,38724,1,0
200,240,38839,1,0
88,192,39070,2,0,B|88:144|88:144|128:104,1,100
288,192,39531,1,0
447,107,39762,2,0,B|483:143|483:143|483:191,1,100,8|0
392,256,40224,6,0,B|392:312|392:312|360:344|360:344|312:344,2,150
272,256,41147,2,0,B|240:256|240:256|216:280|216:280|216:320,2,100,0|0|8
256,192,42070,12,0,43685
256,192,43916,5,0
256,192,44147,12,0,45301
384,72,45531,6,0,B|432:72,3,50,0|0|4|0
440,192,46108,2,0,B|384:192|384:192|352:224|352:224|352:272,1,150
352,272,46570,1,0
352,272,46685,1,0
464,312,46916,1,0
464,312,47147,1,8
224,312,47608,6,0,B|152:312|152:312|96:256,2,150
344,312,48531,2,0,B|344:256|344:256|312:224,1,100
192,224,48993,2,0,B|160:224|160:224|112:176,1,100,8|0
192,88,49455,5,0
240,56,49570,1,0
360,56,49801,2,0,B|408:56|408:56|440:88|440:88|440:144,1,150
400,184,50262,1,0
344,192,50378,1,0
224,192,50608,1,0
224,192,50839,1,8
40,344,51301,6,0,B|40:192,2,150
160,344,52224,2,0,B|160:240,1,100
352,40,52685,2,0,B|352:144,1,100,8|0
416,248,53147,5,0
376,296,53262,1,0
312,296,53378,1,0
272,248,53493,1,0
96,192,53839,1,0
128,136,53955,1,0
184,112,54070,1,0
240,136,54185,1,0
272,192,54301,1,0
176,264,54531,1,8
104,32,54993,6,0,B|176:-8|248:32,2,150
200,104,55916,2,0,B|248:128|296:104,1,100
200,280,56378,2,0,B|248:256|296:280,1,100,8|0
416,288,56839,6,0,B|464:192|416:96,1,200
96,288,57531,2,0,B|48:192|96:96,1,200
96,95,58224,1,8
160,192,58455,1,0
160,192,58685,2,0,B|360:192,1,200
256,192,59378,12,0,60531
256,64,61224,5,0
192,64,61455,2,0,B|152:64|152:64|128:88|128:88|128:120,1,100
176,152,62147,1,0
128,192,62378,2,0,B|128:224|128:224|152:248|152:248|192:248|192:248|224:280,1,150
200,336,63301,6,0,B|248:336|248:336|280:296,1,100
344,192,64224,2,0,B|392:144|392:144|456:144|456:144|504:192,1,200
472,240,65378,5,0
424,272,65608,1,0
376,240,65839,1,0
424,208,66070,1,0
424,208,66531,2,0,B|424:88,2,100
368,192,67685,5,0
312,176,67916,2,0,B|312:64,2,100
192,176,69301,6,0,B|192:280,2,100
72,176,70685,6,0,B|72:72,1,100
256,192,71608,12,0,72531
256,192,73224,5,0
256,192,73455,1,0
256,192,73916,1,0
56,56,74378,5,0
112,72,74493,1,0
136,128,74608,1,0
88,168,74724,1,0
120,224,74839,1,0
72,264,74955,1,0
88,320,75070,1,0
208,296,75301,5,0
328,288,75531,2,0,B|368:256,1,50
392,200,75762,1,0
392,136,75878,2,0,B|392:88,1,50
280,40,76224,1,0
200,200,76455,1,0
112,40,76685,1,8
112,40,77147,5,0
256,152,77493,1,0
400,40,77839,1,0
424,160,78070,2,0,B|504:240,1,100
256,192,78531,2,0,B|328:264,1,100,8|0
256,360,78993,5,0
144,320,79224,2,0,B|120:304|120:280,1,50
144,224,79455,1,0
32,192,79685,1,0
144,56,79916,1,0
256,192,80147,1,0
144,328,80378,1,8
384,304,80839,6,0,B|472:304|472:304|472:240,2,150
264,304,81762,2,0,B|264:264|264:264|288:240|288:240|320:240,1,100
152,168,82224,2,0,B|178:168|178:168|202:144|202:144|202:104,1,100,8|0
80,112,82685,6,0,B|91:55|147:44,1,100
146,45,83032,1,0
146,45,83147,1,0
256,96,83378,1,0
408,192,83608,1,0
256,96,83839,1,0
104,192,84070,1,8
256,192,84531,12,8,85916
312,56,86378,5,0
192,192,86724,1,0
312,328,87071,1,0
392,240,87301,2,0,B|392:192|352:152,1,100
160,151,87763,2,0,B|120:192|120:240,1,100,8|0
208,320,88224,5,0
256,352,88339,1,0
304,320,88455,1,0
376,224,88685,1,0
352,168,88801,1,0
312,128,88916,1,0
256,120,89031,1,0
200,128,89147,1,0
160,168,89262,1,0
136,224,89378,1,0
256,232,89608,2,0,B|256:280,4,50,0|0|0|0|4
184,64,90416,6,0,B|256:24|328:64,1,150
208,96,90993,2,0,B|256:64|304:96,1,100
304,288,91455,2,0,B|256:320|208:288,1,100,8|0
144,192,91916,5,0
264,216,92147,1,0
264,216,92262,2,0,B|288:192|264:168,1,50
192,264,92608,1,0
16,232,92839,1,0
192,184,93070,1,0
16,152,93301,1,8
256,120,93762,5,0
256,120,94108,1,0
256,120,94455,1,0
376,120,94685,2,0,B|416:160|416:160|464:160,1,100
456,280,95147,2,0,B|412:280|412:280|372:320,1,100,8|0
256,352,95608,5,0
152,296,95839,1,0
96,312,95955,1,0
56,264,96070,1,0
88,216,96185,1,0
56,160,96301,1,0
136,72,96531,2,0,B|192:160,1,100
189,156,96993,1,8
360,320,97455,5,0
480,192,97801,1,0
360,64,98147,1,0
240,88,98378,2,0,B|152:136,1,100
272,296,98839,2,0,B|360:248,1,100,8|0
256,192,99301,5,0
144,144,99531,2,0,B|144:96,2,50
32,192,99993,1,0
48,312,100224,1,0
224,288,100455,1,0
400,312,100685,1,8
256,192,101147,12,0,102762
256,96,102993,5,0
256,336,103455,1,0
256,192,103685,12,2,104839
256,192,105070,5,2
216,112,105301,1,2
128,104,105531,1,0
128,104,105647,1,0
56,160,105878,1,0
56,160,105993,1,0
56,248,106224,1,0
232,248,106685,5,2
288,320,106916,1,2
376,304,107147,2,0,B|416:280|416:240,1,74.9999977648259,2|0
415,244,107493,2,0,B|415:208|375:184,1,74.9999977648259
375,184,107839,2,0,B|328:184|328:136,1,74.9999977648259
168,64,108531,5,2
248,96,108762,1,2
168,144,108993,1,2
248,176,109224,1,0
248,176,109339,1,0
168,216,109570,1,0
168,216,109685,1,0
240,264,109916,1,0
384,160,110378,5,2
344,80,110608,1,0
256,48,110839,2,0,B|200:104,1,74.9999977648259,2|0
202,101,111185,2,0,B|146:45,1,74.9999977648259
80,112,111647,2,0,B|48:144,3,37.4999988824129,2|0|2|0
144,152,112224,5,2
136,240,112455,1,2
200,304,112685,1,2
264,240,112916,1,0
264,240,113031,1,0
264,152,113262,1,0
264,152,113378,1,0
200,216,113608,1,0
256,48,114070,5,2
344,72,114301,1,2
400,144,114531,2,0,B|440:176|400:208,1,74.9999977648259,2|0
360,192,114878,2,0,B|320:224|360:256,1,74.9999977648259
400,240,115224,2,0,B|440:272|400:304,1,74.9999977648259
256,200,115916,5,2
216,280,116147,1,2
128,280,116378,1,2
88,200,116608,1,2
128,120,116839,2,2,B|172:7|216:120,1,149.999995529652
176,200,117531,1,2
256,240,117762,1,2
336,200,117993,1,2
256,160,118224,1,2
472,48,118685,6,0,B|424:48,1,50
368,64,118916,2,0,B|328:104,1,50
272,104,119147,2,0,B|224:104,1,50
176,64,119378,1,0
64,104,119608,5,0
168,160,119839,2,0,B|168:208,2,50
256,248,120301,2,0,B|296:216|296:160,1,100
400,312,120762,2,0,B|440:280|440:224,1,100,0|8
320,16,121455,6,0,B|248:56|176:16,2,150
400,112,122378,2,0,B|296:112,1,100
112,272,122839,2,0,B|216:272,1,100,8|0
336,272,123301,5,0
456,272,123531,2,0,B|504:272,2,50
336,144,123993,1,0
336,144,124224,1,0
176,240,124455,1,0
176,240,124686,1,8
40,40,125147,6,0,B|40:96|96:96|96:96|96:160,2,150
160,40,126070,1,0
256,192,126301,1,0
344,40,126531,1,8
256,192,126762,1,0
256,312,126993,5,0
256,192,127224,2,0,B|256:136,2,50
376,312,127685,2,0,B|376:264|336:224,1,100
176,223,128147,2,0,B|136:264|136:312,1,100,0|8
256,104,128839,6,0,B|256:264,2,150
136,104,129762,1,0
376,104,129993,1,0
256,104,130224,1,8
256,104,130685,5,0
256,192,130916,12,0,133916
256,72,134378,5,0
184,72,134493,1,0
56,152,134724,2,0,B|56:216|128:216|128:216|128:296,1,187.499997206032
128,294,135185,1,0
128,294,135301,1,0
256,216,135531,1,0
384,296,135762,1,8
256,24,136224,6,0,B|336:24|336:80|336:80|416:80,2,187.499997206032
176,152,137147,2,0,B|96:192|176:240,1,124.999998137355
400,248,137608,2,0,B|480:288|400:336,1,124.999998137355,8|0
256,288,138070,5,0
200,240,138185,1,0
96,352,138416,2,0,B|24:352|24:352|24:232,1,187.499997206032
24,236,138878,1,0
24,236,138993,1,0
96,104,139224,1,0
232,48,139455,1,8
496,192,139916,6,0,B|464:192|432:224|432:224|392:224|392:224|360:192|328:192,2,187.499997206032
416,64,140839,2,0,B|288:80,1,124.999998137355
104,208,141301,2,0,B|232:192,1,124.999998137355,8|0
376,192,141762,5,0
440,152,141878,1,0
440,80,141993,1,0
376,40,142108,1,0
152,72,142455,1,0
96,120,142570,1,0
64,192,142685,1,0
96,264,142801,1,0
152,312,142916,1,0
256,192,143147,1,8
456,280,143608,6,0,B|512:192|456:104,2,187.499997206032
408,136,144531,1,0
296,336,144762,1,0
208,48,144993,1,8
88,320,145455,6,0,B|88:64,1,249.99999627471
424,64,146378,2,0,B|424:320,1,249.99999627471,0|8
336,192,147070,1,0
176,192,147301,1,0
256,32,147762,2,0,B|256:280,1,249.99999627471
256,282,148339,1,0
256,282,148455,1,0
120,336,148685,5,0
136,264,148801,1,0
184,208,148916,1,0
256,184,149031,1,0
328,208,149147,1,0
376,264,149262,1,0
392,336,149378,1,0
392,336,149493,1,0
256,104,149839,5,0
256,104,149955,1,0
256,104,150070,2,0,B|104:104,1,149.999995529652
256,328,150531,2,0,B|408:328,1,149.999995529652,8|0
432,184,150993,6,0,B|432:88|432:88|368:24|368:24|256:24,2,299.999991059304
72,192,152378,1,8
192,56,152608,1,0
312,192,152839,6,0,B|432:192|432:272|432:272|368:272|368:272|368:344,1,299.999991059304
192,304,153531,1,0
48,192,153762,2,0,B|48:104|104:48|104:48|248:48,2,299.999991059304,0|8|0
376,48,155147,6,0,B|376:136|320:192|320:192|176:192,2,299.999991059304,0|0|8
480,192,156301,1,0
384,344,156531,6,0,B|88:344,1,224.999993294478
160,256,156993,2,0,B|384:256,1,224.999993294478
392,168,157455,2,0,B|160:168,1,224.999993294478,0|0
168,80,157916,2,0,B|280:264|392:80,2,299.999991059304,8|0|0
256,192,159070,12,0,160224
160,184,161147,2,0,B|257:135|353:183,1,200,0|0
352,182,161839,1,0
159,311,162070,2,0,B|256:360|352:312,1,200,4|0
