osu file format v12

[General]
AudioFilename: harmless minor.mp3
AudioLeadIn: 0
PreviewTime: 16430
Countdown: 1
SampleSet: Normal
StackLeniency: 0.7
Mode: 0
LetterboxInBreaks: 1

[Editor]
Bookmarks: 16430,32840,41045,57455,73866,82071,92327,108737,124122,125148,141558,157968,174378,190789,207199,218225
DistanceSpacing: 1
BeatDivisor: 4
GridSize: 4

[Metadata]
Title:Harmless Minor
TitleUnicode:Harmless Minor
Artist:Jacob Morris & David Gray
ArtistUnicode:Jacob Morris & David Gray
Creator:D33d
Version:Hard
Source:
Tags:boilerplate funk electro deed showtime
BeatmapID:257791
BeatmapSetID:95679

[Difficulty]
HPDrainRate:6
CircleSize:3
OverallDifficulty:7
ApproachRate:7
SliderMultiplier:2.32000000596046
SliderTickRate:2

[Events]
//Background and Video events
0,0,"bg.jpg",0,0
//Break Periods
2,33040,40145
2,74066,81171
2,141759,157068
//Storyboard Layer 0 (Background)
//Storyboard Layer 1 (Fail)
//Storyboard Layer 2 (Pass)
//Storyboard Layer 3 (Foreground)
//Storyboard Sound Samples
//Background Colour Transformations
3,100,163,162,255

[TimingPoints]
20,512.820512820513,4,1,1,75,1,0
31302,-94.3396226415094,4,1,1,75,0,0
31686,-100,4,1,1,75,0,0
43096,-94.3396226415094,4,1,1,75,0,0
43866,-100,4,1,1,75,0,0
45148,-94.3396226415094,4,1,1,75,0,0
45917,-100,4,1,1,75,0,0
51302,-94.3396226415094,4,1,1,75,0,0
52071,-100,4,1,1,75,0,0
54891,-98.0392156862745,4,1,1,75,0,0
55148,-100,4,1,1,75,0,0
59122,-101.010101010101,4,1,1,75,0,0
59378,-100,4,1,1,75,0,0
67199,-101.010101010101,4,1,1,75,0,0
67584,-100,4,1,1,75,0,0
73866,-100,4,1,2,75,0,0
82071,-101.010101010101,4,1,1,75,0,0
92327,-100,4,1,1,75,0,1
97199,-102.040816326531,4,1,1,75,0,1
97712,-100,4,1,1,75,0,1
99250,-101.010101010101,4,1,1,75,0,1
99763,-100,4,1,1,75,0,1
119891,-100,4,1,1,75,0,1
125148,-100,4,1,1,75,0,0
126814,-101.010101010101,4,1,1,75,0,0
127071,-100,4,1,1,75,0,0
135020,-101.010101010101,4,1,1,75,0,0
135276,-100,4,1,1,75,0,0
141558,-100,4,1,2,60,0,0
157968,-133.333333333333,4,2,2,55,0,0
157997,-133.333333333333,4,2,0,40,0,0
159507,-133.333333333333,4,3,2,55,0,0
160020,-133.333333333333,4,2,3,55,0,0
160052,-133.333333333333,4,2,0,40,0,0
161045,-133.333333333333,4,2,5,55,0,0
162071,-133.333333333333,4,2,4,65,0,0
162103,-133.333333333333,4,2,0,40,0,0
162840,-133.333333333333,4,2,0,55,0,0
162872,-133.333333333333,4,2,4,55,0,0
163609,-133.333333333333,4,2,4,65,0,0
163641,-133.333333333333,4,2,4,60,0,0
164122,-133.333333333333,4,2,5,70,0,0
164154,-133.333333333333,4,2,0,40,0,0
164891,-133.333333333333,4,2,0,60,0,0
165661,-133.333333333333,4,2,5,70,0,0
166173,-133.333333333333,4,2,3,75,0,0
166205,-133.333333333333,4,2,0,40,0,0
166943,-133.333333333333,4,2,0,65,0,0
166975,-133.333333333333,4,2,0,40,0,0
167712,-133.333333333333,4,2,3,75,0,0
168225,-133.333333333333,4,2,4,85,0,0
168257,-133.333333333333,4,2,0,75,0,0
169763,-133.333333333333,4,2,0,60,0,0
174378,-133.333333333333,4,1,0,75,0,0
174763,-100,4,1,1,75,0,0
190789,-100,4,1,1,75,0,1
205661,-94.3396226415094,4,1,1,75,0,1
206045,-100,4,1,1,75,0,1
207199,-100,4,1,2,90,0,1
207584,-100,4,1,1,75,0,1
209250,-95.2380952380952,4,1,1,75,0,1
210020,-100,4,1,1,75,0,1
213866,-94.3396226415094,4,1,1,75,0,1
214250,-100,4,1,1,75,0,1
217455,-95.2380952380952,4,1,1,75,0,1
219507,-100,4,1,1,80,0,1
223481,-100,4,1,1,80,0,0
223609,-100,4,1,3,75,0,1
223737,-100,4,1,1,80,0,0

[Colours]
Combo1 : 250,215,0
Combo2 : 237,0,140
Combo3 : 0,192,245
Combo4 : 255,102,0

[HitObjects]
128,4,16430,6,0,P|52:32|16:112,1,174.000000447034,4|8,1:0|3:0,3:0:0:0:
16,192,16943,2,0,P|36:275|96:336,2,174.000000447034,8|2|4,1:0|1:2|3:0,3:0:0:0:
96,112,17968,1,8,0:0:0:0:
176,192,18225,1,0,0:0:0:0:
256,272,18481,5,4,1:3:0:0:
496,192,18994,2,0,P|476:275|416:336,2,174.000000447034,8|2|4,1:0|1:2|3:0,3:0:0:0:
416,112,20019,1,8,0:0:0:0:
336,192,20276,1,10,3:0:0:0:
256,272,20532,6,0,P|227:166|120:136,1,232.000000596046,8|8,3:0|0:0,3:0:0:0:
40,216,21302,2,8,P|69:322|176:352,1,232.000000596046,4|2,1:3|1:3,3:0:0:0:
148,244,22071,1,8,0:0:0:0:
256,272,22327,1,2,3:2:0:0:
364,300,22584,5,4,3:0:0:0:
332,192,22840,1,2,3:0:0:0:
300,84,23096,1,8,0:0:0:0:
224,164,23353,1,2,3:0:0:0:
224,164,23481,1,4,3:0:0:0:
116,136,23737,1,4,3:0:0:0:
116,136,23866,1,10,3:0:0:0:
196,56,24122,1,8,0:0:0:0:
392,136,24635,6,0,P|285:166|256:272,1,232.000000596046,4|8,1:2|1:0,3:0:0:0:
336,352,25405,2,0,P|443:322|472:216,1,232.000000596046,8|8,1:3|3:0,0:0:0:0:
364,244,26174,1,8,0:0:0:0:
392,136,26430,1,2,3:0:0:0:
256,112,26686,6,0,P|227:218|120:248,1,232.000000596046,4|8,1:0|1:0,3:0:0:0:
40,168,27456,2,0,P|60:72|164:28,1,174.000000447034,4|2,3:3|1:3,0:0:0:0:
196,40,27968,1,4,3:0:0:0:
256,140,28226,1,8,0:0:0:0:
360,188,28482,1,2,3:0:0:0:
364,84,28737,5,4,0:2:0:0:
452,236,29122,1,8,0:3:0:0:
276,236,29507,1,4,0:3:0:0:
276,236,29635,1,8,3:0:0:0:
256,352,29891,1,0,0:0:0:0:
256,352,30020,1,4,3:0:0:0:
140,332,30276,1,8,0:0:0:0:
160,216,30532,1,2,3:0:0:0:
24,312,30789,5,4,3:0:0:0:
24,312,30917,1,8,3:0:0:0:
24,312,31045,1,2,1:3:0:0:
44,196,31302,2,0,P|94:120|180:100,1,184.44000075529,12|4,1:0|1:3,3:0:0:0:
256,128,31814,1,8,1:3:0:0:
392,80,32071,1,8,0:2:0:0:
324,208,32327,1,8,0:0:0:0:
256,336,32584,1,8,0:0:0:0:
256,336,32712,1,8,1:0:0:0:
256,336,32840,1,4,1:0:0:0:
40,192,41045,5,4,1:3:0:0:
40,192,41173,2,0,P|80:104|148:80,2,174.000000447034,4|8|8,3:0|0:0|1:3,3:0:0:0:
96,296,42199,1,0,3:0:0:0:
96,296,42327,1,4,3:0:0:0:
152,192,42584,1,8,0:0:0:0:
256,248,42840,1,2,3:0:0:0:
360,304,43096,6,0,P|312:352|200:352,2,184.44000075529,4|2|2,3:0|1:2|0:3,0:0:0:0:
416,200,44122,1,8,3:0:0:0:
360,96,44378,1,0,0:0:0:0:
256,40,44635,1,12,0:0:0:0:
152,304,45148,6,0,P|200:352|312:352,1,184.44000075529,4|8,1:3|1:3,0:0:0:0:
256,248,45789,1,4,3:0:0:0:
256,248,45917,1,0,1:0:0:0:
256,248,46045,1,10,3:0:0:0:
48,248,46430,1,4,3:0:0:0:
48,136,46686,1,8,0:0:0:0:
152,192,46943,1,2,3:0:0:0:
152,80,47199,6,0,P|88:24|0:28,2,174.000000447034,4|2|8,3:0|1:2|1:3,0:0:0:0:
256,136,48225,1,4,0:2:0:0:
312,240,48481,1,10,1:3:0:0:
208,296,48737,1,8,1:0:0:0:
472,192,49250,5,4,0:0:0:0:
472,192,49378,2,0,P|432:104|364:80,2,174.000000447034,0|8|8,0:0|0:0|1:3,3:0:0:0:
416,296,50404,1,8,3:0:0:0:
416,296,50532,1,4,3:0:0:0:
360,192,50789,1,8,0:0:0:0:
256,248,51045,1,2,3:0:0:0:
152,304,51301,6,0,P|200:352|312:352,2,174.000000447034,4|2|0,1:3|1:2|0:0,3:0:0:0:
120,192,52327,1,4,0:2:0:0:
88,368,52712,1,2,0:2:0:0:
216,240,53096,1,8,1:3:0:0:
296,160,53353,6,0,P|372:124|448:160,1,174.000000447034,4|2,1:0|1:3,3:0:0:0:
504,256,53994,1,8,1:3:0:0:
448,352,54250,1,4,3:0:0:0:
336,352,54507,1,2,1:2:0:0:
392,256,54763,1,0,0:0:0:0:
392,256,54891,2,0,P|336:240|280:256,1,118.320001026151,10|0,0:0|1:0,0:0:0:0:
176,304,55404,5,4,3:0:0:0:
96,192,55661,1,10,3:0:0:0:
96,304,55917,1,8,0:0:0:0:
176,192,56173,1,10,3:0:0:0:
180,196,56302,1,4,3:0:0:0:
256,80,56558,1,8,3:0:0:0:
256,80,56686,1,8,0:0:0:0:
336,192,56943,1,8,0:0:0:0:
256,304,57199,1,8,0:0:0:0:
256,304,57327,1,0,0:0:0:0:
256,304,57455,1,4,0:0:0:0:
496,24,57968,5,4,1:2:0:0:
352,112,58353,1,8,3:0:0:0:
496,200,58737,1,4,3:0:0:0:
448,112,58994,1,8,0:0:0:0:
448,112,59122,2,0,L|392:212,1,114.839999944579,0|4,0:0|3:0,0:0:0:0:
352,280,59507,5,4,0:0:0:0:
256,336,59763,1,0,0:0:0:0:
160,280,60020,1,8,0:0:0:0:
256,224,60276,1,8,1:3:0:0:
160,168,60532,2,0,P|228:116|312:128,2,174.000000447034,2|2|2,1:2|0:3|1:3,0:0:0:0:
56,224,61558,6,0,P|48:133|96:72,1,174.000000447034,4|0,1:3|0:0,0:0:0:0:
208,56,62199,1,2,1:3:0:0:
320,40,62455,1,2,1:2:0:0:
432,24,62712,2,0,P|424:87|392:128,1,116.000000298023,4|0,1:2|1:0,3:0:0:0:
332,180,63096,2,0,P|284:212|256:264,1,116.000000298023,8|2,0:0|3:0,0:0:0:0:
372,296,63609,6,0,P|328:361|240:384,1,174.000000447034,4|2,1:3|3:0,3:0:0:0:
168,348,64122,2,0,P|133:268|172:176,1,174.000000447034,8|10,1:0|3:0,3:0:0:0:
227,146,64635,2,0,P|309:154|372:220,1,174.000000447034,8|0,1:3|0:0,0:0:0:0:
372,296,65148,2,0,P|328:361|240:384,1,174.000000447034,8|2,1:0|3:0,3:0:0:0:
168,348,65661,1,4,1:3:0:0:
16,32,66173,5,4,1:2:0:0:
160,120,66558,1,8,3:0:0:0:
16,208,66942,1,4,3:0:0:0:
64,120,67199,1,8,0:0:0:0:
64,120,67327,2,0,L|120:220,1,114.839999944579,0|4,0:0|3:0,0:0:0:0:
160,288,67712,5,4,0:0:0:0:
256,344,67968,1,0,0:0:0:0:
352,288,68225,1,8,0:0:0:0:
256,232,68481,1,8,1:3:0:0:
352,176,68737,2,0,P|284:124|200:136,2,174.000000447034,2|2|2,1:2|0:3|1:3,0:0:0:0:
456,232,69763,6,0,P|464:141|416:80,1,174.000000447034,4|0,1:3|0:0,0:0:0:0:
304,64,70404,1,2,1:3:0:0:
192,48,70660,1,2,1:2:0:0:
80,32,70917,2,0,P|72:123|120:184,1,174.000000447034,4|8,1:2|1:0,3:0:0:0:
256,192,71814,12,6,73866,0:0:0:0:
480,192,82071,22,0,P|472:304|376:356,1,229.679999889158,6|8,0:0|0:0,0:0:0:0:
376,240,82840,1,4,3:0:0:0:
376,240,82968,1,8,3:0:0:0:
320,80,83353,1,10,0:0:0:0:
176,184,83737,1,10,0:0:0:0:
136,28,84122,6,0,P|41:79|33:191,1,229.679999889158,4|8,1:0|0:0,0:0:0:0:
136,144,84891,1,4,3:0:0:0:
136,144,85019,1,8,3:0:0:0:
168,312,85404,1,4,1:3:0:0:
272,168,85788,1,2,0:2:0:0:
376,28,86173,6,0,P|470:79|478:191,1,229.679999889158,6|8,1:0|0:0,0:0:0:0:
376,144,86943,1,4,3:0:0:0:
376,144,87071,1,8,3:0:0:0:
312,304,87455,1,10,0:0:0:0:
208,168,87840,1,10,0:0:0:0:
32,192,88225,6,0,P|40:304|136:356,1,229.679999889158,4|8,0:0|0:0,0:0:0:0:
136,240,88994,1,4,3:0:0:0:
136,240,89122,1,8,3:0:0:0:
136,32,89507,1,8,0:0:0:0:
376,32,89891,1,6,0:0:0:0:
256,192,90276,12,12,91814,3:0:0:0:
96,144,92327,6,0,P|148:166|200:144,1,116.000000298023,4|0,0:0|3:0,0:0:0:0:
232,72,92711,2,0,P|416:28|512:192,1,406.00000104308,4|4,1:2|3:0,3:0:0:0:
392,192,93866,1,8,0:0:0:0:
296,252,94122,1,2,3:0:0:0:
392,312,94378,5,8,1:3:0:0:
392,72,94891,2,0,P|340:50|288:72,1,116.000000298023,10|4,0:0|3:0,0:0:0:0:
240,136,95276,2,0,P|192:192|96:192,1,174.000000447034,2|4,1:3|3:0,3:0:0:0:
48,88,95917,1,8,0:0:0:0:
0,192,96173,1,2,3:0:0:0:
48,296,96430,5,4,0:0:0:0:
256,336,96814,1,8,0:3:0:0:
464,376,97199,2,4,P|364:320|360:216,1,227.359998502582,4|2,3:0|3:0,0:0:0:0:
408,112,97968,1,8,0:0:0:0:
512,160,98225,1,2,0:3:0:0:
464,264,98481,5,4,0:0:0:0:
256,296,98865,1,8,0:3:0:0:
48,328,99250,2,4,P|114:233|216:192,1,229.679999889158,4|2,3:0|3:0,0:0:0:0:
312,248,100020,2,0,P|364:270|416:248,1,116.000000298023,8|2,0:0|3:0,0:0:0:0:
416,144,100532,6,0,P|364:166|312:144,1,116.000000298023,4|0,0:0|3:0,0:0:0:0:
280,72,100916,2,0,P|96:28|0:192,1,406.00000104308,4|4,1:2|3:0,3:0:0:0:
0,304,102071,1,8,0:0:0:0:
96,360,102327,1,2,3:0:0:0:
96,240,102584,6,0,P|148:218|200:240,1,116.000000298023,4|0,0:0|3:0,0:0:0:0:
232,312,102968,2,0,P|416:356|512:192,1,406.00000104308,4|4,1:2|3:0,3:0:0:0:
480,80,104122,1,8,0:0:0:0:
368,56,104378,1,2,3:0:0:0:
256,32,104635,5,6,0:0:0:0:
80,192,105148,1,8,0:0:0:0:
432,192,105661,2,0,P|384:240|304:192,1,174.000000447034,4|10,1:0|3:0,3:0:0:0:
256,360,106430,6,0,P|136:324|72:244,1,232.000000596046,4|10,1:3|3:0,3:0:0:0:
72,128,107199,1,8,0:0:0:0:
152,208,107455,1,4,3:0:0:0:
152,208,107584,2,0,P|208:264|304:264,1,174.000000447034,4|8,1:2|1:0,3:0:0:0:
256,160,108225,1,8,0:0:0:0:
360,112,108481,5,8,0:0:0:0:
360,112,108609,1,8,0:0:0:0:
360,112,108737,1,4,0:0:0:0:
504,192,109122,1,8,1:3:0:0:
360,280,109507,2,0,P|256:208|256:112,1,232.000000596046,4|0,3:0|1:0,0:0:0:0:
200,8,110276,1,8,0:0:0:0:
96,64,110532,1,2,3:0:0:0:
152,168,110789,5,4,0:0:0:0:
8,248,111174,1,8,1:3:0:0:
152,336,111559,2,0,P|256:264|256:168,1,232.000000596046,4|0,3:0|1:0,0:0:0:0:
176,88,112327,2,0,P|220:16|304:24,1,174.000000447034,8|0,1:0|3:0,3:0:0:0:
256,88,112840,5,4,1:3:0:0:
368,304,113353,1,8,0:0:0:0:
368,192,113609,2,8,P|284:234|256:304,2,174.000000447034,2|0|8,1:2|0:0|1:0,3:0:0:0:
464,248,114635,1,2,1:3:0:0:
464,360,114891,6,0,P|408:372|352:360,1,116.000000298023,4|2,1:3|3:0,0:0:0:0:
256,304,115404,2,8,P|228:234|144:192,1,174.000000447034,8|8,1:0|3:0,3:0:0:0:
32,192,116045,1,8,3:0:0:0:
32,192,116173,1,4,3:0:0:0:
88,96,116430,1,14,0:0:0:0:
324,192,116943,6,0,P|394:238|460:192,1,174.000000447034,4|0,1:0|0:0,3:0:0:0:
460,308,117584,1,0,0:0:0:0:
460,308,117712,2,0,P|348:320|256:252,1,232.000000596046,4|4,3:3|3:3,0:0:0:0:
236,136,118481,1,8,0:0:0:0:
296,36,118737,1,2,3:0:0:0:
408,4,118994,1,4,1:3:0:0:
408,4,119122,1,0,1:0:0:0:
440,112,119378,2,0,P|510:193|440:272,1,232.000000596046,4|2,1:2|1:3,3:0:0:0:
120,104,120276,21,0,0:0:0:0:
208,36,120532,1,8,0:0:0:0:
276,124,120789,1,0,0:0:0:0:
188,192,121045,2,0,P|118:238|52:192,1,174.000000447034,4|2,1:0|1:3,3:0:0:0:
52,308,121686,1,0,0:0:0:0:
52,308,121814,2,0,P|164:320|256:252,1,232.000000596046,4|4,3:3|1:3,0:0:0:0:
276,136,122584,1,8,0:0:0:0:
216,36,122840,1,2,3:0:0:0:
104,0,123097,5,6,0:0:0:0:
408,96,123609,1,8,0:0:0:0:
104,192,124122,1,4,0:3:0:0:
408,288,124635,1,8,0:0:0:0:
256,336,124891,1,8,0:0:0:0:
256,336,125020,1,8,0:0:0:0:
256,336,125147,1,4,0:0:0:0:
16,24,125661,5,4,1:2:0:0:
160,112,126046,1,8,3:0:0:0:
16,200,126430,1,4,3:0:0:0:
64,112,126687,1,8,0:0:0:0:
64,112,126815,2,0,L|120:212,1,114.839999944579,0|4,0:0|3:0,0:0:0:0:
160,280,127200,5,4,0:0:0:0:
256,336,127456,1,0,0:0:0:0:
352,280,127713,1,8,0:0:0:0:
256,224,127969,1,8,1:3:0:0:
352,168,128225,2,0,P|284:116|200:128,2,174.000000447034,2|2|2,1:2|0:3|1:3,0:0:0:0:
456,224,129251,6,0,P|464:133|416:72,1,174.000000447034,4|0,1:3|0:0,0:0:0:0:
304,56,129892,1,2,1:3:0:0:
192,40,130148,1,2,1:2:0:0:
80,24,130405,2,0,P|88:87|120:128,1,116.000000298023,4|0,1:2|1:0,3:0:0:0:
180,180,130789,2,0,P|228:212|256:264,1,116.000000298023,8|2,0:0|3:0,0:0:0:0:
140,296,131302,6,0,P|184:361|272:384,1,174.000000447034,4|2,1:3|3:0,3:0:0:0:
344,348,131815,2,0,P|379:268|340:176,1,174.000000447034,8|10,1:0|3:0,3:0:0:0:
285,146,132328,2,0,P|203:154|140:220,1,174.000000447034
140,296,132841,2,0,P|184:361|272:384,1,174.000000447034,8|2,1:0|3:0,3:0:0:0:
344,348,133354,1,4,1:3:0:0:
496,24,133866,5,4,1:2:0:0:
352,112,134251,1,8,3:0:0:0:
496,200,134635,1,4,3:0:0:0:
448,112,134892,1,8,0:0:0:0:
448,112,135020,2,0,L|392:212,1,114.839999944579,0|4,0:0|3:0,0:0:0:0:
352,280,135405,5,4,0:0:0:0:
256,336,135661,1,0,0:0:0:0:
160,280,135918,1,8,0:0:0:0:
256,224,136174,1,8,1:3:0:0:
160,168,136430,2,0,P|228:116|312:128,2,174.000000447034,2|2|2,1:2|0:3|1:3,0:0:0:0:
56,224,137456,6,0,P|48:133|96:72,1,174.000000447034,4|0,1:3|0:0,0:0:0:0:
208,56,138097,1,2,1:3:0:0:
320,40,138353,1,2,1:2:0:0:
432,24,138610,2,0,P|440:115|392:176,1,174.000000447034,4|8,1:2|1:0,3:0:0:0:
256,192,139507,12,6,141559,0:0:0:0:
8,56,157968,38,0,B|72:4|136:24|144:128|208:128|224:-60|288:-60|304:128|368:128|376:24|440:4|504:56,1,522.000021253824,2|2,2:0|2:2,0:0:0:0:
408,192,160020,2,0,B|368:128|264:144|256:192|248:240|144:256|104:192,1,348.000014169216,2|2,2:0|2:2,0:1:0:0:
456,104,162071,6,0,P|336:60|216:104,2,261.000010626912,2|2|2,2:2|2:2|2:2,0:0:0:0:
376,216,164122,2,0,P|256:260|136:216,2,261.000010626912,2|2|2,2:2|2:2|2:2,0:0:0:0:
512,192,166173,6,0,P|424:88|308:96,2,261.000010626912,2|2|2,2:2|2:2|2:0,0:0:0:0:
504,328,168225,2,0,B|440:380|376:360|368:256|304:256|288:444|224:444|208:256|144:256|136:360|72:380|8:328,1,522.000021253824,2|2,3:2|2:0,0:0:0:0:
256,192,170276,12,4,174378,0:0:0:0:
160,16,174763,5,4,3:0:0:0:
200,128,175020,1,8,1:3:0:0:
200,128,175148,1,4,0:3:0:0:
104,192,175404,1,2,3:2:0:0:
8,128,175660,1,8,3:0:0:0:
48,16,175916,1,4,0:2:0:0:
48,16,176045,1,0,0:0:0:0:
352,16,176429,5,4,3:0:0:0:
352,16,176558,1,4,3:0:0:0:
312,128,176814,1,4,3:0:0:0:
408,192,177071,1,8,1:3:0:0:
408,192,177199,1,4,0:3:0:0:
504,128,177455,1,2,3:2:0:0:
464,16,177711,1,8,3:0:0:0:
352,16,177967,1,4,0:2:0:0:
352,16,178096,1,0,0:0:0:0:
352,232,178481,5,4,3:0:0:0:
352,232,178610,1,4,3:0:0:0:
312,344,178866,1,4,3:0:0:0:
200,344,179123,1,8,1:3:0:0:
200,344,179251,1,4,0:3:0:0:
160,232,179507,1,2,3:2:0:0:
256,168,179763,1,8,3:0:0:0:
352,232,180020,1,8,0:0:0:0:
352,232,180148,1,0,0:0:0:0:
352,232,180276,1,8,3:0:0:0:
256,264,180532,5,4,1:3:0:0:
136,304,180789,1,4,3:0:0:0:
136,304,180917,1,4,3:0:0:0:
16,264,181173,1,4,3:0:0:0:
16,264,181302,1,4,3:0:0:0:
16,136,181558,1,4,1:3:0:0:
136,176,181815,1,4,3:0:0:0:
136,176,181943,1,4,3:0:0:0:
256,136,182199,1,4,3:0:0:0:
256,136,182328,1,4,3:0:0:0:
164,48,182584,5,4,0:0:0:0:
352,16,182968,1,4,3:0:0:0:
312,128,183225,1,8,1:3:0:0:
312,128,183353,1,4,0:3:0:0:
408,192,183609,1,2,3:2:0:0:
504,128,183865,1,8,3:0:0:0:
464,16,184121,1,4,0:2:0:0:
464,16,184250,1,0,0:0:0:0:
160,16,184634,5,4,0:0:0:0:
160,16,184763,1,4,3:0:0:0:
200,128,185019,1,4,3:0:0:0:
104,192,185276,1,8,1:3:0:0:
104,192,185404,1,4,0:3:0:0:
8,128,185660,1,2,3:2:0:0:
48,16,185916,1,8,3:0:0:0:
160,16,186172,1,4,0:2:0:0:
160,16,186301,1,0,0:0:0:0:
160,232,186686,5,4,0:0:0:0:
160,232,186815,1,4,3:0:0:0:
200,344,187071,1,4,3:0:0:0:
312,344,187328,1,8,1:3:0:0:
312,344,187456,1,4,0:3:0:0:
352,232,187712,1,2,3:2:0:0:
256,168,187968,1,8,3:0:0:0:
160,232,188225,1,8,0:0:0:0:
160,232,188353,1,0,0:0:0:0:
160,232,188481,1,8,3:0:0:0:
256,264,188737,5,4,1:0:0:0:
376,304,188994,1,4,3:0:0:0:
376,304,189122,1,4,3:0:0:0:
496,264,189378,1,4,3:0:0:0:
496,264,189507,1,4,3:0:0:0:
496,136,189763,1,4,0:0:0:0:
376,176,190020,1,4,3:0:0:0:
376,176,190148,1,4,3:0:0:0:
256,136,190404,1,4,3:0:0:0:
256,136,190533,1,4,3:0:0:0:
376,0,190789,5,4,0:0:0:0:
376,0,190917,1,0,0:0:0:0:
496,192,191302,2,0,P|476:275|416:336,2,174.000000447034,8|2|4,1:0|1:2|3:0,3:0:0:0:
416,112,192327,1,8,0:0:0:0:
336,192,192584,1,0,0:0:0:0:
256,272,192840,5,4,1:3:0:0:
260,276,192968,1,0,0:0:0:0:
16,192,193353,2,0,P|36:275|96:336,2,174.000000447034,8|2|4,1:0|1:2|3:0,3:0:0:0:
96,112,194378,1,8,0:0:0:0:
176,192,194635,1,0,0:0:0:0:
256,272,194891,6,0,P|285:166|392:136,1,232.000000596046,8|8,3:0|0:0,3:0:0:0:
472,216,195661,2,0,P|443:322|336:352,1,232.000000596046,4|2,1:3|1:3,3:0:0:0:
364,244,196430,1,8,0:0:0:0:
256,272,196686,1,2,3:0:0:0:
148,300,196943,5,4,3:0:0:0:
180,192,197199,1,2,3:0:0:0:
212,84,197455,1,8,0:0:0:0:
288,164,197712,1,2,3:0:0:0:
288,164,197840,1,4,3:0:0:0:
396,136,198096,1,4,3:0:0:0:
396,136,198225,1,10,3:0:0:0:
316,56,198481,1,8,0:0:0:0:
120,136,198994,5,6,0:0:0:0:
120,136,199122,1,0,0:0:0:0:
256,272,199507,1,8,0:0:0:0:
176,352,199764,2,0,P|69:322|40:216,1,232.000000596046,4|8,1:0|3:0,0:0:0:0:
148,244,200533,1,8,0:0:0:0:
120,136,200789,1,2,3:0:0:0:
256,112,201045,5,4,0:0:0:0:
256,112,201173,1,0,1:3:0:0:
392,248,201558,1,8,0:0:0:0:
472,168,201814,2,0,P|452:72|348:28,1,174.000000447034,8|2,1:3|1:3,0:0:0:0:
316,40,202326,1,4,3:0:0:0:
256,140,202584,1,8,0:0:0:0:
152,188,202840,1,2,3:0:0:0:
148,84,203096,5,4,0:2:0:0:
60,236,203481,1,8,0:3:0:0:
236,236,203866,1,4,0:3:0:0:
236,236,203994,1,8,3:0:0:0:
256,352,204250,1,0,0:0:0:0:
256,352,204379,1,4,3:0:0:0:
372,332,204635,1,8,0:0:0:0:
352,216,204891,1,2,3:0:0:0:
488,312,205148,5,4,3:0:0:0:
488,312,205276,1,8,3:0:0:0:
488,312,205404,1,2,1:3:0:0:
468,196,205661,2,0,P|418:120|332:100,1,184.44000075529,12|0,1:0|3:0,3:0:0:0:
256,128,206173,1,4,1:3:0:0:
144,168,206430,1,8,0:0:0:0:
104,56,206686,1,8,0:0:0:0:
216,16,206943,5,8,0:0:0:0:
216,16,207071,1,8,0:0:0:0:
216,16,207199,1,6,0:0:0:0:
376,88,207584,1,2,1:3:0:0:
296,240,207968,1,4,3:3:0:0:
296,240,208096,1,0,0:0:0:0:
240,344,208353,1,8,3:0:0:0:
240,344,208481,2,0,P|352:344|412:252,1,232.000000596046,4|0,3:0|0:0,3:0:0:0:
412,136,209250,6,0,P|491:167|528:252,2,182.699994893825,4|2|4,0:0|0:2|1:3,0:0:0:0:
332,136,210148,1,8,3:0:0:0:
256,224,210404,2,0,P|136:256|48:136,1,290.000000745057,4|2,0:2|1:3,0:0:0:0:
76,20,211302,5,6,0:0:0:0:
76,20,211430,1,0,0:0:0:0:
196,44,211686,1,2,0:3:0:0:
316,68,211943,1,2,0:3:0:0:
436,92,212199,2,0,P|458:144|436:196,1,116.000000298023
364,232,212584,1,10,3:0:0:0:
256,192,212840,1,8,0:0:0:0:
152,256,213096,1,2,3:0:0:0:
48,320,213353,5,4,1:3:0:0:
48,320,213481,1,0,0:0:0:0:
48,320,213609,1,8,3:0:0:0:
44,196,213866,2,0,P|94:120|180:100,1,184.44000075529,12|0,1:0|3:0,3:0:0:0:
256,128,214378,1,4,1:3:0:0:
368,168,214635,1,8,0:0:0:0:
408,56,214891,1,8,0:0:0:0:
296,16,215148,5,8,0:0:0:0:
296,16,215276,1,8,0:0:0:0:
296,16,215404,1,4,0:0:0:0:
136,88,215789,1,8,0:3:0:0:
216,240,216173,1,4,3:3:0:0:
216,240,216301,1,0,0:0:0:0:
272,344,216558,1,8,3:0:0:0:
272,344,216686,2,0,P|160:344|100:252,1,232.000000596046,4|0,3:0|0:0,3:0:0:0:
100,136,217455,6,0,P|21:167|-16:252,2,182.699994893825,6|2|4,0:2|1:3|1:3,0:0:0:0:
184,136,218353,1,8,3:0:0:0:
256,232,218609,1,8,3:0:0:0:
256,232,218737,1,4,3:0:0:0:
328,328,218994,1,8,0:0:0:0:
256,192,219507,12,4,223609,0:0:0:0:
