osu file format v4

[General]
AudioFilename: 23_abc.mp3
AudioLeadIn: 0
AudioHash: a8ab8299a1833e79a4d15524df5b0d81
PreviewTime: -1
SampleSet: Normal
EditorBookmarks: 17957,44644,62422,95755,109088,124644,137422

[Metadata]
Title:ABC
Artist:Jackson Five
Creator:eyup
Version:Hard Rock!

[Difficulty]
HPDrainRate:6
CircleSize:6
OverallDifficulty:7
SliderMultiplier: 2
SliderTickRate: 4

[Events]
//Background and Video events
0,-1,"EBA_1_800.jpg"
//Break Periods
2,44427,60862
2,95399,107528
2,124289,136278
//Storyboard Layer 0 (Background)
//Storyboard Layer 1 (Failing)
//Storyboard Layer 2 (Passing)
//Storyboard Layer 3 (Foreground)
//Storyboard Sound Samples
//Background Colour Transformations

[TimingPoints]
2422,555.555555555556,4,1,0

[HitObjects]
216,32,17977,1,0
296,32,18255,1,0
256,88,18533,1,0
256,160,18810,1,0
256,160,18949,1,0
256,232,19227,1,4
384,360,19922,1,0
416,296,20199,2,0,B|416:296|450:247|478:193|454:140|432:80|359:51|280:40,1,350
248,88,21449,5,0
208,144,21727,1,0
168,200,22005,1,0
128,256,22283,1,4
232,256,22699,1,0
304,256,22977,1,0
360,168,23394,1,0
360,96,23672,1,0
272,40,24088,1,4
120,88,24644,6,0,B|120:88|86:137|58:191|82:244|104:304|175:337|264:328,1,350
312,328,25894,1,0
384,320,26172,1,0
448,296,26449,1,0
488,240,26727,2,0,B|488:240|328:240,1,150
272,240,27422,1,0
208,240,27699,1,4
32,128,28949,6,0,B|32:128|192:128,1,150
256,128,29644,1,0
328,128,29921,1,4
256,352,31172,5,4
224,216,31588,1,0
288,216,31866,1,0
200,104,32283,1,0
320,104,32699,1,0
256,352,33394,5,4
224,216,33810,1,0
288,216,34088,1,0
192,104,34505,1,0
256,104,34783,1,0
320,104,35060,1,4
448,160,35616,5,4
344,184,36033,1,0
280,200,36310,1,2
216,344,37283,2,0,B|216:344|172:336|120:311|80:256,1,150
64,160,37838,5,4
168,184,38255,1,0
232,200,38532,1,2
224,344,39227,1,0
296,344,39505,2,0,B|296:344|340:336|392:311|432:256,1,150
392,64,40060,5,4
288,88,40477,1,0
216,104,40755,1,2
112,136,41172,1,4
216,176,41588,1,0
288,200,41866,1,2
448,344,42283,5,4
328,312,42699,1,0
264,296,42977,1,0
200,280,43255,1,0
136,264,43533,2,0,B|136:264|153:216|183:183|226:164|272:160,1,150
240,96,44227,1,4
296,32,62422,5,0
216,32,62700,1,0
256,88,62978,1,0
256,160,63255,1,0
256,160,63394,1,0
256,232,63672,1,4
256,232,63810,1,4
160,336,64367,1,0
120,280,64644,2,0,B|120:280|86:231|58:177|82:124|104:64|177:35|256:24,1,350
264,88,65894,5,0
304,144,66172,1,0
344,200,66450,1,0
384,256,66728,1,4
280,256,67144,1,0
208,256,67422,1,0
176,160,67839,1,0
176,88,68117,1,0
264,40,68533,1,4
336,40,68810,1,0
392,88,69089,6,0,B|392:88|426:137|454:191|430:244|408:304|337:337|248:328,1,350
200,328,70339,1,0
128,320,70617,1,0
64,296,70894,1,0
24,240,71172,2,0,B|24:240|184:240,1,150
240,240,71867,1,0
304,240,72144,1,4
120,304,73533,5,4
176,264,73810,1,4
232,304,74088,1,4
288,264,74366,1,4
344,224,74644,5,4
288,184,74921,1,4
232,224,75199,1,4
176,184,75477,1,4
160,328,75755,6,4,B|160:328|187:351|245:368|304:360|337:342|352:328,1,200
344,256,76588,1,0
240,256,77005,1,0
136,256,77422,1,0
144,104,77838,6,4,B|144:104|172:68|208:67|275:61|321:65|353:80|374:99|384:120,1,250
160,208,78949,1,0
256,256,79366,1,0
256,256,79644,1,4
448,160,80060,5,4
344,184,80477,1,0
280,200,80754,1,2
216,344,81727,2,0,B|216:344|172:336|120:311|80:256,1,150
64,160,82282,5,4
168,184,82699,1,0
232,200,82976,1,2
224,344,83671,1,0
296,344,83949,2,0,B|296:344|340:336|392:311|432:256,1,150
392,64,84504,5,4
288,88,84921,1,0
216,104,85199,1,2
112,136,85616,1,4
216,176,86032,1,0
288,200,86310,1,2
448,344,86727,5,4
328,312,87143,1,0
264,296,87421,1,0
200,280,87699,1,0
136,264,87977,2,0,B|136:264|153:216|183:183|226:164|272:160,1,150
240,96,88671,1,4
296,136,88949,5,4
392,96,89366,1,0
448,48,89644,1,2
448,200,90060,1,4
352,240,90477,1,0
296,200,90755,1,2
64,344,91172,5,4
184,304,91589,1,0
248,280,91867,1,2
448,224,92283,1,4
344,192,92700,1,0
280,176,92978,1,2
88,48,93394,5,4
192,80,93810,1,0
256,104,94088,1,0
296,272,94644,1,0
216,272,94922,1,0
256,336,95199,1,4
192,48,109088,5,0
128,64,109366,1,0
88,120,109644,1,0
104,192,109922,1,0
104,192,110060,1,4
160,144,110338,1,0
320,48,111310,5,0
384,64,111588,1,0
424,120,111866,1,0
408,192,112144,1,0
408,192,112282,1,4
352,144,112560,1,0
256,64,113533,5,0
216,120,113810,1,0
296,120,114088,1,0
256,176,114366,1,0
256,176,114505,1,4
184,176,114783,1,0
424,184,115755,5,0
400,120,116033,1,0
344,80,116310,1,0
256,136,116727,1,4
256,208,117005,1,4
288,272,117283,1,0
224,272,117560,1,0
88,184,117977,5,0
112,120,118255,1,0
168,80,118532,1,0
256,136,118949,1,4
256,208,119227,1,4
224,272,119505,1,0
288,272,119782,1,0
360,200,120199,5,0
328,136,120477,1,0
272,88,120755,1,0
184,144,121172,1,4
160,208,121449,1,0
184,280,121727,1,4
328,280,122283,5,4
400,208,122700,1,0
416,144,122978,1,4
344,144,123255,1,0
344,144,123395,1,0
264,208,123811,1,0
216,160,124089,1,4
256,40,137838,5,4
256,144,138255,1,0
256,216,138533,1,0
256,320,138949,2,0,B|256:320|194:320|141:289|108:246|104:224,1,150
168,208,139644,1,0
168,208,139783,1,0
224,256,140060,6,0,B|224:256|280:249|329:220|352:168,1,150
304,128,140755,1,0
304,128,140894,1,0
248,168,141172,1,4
440,272,141866,5,0
440,272,142005,1,0
384,320,142283,1,4
280,296,142699,1,0
232,248,142977,2,0,B|232:248|204:251|144:243|104:207|88:168,1,150
256,344,144505,5,4
288,232,144922,1,0
224,232,145199,1,2
256,128,145616,1,4
224,32,146033,1,0
288,32,146310,1,4
360,88,146866,5,0
424,128,147144,1,0
360,160,147422,1,0
424,200,147699,1,0
360,320,148255,1,0
424,352,148533,1,4
120,80,149088,5,0
56,112,149366,1,0
120,152,149644,1,0
56,184,149922,1,0
120,224,150199,1,0
184,184,150477,1,0
208,120,150755,1,4
256,40,151172,5,4
256,144,151589,1,0
256,216,151867,1,0
256,320,152283,2,0,B|256:320|194:320|141:289|108:246|104:224,1,150
96,192,152977,1,0
24,192,153255,1,0
56,128,153533,5,4
128,128,153811,1,0
200,128,154089,1,0
256,176,154366,1,2
256,176,154505,1,4
368,240,155199,5,4
296,240,155477,1,0
328,176,155755,1,0
400,176,156032,1,0
472,176,156310,1,0
472,176,156449,1,0
440,240,156727,1,4
256,344,157838,5,4
288,232,158255,1,0
224,232,158532,1,2
256,128,158949,1,4
224,32,159366,1,0
288,32,159643,1,4
360,88,160199,5,0
424,128,160477,1,0
360,160,160755,1,0
424,200,161032,1,0
360,320,161588,1,0
424,352,161866,1,0
184,192,162699,5,4
328,192,163255,1,4
256,312,163810,1,2
256,240,164088,1,6
