osu file format v5

[General]
AudioFilename: Police Story Theme.mp3
AudioLeadIn: 0
PreviewTime: -1
Countdown: 1
SampleSet: Normal

[Metadata]
Title:Police Story Theme
Artist:Jackie Chan
Creator:Colek
Version:Normal

[Difficulty]
HPDrainRate:6
CircleSize:7
OverallDifficulty:6
SliderMultiplier:1.4
SliderTickRate:1

[Events]
//Background and Video events
0,0,"_1164787881.jpg"
//Break Periods
2,105475,118716
//Storyboard Layer 0 (Background)
//Storyboard Layer 1 (Failing)
//Storyboard Layer 2 (Passing)
//Storyboard Layer 3 (Foreground)
//Storyboard Sound Samples
//Background Colour Transformations
3,100,163,162,255

[TimingPoints]
2789,395.700059355009,4,1,0,100

[HitObjects]
256,192,2393,1,0
256,32,3580,1,0
256,320,3976,1,0
32,192,5163,1,0
480,192,5954,1,0
256,32,6746,1,0
256,224,7141,1,0
32,32,8724,5,0
480,32,9911,1,0
480,352,10307,1,0
32,352,11494,1,0
256,128,11890,5,0
256,32,13077,5,0
256,192,13472,1,0
256,352,14264,1,0
96,96,15451,5,0
416,96,16638,1,0
416,288,18221,1,0
128,288,19012,1,0
256,160,19804,5,0
224,32,21782,5,0
288,32,22969,1,0
224,352,24552,1,0
288,352,25343,1,0
32,192,25739,2,0,B|512:192,1,420
32,32,28113,5,0
32,192,29300,1,0
256,192,30883,1,0
480,352,32070,1,0
480,192,33257,1,0
256,96,34049,1,0
32,32,35236,2,0,B|512:32,1,420
128,96,37610,1,0
416,96,38402,1,0
128,288,39589,1,0
416,288,40380,1,0
256,96,41567,5,0
160,128,41963,1,0
384,128,42754,1,0
256,64,43546,5,0
256,128,44337,1,0
256,192,44733,1,0
32,32,46711,5,0
256,32,47898,1,0
512,32,48294,1,0
32,192,49877,5,0
256,192,50273,1,0
480,192,51064,1,0
256,192,54230,5,0
256,128,55021,1,0
256,0,55812,5,0
256,64,56208,1,0
288,192,57395,5,0
224,192,57791,1,0
256,256,58978,5,0
256,320,59374,1,0
32,32,60956,5,0
96,32,62144,1,0
192,32,62539,1,0
320,32,63726,5,0
416,0,64122,1,0
512,32,65309,1,0
288,32,67683,5,0
224,32,68870,1,0
224,352,70453,5,0
256,352,70849,1,0
288,352,71640,1,0
224,160,73619,5,0
256,160,74015,1,0
288,160,74410,1,0
288,32,75597,1,0
224,32,77576,5,0
288,32,77972,1,0
32,32,79950,5,0
96,32,80741,1,0
160,32,81533,1,0
224,32,81929,1,0
288,32,82324,1,0
320,320,83511,5,0
192,320,84303,1,0
256,256,85094,1,0
192,192,86281,5,0
352,192,87073,1,0
256,96,87864,1,0
32,32,89447,5,0
128,32,90238,1,0
224,32,91030,1,0
288,32,92612,5,0
384,32,93404,1,0
480,32,94195,1,0
128,224,95382,5,0
288,224,96174,1,0
320,224,96569,1,0
384,224,96965,1,0
32,32,98944,5,0
64,32,99735,1,0
128,32,100526,1,0
32,352,102109,5,0
96,288,102901,1,0
160,224,103296,1,0
192,160,104088,1,0
192,96,104879,1,0
192,32,105275,1,0
256,32,119916,5,0
256,96,120311,1,0
256,160,121103,1,0
256,224,122686,5,0
256,288,123081,1,0
256,352,123477,1,0
192,352,124268,1,0
32,32,125851,5,0
96,32,126643,1,0
160,32,127434,1,0
480,352,129017,5,0
416,352,129413,1,0
352,352,129808,1,0
256,352,130204,1,0
160,352,131391,1,0
96,352,131787,1,0
32,352,132182,1,0
288,64,132974,5,0
224,64,133765,1,0
256,160,134952,5,0
256,224,135744,1,0
256,352,136139,1,0
160,128,136931,5,0
384,128,137722,1,0
128,32,138514,5,0
384,32,139305,1,0
288,32,140096,1,0
256,32,140888,1,0
224,32,141679,1,0
256,320,142471,5,0
256,256,142866,1,0
256,192,143262,1,0
256,128,144053,1,0
256,64,144449,1,0
256,32,145241,1,0
192,32,145636,1,0
288,32,146428,1,0
320,32,146823,1,0
256,160,147615,5,0
224,96,148010,1,0
288,96,149198,1,0
224,96,149593,1,0
224,32,150780,1,0
288,32,151176,1,0
32,352,153155,5,0
256,352,153946,1,0
480,352,155133,1,0
256,32,157112,5,0
192,64,157507,1,0
320,64,158299,1,0
256,32,159486,5,0
256,96,160277,1,0
256,160,160673,1,0
256,224,161860,5,0
256,288,162256,1,0
128,160,163443,1,0
192,160,164234,1,0
288,160,164630,1,0
384,160,165817,1,0
448,160,166608,1,0
480,160,167004,1,0
256,32,168191,5,0
256,128,168587,1,0
256,256,169774,5,0
256,352,170170,1,0
192,256,170565,1,0
192,256,170961,1,0
192,256,171357,1,0
