osu file format v5

[General]
AudioFilename: Jackie Chan - City Hunter.mp3
AudioLeadIn: 0
PreviewTime: -1
Countdown: 1
SampleSet: Normal

[Metadata]
Title:City Hunter
Artist:Jackie Chan
Creator:Colek
Version:Hard

[Difficulty]
HPDrainRate:7
CircleSize:7
OverallDifficulty:7
SliderMultiplier:1.4
SliderTickRate:1

[Events]
//Background and Video events
//Break Periods
//Storyboard Layer 0 (Background)
//Storyboard Layer 1 (Failing)
//Storyboard Layer 2 (Passing)
//Storyboard Layer 3 (Foreground)
//Storyboard Sound Samples
//Background Colour Transformations
3,100,163,162,255

[TimingPoints]
5305,301.75941715476,4,1,0,100

[HitObjects]
256,192,13754,1,0
256,96,16771,1,0
32,96,18280,1,0
480,96,19185,1,0
256,352,21600,5,0
32,192,22203,1,0
256,32,23108,1,0
480,192,25824,5,0
480,96,26729,1,0
480,288,27333,1,0
32,32,30049,5,0
128,32,30652,1,0
480,32,33066,5,0
352,32,33368,1,0
32,352,35480,5,0
96,352,35782,1,0
160,352,36084,1,0
32,32,38498,6,0,B|512:32,3,420
224,64,42723,1,0
288,64,43024,1,0
256,320,44533,5,0
256,320,44835,1,0
256,320,45439,1,0
256,320,45740,1,0
256,320,46042,1,0
256,320,46344,1,0
256,32,48154,5,0
256,96,48758,1,0
256,160,49060,1,0
256,160,49663,1,0
32,352,52681,5,0
96,288,53284,1,0
480,32,54793,5,0
384,96,55397,1,0
224,32,56905,5,0
288,64,57509,1,0
256,352,59923,5,0
32,32,62035,5,0
128,32,62337,1,0
224,32,63242,1,0
320,32,63544,1,0
416,32,64148,1,0
480,32,64449,1,0
256,192,66863,12,0,69881
256,32,72899,5,0
32,32,74709,5,0
256,32,75011,1,0
480,32,76821,5,0
256,32,77425,1,0
256,32,79839,5,0
256,128,80141,1,0
256,224,80744,1,0
256,320,81046,1,0
32,32,84064,5,0
160,32,84365,1,0
256,32,84667,1,0
352,32,85271,1,0
448,32,85573,1,0
32,352,87685,5,0
128,256,88288,1,0
480,32,89797,5,0
480,32,94022,5,0
416,96,94927,1,0
256,128,95832,1,0
224,64,96436,1,0
288,64,97039,1,0
256,32,99152,5,0
256,32,99453,1,0
256,288,102471,5,0
256,224,102773,1,0
480,32,105489,5,0
480,96,106092,1,0
416,32,107299,1,0
480,32,109110,1,0
32,32,111524,5,0
480,32,113636,5,0
480,352,117257,5,0
480,256,118163,1,0
480,32,119671,5,0
480,128,120275,1,0
256,192,121482,5,0
224,96,122085,1,0
288,96,122991,1,0
256,192,123896,5,0
256,128,124499,1,0
256,32,126310,5,0
256,96,126612,1,0
256,160,127215,1,0
160,128,130535,5,0
256,128,131440,1,0
256,32,132949,5,0
160,96,133552,1,0
256,352,135966,5,0
256,256,136268,1,0
256,128,136872,1,0
256,32,137777,1,0
32,32,139587,5,0
128,32,140191,1,0
192,32,140493,1,0
480,32,143812,5,0
384,32,144416,1,0
320,32,144717,1,0
224,32,146226,5,0
288,32,146528,1,0
256,96,147131,1,0
256,256,149244,5,0
192,320,149546,1,0
288,288,150149,1,0
32,32,152865,5,0
96,32,153167,1,0
192,32,153468,1,0
256,64,154675,1,0
256,64,154977,1,0
256,64,155279,1,0
256,32,156788,2,0,B|352:288|128:96,5,280
256,64,161616,1,0
288,96,161918,1,0
256,192,164633,5,0
256,32,166746,5,0
256,96,167048,1,0
256,160,167651,1,0
256,224,167953,1,0
256,288,168255,1,0
256,352,168858,1,0
32,192,170065,5,0
32,192,170367,1,0
96,192,170970,1,0
96,192,171272,1,0
192,192,171876,1,0
192,192,172177,1,0
288,192,172781,1,0
288,192,173083,1,0
352,192,173686,1,0
352,192,173988,1,0
416,192,174592,1,0
416,192,174893,1,0
480,192,175497,1,0
480,192,175799,1,0
256,192,177911,12,0,187567
