osu file format v9

[General]
AudioFilename: Endless Love (Mei li de shen hua).mp3
AudioLeadIn: 3000
PreviewTime: 45645
Countdown: 0
SampleSet: Soft
StackLeniency: 0.7
Mode: 1
LetterboxInBreaks: 1

[Editor]
Bookmarks: 46588,76126,87665
DistanceSpacing: 0.9
BeatDivisor: 8
GridSize: 16

[Metadata]
Title:Wujin De Ai (Endless Love)
Artist:Jackie Chan & Kim Hee-sun
Creator:Crimmi
Version:Taiko Oni
Source:The Myth
Tags:Slow Ballad Meili De Shen Hua Beautiful Myth

[Difficulty]
HPDrainRate:5
CircleSize:5
OverallDifficulty:5
ApproachRate:5
SliderMultiplier:2.4
SliderTickRate:4

[Events]
//Background and Video events
0,0,"Taigu Ai.png"
//Break Periods
//Storyboard Layer 0 (Background)
//Storyboard Layer 1 (Fail)
//Storyboard Layer 2 (Pass)
//Storyboard Layer 3 (Foreground)
//Storyboard Sound Samples
//Background Colour Transformations
3,100,163,162,255

[TimingPoints]
95,925.140698481227,4,2,0,50,1,0
17050,923.076923076923,4,2,0,50,1,0
46588,-100,4,1,0,50,0,0
76126,-100,4,2,0,50,0,0
87665,-100,4,2,0,5,0,0

[Colours]
Combo1 : 255,128,192
Combo2 : 255,255,255
Combo3 : 192,192,192

[HitObjects]
256,192,95,1,4
256,192,326,1,0
256,192,557,1,2
256,192,788,1,0
256,192,904,1,0
256,192,1020,1,2
256,192,1251,1,0
256,192,1482,1,2
256,192,1713,1,0
256,192,1945,1,2
256,192,2176,1,2
256,192,2292,1,0
256,192,2407,1,2
256,192,2523,1,0
256,192,2639,1,2
256,192,2870,1,2
256,192,3101,1,0
256,192,3332,1,2
256,192,3564,1,0
256,192,3795,1,4
256,192,4026,1,0
256,192,4258,1,2
256,192,4373,1,2
272,192,4489,1,2
272,192,4605,1,0
256,192,4720,1,2
256,192,4951,1,0
256,192,5183,1,2
256,192,5298,1,2
256,192,5414,1,2
256,192,5530,1,0
256,192,5645,1,2
256,192,5877,1,0
256,192,6108,1,2
256,192,6339,1,2
256,192,6455,1,0
256,192,6570,1,2
256,192,6802,1,0
256,192,7033,1,2
256,192,7264,1,0
256,192,7496,1,4
256,192,7727,1,0
256,192,7958,1,2
256,192,8189,1,0
256,192,8305,1,0
256,192,8421,1,8
256,192,8652,1,0
256,192,8883,1,2
256,192,9115,1,0
256,192,9346,1,4
256,192,9577,1,0
256,192,9808,1,2
256,192,10040,1,0
256,192,10155,1,0
256,192,10271,1,2
256,192,10502,1,0
256,192,10734,1,0
256,192,10965,1,0
256,192,11081,1,0
256,192,11196,1,2
256,192,11427,1,0
256,192,11659,1,0
256,192,11890,1,2
256,192,12121,1,0
256,192,12237,1,0
256,192,12353,1,2
256,192,12584,1,0
256,192,12815,1,0
256,192,13046,1,4
256,192,13278,1,0
256,192,13509,1,2
256,192,13625,1,0
256,192,13740,1,2
256,192,13972,1,2
256,192,14203,1,0
256,192,14434,1,2
256,192,14550,1,0
256,192,14665,1,2
256,192,14897,1,2
256,192,15128,1,0
256,192,15359,1,2
256,192,15591,1,0
256,192,15822,1,2
256,192,16053,12,0,16863
256,192,17050,5,4
256,192,17280,1,0
256,192,17511,1,2
256,192,17742,1,0
256,192,17973,1,8
256,192,18203,1,0
256,192,18434,1,0
256,192,18550,1,0
256,192,18665,1,2
256,192,18896,1,4
256,192,19126,1,0
256,192,19357,1,2
256,192,19588,1,0
256,192,19819,1,2
256,192,19934,1,0
256,192,20050,1,0
256,192,20280,1,2
256,192,20511,1,0
256,192,20742,1,2
256,192,20857,1,0
256,192,20973,1,0
256,192,21203,1,2
240,160,21434,1,0
240,160,21665,1,2
240,160,21896,1,0
240,160,22126,1,2
240,160,22357,1,0
240,160,22588,1,2
240,160,22703,1,2
240,160,22819,1,2
240,160,22934,1,0
240,160,23050,1,2
240,160,23280,1,0
240,160,23511,1,4
240,160,23857,1,4
240,160,24203,1,0
240,160,24434,1,4
240,160,24665,1,0
240,160,24896,1,2
240,160,25126,1,0
240,160,25357,1,0
240,160,25588,1,0
240,160,25819,1,2
240,160,26050,1,0
240,160,26165,1,0
240,160,26280,1,2
240,160,26511,1,2
240,160,26742,1,2
240,160,26857,1,2
240,160,26973,1,2
240,160,27088,1,0
240,160,27203,1,2
240,160,27434,1,0
240,160,27665,1,2
240,160,27896,1,0
224,192,28126,2,0,B|272:288|432:224|368:64|160:32|48:144|16:368|400:336,1,720,4|0
416,304,31126,1,0
432,256,31357,1,2
176,272,31588,1,0
176,272,31819,1,4
208,272,32050,1,0
224,272,32165,1,0
240,272,32280,1,2
272,272,32511,1,2
304,272,32742,1,0
336,256,32973,1,0
384,224,33088,1,0
368,240,33203,1,2
400,224,33434,1,2
400,192,33665,1,4
368,176,33896,1,0
336,160,34126,1,2
304,160,34357,1,0
288,160,34473,1,0
272,160,34588,1,2
240,160,34819,1,0
208,160,35050,1,2
176,160,35280,1,0
144,160,35511,2,0,B|32:304|192:352|464:272,1,480,4|4
352,256,37588,1,2
256,256,37819,1,0
256,224,38050,1,2
256,192,38280,1,0
256,176,38396,1,0
256,160,38511,1,2
224,144,38742,1,0
192,128,38973,1,2
160,112,39203,1,4
128,128,39434,1,0
112,160,39665,1,2
96,176,39780,1,0
96,192,39896,1,0
96,224,40126,1,4
112,256,40357,1,0
144,272,40588,1,0
160,272,40703,1,0
176,272,40819,1,2
208,288,41050,1,4
240,288,41280,1,0
272,304,41511,1,2
304,304,41742,1,0
304,304,41857,1,0
320,304,41973,1,2
352,288,42203,1,0
368,256,42434,1,2
368,224,42665,1,0
336,208,42896,1,4
304,192,43126,1,0
368,256,43242,1,0
272,176,43357,1,2
240,160,43588,1,0
208,160,43819,1,2
192,160,43934,1,0
176,160,44050,1,2
160,144,44280,1,0
128,160,44511,1,2
112,192,44742,1,4
112,224,44973,1,0
144,240,45203,1,4
176,256,45434,1,0
208,272,45665,1,2
224,272,45780,1,2
240,272,45896,1,2
256,272,46011,1,0
272,288,46126,1,2
288,288,46242,1,0
304,304,46357,1,2
336,288,46588,1,4
352,256,46819,1,0
384,224,47050,1,2
368,192,47280,1,0
352,160,47511,1,8
336,160,47626,1,0
320,144,47742,1,0
288,128,47973,1,2
256,128,48203,1,0
224,128,48434,1,2
208,128,48550,1,0
192,144,48665,1,0
192,144,48896,1,2
192,144,49126,1,0
160,160,49357,1,2
160,160,49473,1,0
160,160,49588,1,0
160,176,49703,1,0
160,176,49819,1,2
160,208,50050,1,0
192,256,50280,2,0,B|320:336|512:320|416:16,1,480,4|4
384,96,52357,1,0
368,112,52473,1,0
336,112,52588,1,8
288,128,52819,1,0
240,144,53050,1,8
224,144,53165,1,0
208,144,53280,1,8
192,144,53396,1,8
192,144,53511,1,8
144,144,53742,1,0
112,160,53973,1,4
80,192,54203,1,0
80,240,54434,1,2
112,272,54665,1,0
128,288,54780,1,0
144,288,54896,1,8
176,272,55126,1,0
224,256,55357,1,2
272,256,55588,1,0
304,224,55819,1,2
320,224,55934,1,0
336,208,56050,1,0
352,208,56165,1,0
368,192,56280,1,2
384,192,56396,1,0
400,176,56511,1,0
416,160,56626,1,0
432,144,56742,1,2
384,128,56973,1,0
336,112,57203,1,2
288,112,57434,1,0
240,128,57665,1,4
192,112,57896,1,0
192,112,58126,1,8
160,80,58357,1,8
144,96,58473,1,0
144,96,58588,1,8
96,96,58819,1,0
144,96,59050,1,8
144,96,59165,1,0
144,96,59280,1,8
144,96,59396,1,8
144,96,59511,1,8
96,112,59742,1,0
80,160,59973,1,2
128,144,60203,1,0
96,176,60434,1,8
96,176,60550,1,0
96,176,60665,1,8
112,176,60780,1,8
128,192,60896,1,8
144,192,61011,1,0
160,208,61126,1,8
208,208,61357,1,4
256,208,61588,1,0
304,208,61819,1,0
320,208,61934,1,0
336,208,62050,1,2
336,208,62280,1,2
384,192,62511,1,0
384,192,62626,1,0
384,192,62742,1,2
416,176,62973,1,0
384,144,63203,1,8
368,128,63319,1,0
352,112,63434,1,8
352,96,63550,1,8
352,96,63665,1,8
336,96,63780,1,0
320,96,63896,1,8
288,128,64126,1,2
240,144,64357,1,0
224,144,64473,1,0
208,144,64588,1,2
160,160,64819,1,0
128,192,65050,1,4
176,208,65280,1,8
112,208,65511,1,2
176,224,65626,1,0
160,224,65742,1,0
176,272,65973,1,4
208,272,66203,1,0
256,272,66434,1,2
320,272,66550,1,0
304,272,66665,1,0
336,272,66896,1,4
384,272,67126,1,0
384,272,67357,1,2
384,272,67588,1,8
384,272,67819,1,8
384,272,67934,1,0
384,272,68050,1,8
384,272,68165,1,8
384,272,68280,1,2
336,272,68511,1,0
368,224,68742,1,4
352,176,68973,1,0
320,144,69203,1,8
272,128,69434,1,0
256,112,69550,1,0
240,96,69665,1,2
192,96,69896,1,0
144,112,70126,1,2
160,160,70357,1,0
144,208,70588,1,8
144,224,70703,1,0
144,240,70819,1,8
160,256,70934,1,0
160,256,71050,1,8
208,256,71280,1,0
256,256,71511,1,8
304,240,71742,1,0
352,224,71973,1,0
336,224,72088,1,0
320,192,72203,1,8
256,192,72434,12,0,75896
256,192,76126,5,4
256,192,76357,1,2
256,192,76588,1,0
256,192,76703,1,0
256,192,76819,1,2
256,192,77050,1,0
256,192,77280,1,2
256,192,77511,1,0
256,192,77626,1,0
256,192,77742,1,2
256,192,77973,1,0
256,192,78088,1,0
256,192,78203,1,2
256,192,78319,1,2
256,192,78434,1,2
256,192,78665,1,0
256,192,78896,1,2
256,192,79126,1,0
256,192,79242,1,0
256,192,79357,1,2
256,192,79588,1,0
256,192,79819,1,4
256,192,80050,1,2
256,192,80165,1,0
256,192,80280,1,2
256,192,80396,1,2
256,192,80511,1,2
256,192,80742,1,0
256,192,80973,1,0
256,192,81203,1,2
256,192,81434,1,0
256,192,81549,1,0
256,192,81665,1,2
256,192,81896,1,0
256,192,82126,1,2
256,192,82357,1,0
256,192,82473,1,0
256,192,82588,1,2
256,192,82934,1,0
256,192,83280,1,2
256,192,83396,1,0
256,192,83511,1,2
256,192,83626,1,0
256,192,83742,1,2
256,192,83973,1,0
256,192,84203,1,0
256,192,84319,1,0
256,192,84434,1,2
256,192,84665,1,0
256,192,84896,1,2
256,192,85011,1,0
256,192,85126,1,2
256,192,85242,1,2
256,192,85357,1,2
256,192,85588,1,0
256,192,85819,1,0
256,192,86049,1,0
256,192,86165,1,0
256,192,86280,1,2
256,192,86511,1,0
256,192,86742,1,2
256,192,86973,1,0
256,192,87203,1,0
256,192,87434,12,0,89973
