osu file format v9

[General]
AudioFilename: Endless Love (Mei li de shen hua).mp3
AudioLeadIn: 3000
PreviewTime: 45645
Countdown: 0
SampleSet: Soft
StackLeniency: 0.7
Mode: 1
LetterboxInBreaks: 1

[Editor]
Bookmarks: 46588,76126,87665
DistanceSpacing: 0.9
BeatDivisor: 4
GridSize: 16

[Metadata]
Title:Wujin De Ai (Endless Love)
Artist:Jackie Chan & Kim Hee-sun
Creator:Crimmi
Version:Taiko Muzukashii
Source:The Myth
Tags:Slow Ballad Meili De Shen Hua Beautiful Myth

[Difficulty]
HPDrainRate:5
CircleSize:5
OverallDifficulty:5
ApproachRate:5
SliderMultiplier:2
SliderTickRate:4

[Events]
//Background and Video events
0,0,"Taigu Ai.png"
//Break Periods
//Storyboard Layer 0 (Background)
//Storyboard Layer 1 (Fail)
//Storyboard Layer 2 (Pass)
//Storyboard Layer 3 (Foreground)
//Storyboard Sound Samples
//Background Colour Transformations
3,100,163,162,255

[TimingPoints]
95,925.140698481227,4,2,0,50,1,0
17050,923.076923076923,4,2,0,50,1,0
46588,-100,4,1,0,50,0,0
76126,-100,4,2,0,50,0,0
87665,-100,4,2,0,5,0,0

[Colours]
Combo1 : 255,128,192
Combo2 : 255,255,255
Combo3 : 192,192,192

[HitObjects]
256,192,95,1,0
256,192,557,1,2
256,192,788,1,0
256,192,1251,1,0
256,192,1482,1,2
256,192,1945,1,4
256,192,2407,1,2
256,192,2639,1,0
256,192,2870,1,0
256,192,3332,1,2
256,192,3564,1,0
256,192,3795,1,4
256,192,4258,1,0
256,192,4489,1,2
256,192,4951,1,2
256,192,5183,1,0
256,192,5645,1,2
256,192,6108,1,0
256,192,6339,1,2
256,192,6802,1,2
256,192,7033,1,0
256,192,7496,1,4
256,192,7958,1,0
256,192,8189,1,0
256,192,8421,1,8
256,192,8652,1,0
256,192,8883,1,2
256,192,9346,1,2
256,192,9808,1,0
256,192,10040,1,0
256,192,10271,1,8
256,192,10502,1,0
256,192,10734,1,2
256,192,11196,1,0
256,192,11427,1,0
256,192,11659,1,2
256,192,12121,1,0
256,192,12584,1,2
256,192,13046,1,0
256,192,13278,1,0
256,192,13509,1,2
256,192,13972,1,0
256,192,14434,1,2
256,192,14897,12,0,16747
256,192,17050,5,4
256,192,17280,1,0
256,192,17511,1,2
256,192,17973,1,8
256,192,18434,1,0
256,192,18665,1,0
256,192,18896,1,2
256,192,19357,1,0
256,192,19819,1,8
256,192,20049,1,0
256,192,20280,1,2
256,192,20511,1,0
256,192,20742,1,2
256,192,21203,1,0
256,192,21665,1,2
256,192,22126,1,0
256,192,22588,1,2
256,192,23049,1,0
256,192,23511,1,2
256,192,23742,1,0
256,192,23973,1,2
256,192,24203,1,0
256,192,24434,1,4
256,192,24896,1,0
256,192,25357,1,8
256,192,25819,1,0
256,192,26049,1,0
256,192,26280,1,2
256,192,26742,1,0
256,192,27203,1,2
256,192,27665,1,0
256,192,27896,1,0
256,192,28126,1,4
256,192,28588,1,0
256,192,29049,1,2
256,192,29511,1,0
256,192,29973,1,2
256,192,30203,1,0
256,192,30434,1,2
256,192,30665,1,0
256,192,30896,1,2
256,192,31126,1,0
256,192,31357,1,2
256,192,31819,1,4
256,192,32280,1,0
256,192,32742,1,8
256,192,33203,1,0
256,192,33665,1,4
256,192,34126,1,0
256,192,34357,1,0
256,192,34588,1,2
256,192,35050,1,0
256,192,35511,1,2
256,192,35742,1,0
256,192,35973,1,2
256,192,36203,1,0
256,192,36434,1,2
256,192,36665,1,2
256,192,36896,1,2
256,192,37357,1,2
256,192,37588,1,0
256,192,37819,1,2
256,192,38050,1,0
256,192,38280,1,2
256,192,38511,1,2
256,192,38742,1,2
256,192,39203,1,4
256,192,39665,1,0
256,192,39896,1,0
256,192,40126,1,2
256,192,40588,1,2
256,192,41050,1,4
256,192,41511,1,0
256,192,41742,1,0
256,192,41973,1,2
256,192,42434,1,2
256,192,42896,1,4
256,192,43357,1,0
256,192,43588,1,0
256,192,43819,1,2
256,192,44280,1,0
256,192,44742,1,2
256,192,44973,1,0
256,192,45203,1,2
256,192,45434,1,0
256,192,45665,1,2
256,192,45896,1,2
256,192,46126,1,2
256,192,46588,1,4
256,192,46819,1,0
256,192,47280,1,0
256,192,47511,1,8
256,192,47973,1,2
256,192,48434,1,4
256,192,49126,1,0
256,192,49357,1,8
256,192,50280,1,4
256,192,50742,1,0
256,192,50973,1,0
256,192,51203,1,8
256,192,51665,1,0
256,192,51896,1,0
256,192,52126,1,8
256,192,52819,1,0
256,192,53050,1,8
256,192,53511,1,2
256,192,53973,1,4
256,192,54434,1,0
256,192,54665,1,0
256,192,54896,1,8
256,192,55357,1,8
256,192,55819,1,4
256,192,56511,1,0
256,192,56742,1,8
256,192,57203,1,0
256,192,57665,1,4
256,192,58126,1,0
256,192,58357,1,0
256,192,58588,1,8
256,192,59050,1,0
256,192,59280,1,0
256,192,59511,1,8
256,192,60203,1,0
256,192,60434,1,2
256,192,60896,1,0
256,192,61357,1,8
256,192,61588,1,8
256,192,61819,1,8
256,192,62050,1,0
256,192,62280,1,2
256,192,62742,1,0
256,192,63203,1,2
256,192,63665,1,0
256,192,63896,1,0
256,192,64126,1,2
256,192,64819,1,0
256,192,65050,1,8
256,192,65511,1,0
256,192,65742,1,0
256,192,65973,1,2
256,192,66434,1,0
256,192,66665,1,0
256,192,66896,1,8
256,192,67588,1,0
256,192,67819,1,8
256,192,68280,1,0
256,192,68742,1,8
256,192,68973,1,0
256,192,69203,1,8
256,192,69434,1,0
256,192,69665,1,8
256,192,70126,1,0
256,192,70588,1,8
256,192,70819,1,0
256,192,71050,1,8
256,192,71280,1,0
256,192,71511,1,8
256,192,72203,1,0
256,192,72434,1,4
256,192,72896,1,0
256,192,73126,1,0
256,192,73357,1,4
256,192,73819,1,0
256,192,74050,1,2
256,192,74511,1,2
256,192,74742,1,0
256,192,75203,1,8
256,192,75434,1,0
256,192,75665,1,8
256,192,75896,1,0
256,192,76126,1,4
256,192,77050,1,2
256,192,77511,1,0
256,192,77742,1,0
256,192,77973,1,4
256,192,78434,1,0
256,192,78896,1,2
256,192,79588,1,0
256,192,79819,1,4
256,192,80742,1,2
256,192,81203,1,0
256,192,81434,1,0
256,192,81665,1,2
256,192,82357,1,0
256,192,82588,1,2
256,192,83050,1,0
256,192,83280,1,0
256,192,83511,1,2
256,192,83973,1,0
256,192,84203,1,0
256,192,84896,1,0
256,192,85126,1,0
256,192,85357,1,4
256,192,86050,1,0
256,192,86280,1,2
256,192,86742,1,2
256,192,86973,1,0
256,192,87203,1,4
256,192,87665,12,0,89511
