osu file format v12

[General]
AudioFilename: Call of Duty_ Black Ops 2 Multiplayer Main Menu Music- Adrenaline by Trent Reznor.mp3
AudioLeadIn: 0
PreviewTime: 62757
Countdown: 0
SampleSet: Soft
StackLeniency: 0.7
Mode: 0
LetterboxInBreaks: 1
WidescreenStoryboard: 1

[Editor]
Bookmarks: 5171,13566,24359,33953,43557,55257,62757,67557,75957,89157,91557,93957,103557,110745,120945,129945,134745,144345,158745,164745,177945
DistanceSpacing: 1.3
BeatDivisor: 4
GridSize: 8
TimelineZoom: 1

[Metadata]
Title:Adrenaline
TitleUnicode:Adrenaline
Artist:Jack Wall & Jimmy Hinson
ArtistUnicode:Jack Wall & Jimmy Hinson
Creator:Invert Tails Prower
Version:Normal
Source:Call of Duty: Black Ops II
Tags:two multiplayer
BeatmapID:380908
BeatmapSetID:154985

[Difficulty]
HPDrainRate:6
CircleSize:3
OverallDifficulty:5
ApproachRate:5
SliderMultiplier:0.7
SliderTickRate:1

[Events]
//Background and Video events
0,0,"1531211.jpg",0,0
//Break Periods
2,24395,32745
2,60545,66345
2,127744,128745
2,165245,167145
//Storyboard Layer 0 (Background)
//Storyboard Layer 1 (Fail)
//Storyboard Layer 2 (Pass)
//Storyboard Layer 3 (Foreground)
//Storyboard Sound Samples
//Background Colour Transformations
3,100,163,162,255

[TimingPoints]
345,300,4,2,0,40,1,0
5171,-100,4,1,0,60,0,0
89157,-100,4,1,0,10,0,0
89307,-100,4,1,0,20,0,0
89457,-100,4,1,0,30,0,0
89607,-100,4,1,0,40,0,0
89757,-100,4,1,0,50,0,0
89907,-100,4,1,0,60,0,0
90057,-100,4,1,0,70,0,0
90207,-100,4,1,0,75,0,0
90357,-100,4,1,0,70,0,0
91557,-100,4,1,0,70,0,1
110757,-100,4,1,0,60,0,0

[Colours]
Combo1 : 255,192,0
Combo2 : 255,128,0
Combo3 : 128,128,128
Combo4 : 0,0,0

[HitObjects]
256,192,345,6,2,L|256:120,1,70
408,208,1245,2,2,L|352:264,1,70
200,184,2145,2,8,L|152:184,2,35
256,64,2745,6,2,L|176:64,1,70
88,232,3645,2,2,P|120:224|160:240,1,70
280,240,4545,2,8,L|280:200,2,35
344,184,5145,5,4,0:0:0:0:
400,184,5445,1,0,0:0:0:0:
456,184,5745,1,0,0:0:0:0:
456,264,6045,6,0,P|408:304|336:264,1,140
224,240,6945,1,0,0:0:0:0:
224,152,7245,1,0,0:0:0:0:
280,192,7545,1,0,0:0:0:0:
128,192,8145,1,0,0:0:0:0:
128,64,8745,1,0,0:0:0:0:
280,64,9345,6,0,P|320:48|352:64,1,70
392,72,9945,1,4,0:0:0:0:
440,120,10245,1,0,0:0:0:0:
480,184,10545,1,0,0:0:0:0:
352,320,11145,5,0,0:0:0:0:
256,192,11745,2,0,L|208:256,1,70
160,320,12345,1,0,0:0:0:0:
64,192,12945,2,0,L|112:128,1,70
192,80,13545,6,0,P|176:112|192:144,1,70
248,112,14145,6,0,P|264:144|248:176,1,70
320,200,14745,1,0,0:0:0:0:
416,200,15045,1,0,0:0:0:0:
416,296,15345,1,0,0:0:0:0:
320,296,15645,1,0,0:0:0:0:
112,112,16545,5,0,0:0:0:0:
80,192,16845,1,0,0:0:0:0:
128,256,17145,1,0,0:0:0:0:
264,336,17745,5,0,0:0:0:0:
264,336,18045,1,0,0:0:0:0:
264,336,18345,2,0,L|264:192,1,140
264,112,19245,1,0,0:0:0:0:
264,40,19545,6,0,L|312:40,1,35
176,128,20145,2,0,L|128:128,1,35
312,192,20745,2,0,L|352:192,1,35
176,280,21345,2,0,L|128:280,1,35
312,296,21945,6,0,L|384:296,1,70
472,296,22545,2,0,L|432:232,1,70
472,112,23145,6,0,L|424:112,7,35,0|0|4|4|4|4|4|0,0:0|0:0|0:0|0:0|0:0|0:0|0:0|0:0,0:0:0:0:
256,192,33945,5,2,0:0:0:0:
352,192,34245,1,0,0:0:0:0:
448,192,34545,1,0,0:0:0:0:
496,288,34845,1,0,0:0:0:0:
384,296,35145,6,8,P|360:320|328:296,3,70
256,256,36345,5,2,0:0:0:0:
256,160,36645,1,0,0:0:0:0:
256,64,36945,1,0,0:0:0:0:
144,56,37245,1,0,0:0:0:0:
144,152,37545,6,8,P|120:176|144:208,3,70
256,192,38745,5,0,0:0:0:0:
360,208,39045,1,0,0:0:0:0:
360,312,39345,1,0,0:0:0:0:
256,288,39645,1,0,0:0:0:0:
256,192,39945,5,0,0:0:0:0:
256,288,40245,1,0,0:0:0:0:
160,312,40545,1,0,0:0:0:0:
160,208,40845,1,0,0:0:0:0:
256,192,41145,5,0,0:0:0:0:
160,160,41445,1,0,0:0:0:0:
160,64,41745,1,0,0:0:0:0:
256,104,42045,1,0,0:0:0:0:
256,192,42345,1,0,0:0:0:0:
360,64,42945,6,0,L|360:208,1,140
480,192,44145,1,0,0:0:0:0:
320,192,44745,2,0,L|248:192,1,70
208,192,45345,1,0,0:0:0:0:
480,192,46545,5,0,0:0:0:0:
480,192,46845,1,0,0:0:0:0:
320,192,47745,1,0,0:0:0:0:
320,192,48045,1,8,0:0:0:0:
320,32,48945,1,0,0:0:0:0:
320,32,49245,1,0,0:0:0:0:
320,192,50145,1,0,0:0:0:0:
320,192,50445,1,8,0:0:0:0:
152,296,51345,6,0,B|80:128|320:192|192:72,1,280
368,208,53145,1,2,0:0:0:0:
472,208,53745,2,0,L|472:64,1,140
384,56,54645,1,0,0:0:0:0:
296,72,54945,1,0,0:0:0:0:
240,136,55245,1,0,0:0:0:0:
272,216,55545,1,0,0:0:0:0:
392,216,56145,5,0,0:0:0:0:
512,216,56745,2,2,L|512:368,1,140,0|4,0:0|0:0,0:0:0:0:
256,192,57645,12,4,60345,0:0:0:0:
256,192,67545,6,0,L|112:192,1,140
88,264,68745,2,0,L|88:120,1,140
16,192,69945,2,0,L|160:192,1,140
232,160,70845,1,0,0:0:0:0:
296,216,71145,1,0,0:0:0:0:
376,192,71445,5,0,0:0:0:0:
448,192,71745,2,8,L|496:192,2,35
480,192,72345,2,0,L|485:336,1,140,2|0,0:0|0:0,0:0:0:0:
408,336,73245,1,0,0:0:0:0:
336,336,73545,6,0,L|184:336,1,140
80,312,74745,1,0,0:0:0:0:
80,312,75045,1,0,0:0:0:0:
80,312,75345,1,0,0:0:0:0:
96,192,75945,6,2,L|376:192,1,280
512,192,77745,1,2,0:0:0:0:
472,112,78345,1,0,0:0:0:0:
512,32,78945,1,0,0:0:0:0:
424,72,79545,1,0,0:0:0:0:
344,32,80145,1,0,0:0:0:0:
232,32,80745,1,0,0:0:0:0:
112,32,81345,6,2,L|112:184,1,140
112,296,82545,1,2,0:0:0:0:
232,296,83145,1,0,0:0:0:0:
344,296,83745,1,0,0:0:0:0:
384,192,84345,2,0,L|408:112,1,70
416,104,84945,1,0,0:0:0:0:
288,104,85545,6,2,L|144:104,1,140
8,104,86745,1,2,0:0:0:0:
112,152,87345,1,0,0:0:0:0:
208,192,87945,1,0,0:0:0:0:
208,192,88245,2,0,L|280:192,1,70
312,192,88845,1,8,0:0:0:0:
360,192,89145,2,4,L|384:192,16,17.5,4|4|4|4|4|4|4|4|4|4|4|4|4|4|4|4|14,0:0|0:0|0:0|0:0|0:0|0:0|0:0|0:0|0:0|0:0|0:0|0:0|0:0|0:0|0:0|0:0|0:0,0:0:0:0:
152,48,91545,5,6,0:0:0:0:
152,160,91845,1,0,0:0:0:0:
256,104,92145,1,0,0:0:0:0:
352,48,92445,1,0,0:0:0:0:
352,160,92745,1,0,0:0:0:0:
416,248,93045,1,0,0:0:0:0:
472,160,93345,1,0,0:0:0:0:
344,312,93945,6,0,L|200:312,1,140
120,312,94845,1,0,0:0:0:0:
120,312,95145,2,0,L|120:240,3,70,2|0|2|0,0:0|0:0|0:0|0:0,0:0:0:0:
120,160,96345,1,2,0:0:0:0:
192,176,96645,1,0,0:0:0:0:
264,192,96945,6,0,L|264:336,1,140
56,264,98145,2,0,L|208:264,1,140
408,264,99345,1,0,0:0:0:0:
464,208,99645,1,0,0:0:0:0:
352,208,99945,1,0,0:0:0:0:
408,152,100245,1,0,0:0:0:0:
224,56,100845,6,2,L|128:160,1,140
24,160,101745,1,2,0:0:0:0:
24,256,102045,1,0,0:0:0:0:
128,256,102345,1,0,0:0:0:0:
184,200,102645,2,0,L|240:144,1,70
320,112,103245,1,0,0:0:0:0:
408,152,103545,5,0,0:0:0:0:
408,240,103845,1,0,0:0:0:0:
320,248,104145,1,0,0:0:0:0:
248,200,104445,1,0,0:0:0:0:
168,248,104745,2,0,L|88:248,4,70,2|0|2|0|2,0:0|0:0|0:0|0:0|0:0,0:0:0:0:
256,192,106245,12,4,110745,0:0:0:0:
264,184,111345,5,0,0:0:0:0:
264,72,111795,1,8,0:0:0:0:
264,72,112095,1,8,0:0:0:0:
376,72,112545,1,0,0:0:0:0:
256,184,113745,6,0,B|336:296|408:160|296:0|248:96|88:152|216:184|216:248,2,420
376,240,117945,5,0,0:0:0:0:
368,128,118395,2,8,L|440:128,2,70
304,240,119595,2,8,L|224:240,1,70
160,240,120195,2,4,L|112:240,1,35
64,152,120945,5,0,0:0:0:0:
144,80,121395,2,0,L|256:80,1,105,8|8,0:0|0:0,0:0:0:0:
352,80,122145,1,4,0:0:0:0:
352,80,122445,1,0,0:0:0:0:
352,80,122745,1,0,0:0:0:0:
256,192,123345,5,0,0:0:0:0:
256,288,123795,2,0,L|152:288,1,105,8|8,0:0|0:0,0:0:0:0:
151,288,124395,1,4,0:0:0:0:
64,288,124695,1,0,0:0:0:0:
16,192,125145,6,0,P|264:64|496:192,1,560
184,48,129945,6,2,L|328:48,1,140
328,48,130845,1,4,0:0:0:0:
320,128,131145,2,2,L|176:128,1,140
184,128,132045,1,4,0:0:0:0:
184,200,132345,2,2,L|328:200,1,140
328,200,133245,1,4,0:0:0:0:
328,272,133545,1,0,0:0:0:0:
208,272,133995,2,0,L|136:272,1,70
200,352,134745,6,8,L|344:352,1,140
344,352,135645,1,4,0:0:0:0:
344,272,135945,2,8,L|192:272,1,140
204,272,136845,1,4,0:0:0:0:
200,192,137145,2,8,L|344:192,1,140
340,192,138045,1,4,0:0:0:0:
344,112,138345,1,0,0:0:0:0:
240,112,138795,2,4,L|136:112,1,105
256,192,140145,12,0,144345,0:0:0:0:
256,192,144945,6,2,B|472:192|472:192|472:336|472:336|200:336,1,630
256,192,148545,6,0,L|136:104,1,140
256,80,149745,2,0,L|408:80,4,140
152,80,152745,1,0,0:0:0:0:
56,80,153345,1,0,0:0:0:0:
56,184,153945,6,0,L|56:328,1,140
176,328,155145,2,0,L|272:208,1,140
384,216,156345,2,0,L|464:336,1,140
304,344,157545,2,0,L|304:192,1,140,0|4,0:0|0:0,0:0:0:0:
296,48,158745,5,0,0:0:0:0:
200,48,159345,2,0,B|48:48|48:48|48:192|48:192|184:192,1,420
304,192,161745,1,0,0:0:0:0:
424,192,162345,2,0,L|320:304,1,140
208,184,163545,2,0,L|304:80,1,140
288,192,164745,5,0,0:0:0:0:
360,192,165045,1,0,0:0:0:0:
256,192,168345,5,0,0:0:0:0:
360,192,168945,2,0,L|504:192,2,140
360,192,170445,1,0,0:0:0:0:
256,96,171045,1,0,0:0:0:0:
160,192,171645,1,0,0:0:0:0:
160,192,171945,2,0,L|16:192,3,140
160,192,174345,1,0,0:0:0:0:
256,192,174945,5,0,0:0:0:0:
304,136,175245,1,0,0:0:0:0:
320,208,175545,1,0,0:0:0:0:
432,56,176145,2,0,P|424:168|328:304,1,280
256,264,177945,6,0,L|256:112,1,140
120,128,179145,1,0,0:0:0:0:
120,128,179445,1,0,0:0:0:0:
120,128,179745,2,0,L|120:208,2,70
256,192,180945,5,0,0:0:0:0:
376,72,181545,2,0,P|448:192|376:304,1,280
184,312,183345,1,0,0:0:0:0:
120,216,183645,6,0,L|176:168,1,70
160,144,184245,2,0,L|216:96,1,70
248,120,184845,2,0,L|296:176,1,70
320,176,185445,2,0,L|368:240,1,70
256,200,186345,5,0,0:0:0:0:
360,200,186645,1,0,0:0:0:0:
456,200,186945,1,0,0:0:0:0:
408,280,187245,1,0,0:0:0:0:
304,280,187545,1,0,0:0:0:0:
256,192,187845,12,4,192345,0:0:0:0:
